#TITLE:Waiting on a Miracle;
#SUBTITLE:;
#ARTIST:Stephanie Beatriz;
#TITLETRANSLIT:;
#SUBTITLETRANSLIT:;
#ARTISTTRANSLIT:;
#GENRE:Encanto;
#CREDIT:;
#BANNER:Waiting on a Miracle-bn.jpg;
#BACKGROUND:Waiting on a Miracle-bg.jpg;
#LYRICSPATH:;
#CDTITLE:;
#MUSIC:Waiting on a Miracle.mp3;
#OFFSET:-0.002006;
#SAMPLESTART:92.856049;
#SAMPLELENGTH:15.157898;
#LASTBEATHINT:446.000397;
#SELECTABLE:YES;
#DISPLAYBPM:190.000000;
#BPMS:0.000000=190.000000
,422.000000=152.000000
,425.000000=163.000000
,428.000000=122.300003
,429.000000=139.750000
,430.000000=130.199997
,431.000000=118.750000
,432.000000=118.500000
,433.000000=101.500000
,434.000000=121.799995
,437.000000=93.699997
;
#STOPS:390.000000=1.263000,
433.000000=1.182000
;
#BGCHANGES:;
#KEYSOUNDS:;
#ATTACKS:;

//---------------dance-single - ----------------
#NOTES:
     dance-single:
     :
     Hard:
     8:
     0.484271,0.667763,0.281375,0.174185,0.000000,506.000000,464.000000,42.000000,26.000000,0.000000,0.000000,0.484271,0.667763,0.281375,0.174185,0.000000,506.000000,464.000000,42.000000,26.000000,0.000000,0.000000:
0000
0000
0000
0000
,
0000
0000
0000
0000
,
0000
0000
0000
0000
,
0000
0000
0000
0000
,
0000
0000
0000
0000
,
0000
0000
0000
0000
,
0000
0000
0000
0000
,
0000
0000
0000
0000
,
0000
0000
0000
0000
,
0000
0000
0000
0000
,
0000
0000
0000
0000
,
0000
0000
0000
0000
,
0000
0000
0000
0000
,
0000
0000
0000
0000
,
0000
0000
0000
0000
,
0000
0000
0000
0000
,
0000
0000
0020
0000
,
0030
0020
0000
0030
,
0020
0000
0030
0020
,
0000
0000
0030
0000
0001
0000
0100
0010
,
0000
0100
1000
0000
0100
0010
0000
0100
,
0001
0100
0010
1000
,
0100
0000
0010
0000
0011
0000
0001
1000
,
0000
1000
0001
0000
0001
0010
0000
0010
,
0100
1000
0001
0100
,
0010
0000
0100
0000
0001
0000
1000
0100
,
0000
0100
1000
0000
0010
0100
0000
0100
,
0010
1000
0001
0010
,
0100
0000
0010
0000
0001
0000
1000
0010
,
0000
0100
0001
0000
0001
0010
0000
0100
,
1000
0100
1000
0000
0001
0000
0100
0000
,
0010
1000
0000
1000
0002
0000
0010
0000
,
1003
2000
0100
3001
,
0102
1000
0013
1020
,
0001
0000
1030
0000
0100
0000
0001
0100
,
0000
0100
0010
0000
1000
0100
0000
0100
,
0010
0001
1000
0010
,
0100
0000
0010
0000
1000
0000
0001
0010
,
0000
0100
1000
0000
1000
0010
0000
0100
,
0001
0100
0001
0000
1000
0010
0100
0001
,
0010
0000
0100
0000
1000
0000
0001
0100
,
0000
0100
0010
0000
1000
0010
0000
0010
,
0100
0001
1000
0100
,
0010
0100
0000
0100
1000
0000
0001
0000
,
0010
0100
0010
0000
0010
0001
0000
0001
,
2000
0010
3001
0201
,
1000
0301
1001
1000
,
0010
0000
0110
0000
0010
0000
1000
0100
,
0010
0100
1000
1001
,
0100
0000
0010
1000
0100
0000
0010
0000
,
0001
0000
1001
0000
0100
0000
0001
0010
,
0100
1000
0010
0110
,
0010
1000
0001
0100
,
0010
0000
1010
0000
1000
0001
0100
0000
,
0001
1000
0100
1100
,
0010
0000
0100
0010
0200
0000
0001
0000
,
0310
2000
0100
3010
,
0002
0000
0013
0200
0000
1300
0020
0000
,
0130
2000
0000
3100
0010
0000
1000
0000
,
0100
0000
1100
0000
0001
0000
0010
0001
,
1000
0000
0001
0010
0001
0000
0101
0000
,
0100
0010
1000
0001
,
1000
0000
1010
0000
0010
0000
0100
0001
,
0010
0000
0001
1000
0001
0000
0011
0000
,
0001
1000
0100
1000
,
0001
0000
1001
0000
0100
0010
1000
0000
,
0010
0000
0100
0001
0100
0000
0101
0000
,
0100
0000
0010
1000
0100
0000
0100
0000
,
0010
0000
1001
0000
0001
1000
0000
1000
,
0010
0010
0100
0101
,
0100
0001
0000
0001
0010
0000
0011
0000
,
1001
1010
0110
0101
,
1001
0110
1001
1010
,
0101
0000
1010
0000
1001
0000
1000
0010
,
0000
0010
0100
0000
0100
0001
0010
0001
,
0100
0000
0010
1000
0100
1000
0010
0000
,
1000
0100
0001
0100
1000
0000
1000
0010
,
0100
0010
1000
0000
1000
0001
0010
0100
,
0010
0000
0010
0001
0100
0001
0010
0000
,
0100
0010
0001
1000
0100
0000
0100
1000
,
0010
0001
0010
0000
1000
0010
0001
0010
,
1000
0000
0001
0100
0010
1000
0100
0000
,
0010
0100
1000
0100
0010
0000
0001
1000
,
0100
1000
0001
0000
1000
0010
0100
0001
,
0020
0001
0130
0210
,
0001
0000
1300
0000
1100
0000
1000
0100
,
0001
0100
1000
0000
1000
0100
0010
0100
,
1000
0000
1000
0001
0100
0001
1000
0000
,
0001
0100
0010
0100
0001
0000
0100
0010
,
0001
0010
0100
0000
0100
0010
0001
0010
,
1000
0000
1000
0001
0100
0010
1000
0000
,
1000
0010
0001
0010
1000
0000
1000
0100
,
0010
0001
0100
0000
0100
0010
1000
0001
,
0010
0000
0010
0100
1000
0001
0100
0000
,
0100
0010
1000
0001
0100
0000
0001
0100
,
0010
0100
0001
0000
1000
0010
0100
0010
,
2000
0100
3010
0021
,
1000
0031
0110
0000
,
1001
0000
0100
0010
0100
0000
1100
0000
,
0001
1000
0100
0000
0010
0000
0001
0100
,
0001
0000
0101
0000
1000
0010
0100
0000
,
0010
0000
1000
0001
1000
0000
0110
0000
,
0001
0100
1000
0000
0100
0000
0010
0100
,
0010
0000
1010
0000
1000
0001
0100
0000
,
0001
0000
1000
0100
0010
0000
0110
0000
,
0001
0100
0002
0000
,
1003
0100
0010
0000
0001
0000
1000
0000
,
0002
0100
0013
1020
,
0001
1030
0200
0000
,
0000
0302
0000
0000
,
2000
0000
0000
3003
;

//---------------dance-single - ----------------
#NOTES:
     dance-single:
     :
     Medium:
     6:
     0.290946,0.482273,0.167485,0.254577,0.000000,304.000000,279.000000,25.000000,38.000000,0.000000,0.000000,0.290946,0.482273,0.167485,0.254577,0.000000,304.000000,279.000000,25.000000,38.000000,0.000000,0.000000:
// measure 0
0000
0000
0000
0000
,  // measure 1
0000
0000
0000
0000
,  // measure 2
0000
0000
0000
0000
,  // measure 3
0000
0000
0000
0000
,  // measure 4
0000
0000
0000
0000
,  // measure 5
0000
0000
0000
0000
,  // measure 6
0000
0000
0000
0000
,  // measure 7
0000
0000
0000
0000
,  // measure 8
0000
0000
0000
0000
,  // measure 9
0000
0000
0000
0000
,  // measure 10
0000
0000
0000
0000
,  // measure 11
0000
0000
0000
0000
,  // measure 12
0000
0000
0000
0000
,  // measure 13
0000
0000
0000
0000
,  // measure 14
0000
0000
0000
0000
,  // measure 15
0000
0000
0000
0000
,  // measure 16
0000
0000
0020
0000
,  // measure 17
0030
0020
0000
0030
,  // measure 18
0020
0000
0030
0020
,  // measure 19
0000
0000
0030
0000
0001
0000
0000
1000
,  // measure 20
0000
0000
0100
0000
0000
0010
0000
0000
,  // measure 21
0001
1000
0100
0010
,  // measure 22
0001
0000
1000
0000
0100
0000
0000
0010
,  // measure 23
0000
0000
0001
0000
0000
1000
0000
0000
,  // measure 24
0010
0000
0000
0001
0000
0000
0100
0000
,  // measure 25
0000
1000
0000
0000
0100
0000
0000
0010
,  // measure 26
0000
0000
0100
0000
0000
0010
0000
0000
,  // measure 27
1000
0000
0000
0100
0000
0000
0010
0000
,  // measure 28
0000
0001
0000
0000
1000
0000
0000
0001
,  // measure 29
0000
0000
0010
0000
0000
0100
0000
0000
,  // measure 30
0010
0000
0000
0001
0000
0000
1000
0000
,  // measure 31
0000
0010
0000
0000
0100
0000
0000
0000
,  // measure 32
0000
0000
0001
0000
0100
0001
0000
0100
,  // measure 33
0001
1000
0100
0010
,  // measure 34
0100
0000
1000
0000
0001
0000
0000
0010
,  // measure 35
0000
0000
0100
0000
0000
1000
0000
0000
,  // measure 36
0010
0000
0000
1000
0000
0000
0001
0000
,  // measure 37
0000
0100
0000
0000
0010
0000
0000
1000
,  // measure 38
0000
0000
0100
0000
0000
1000
0000
0000
,  // measure 39
0010
0000
0000
0100
0000
0000
0001
0000
,  // measure 40
0000
0010
0000
0000
0001
0000
0000
1000
,  // measure 41
0000
0000
0010
0000
0000
0100
0000
0000
,  // measure 42
0001
0000
0000
0010
0000
0000
0100
0000
,  // measure 43
0000
1000
0000
0000
0001
0000
0000
0000
,  // measure 44
1000
0010
1000
0000
0010
0100
0000
0010
,  // measure 45
0100
0001
0100
0000
0000
0001
0100
0001
,  // measure 46
0100
0000
0001
0010
,  // measure 47
0100
2000
0000
3000
,  // measure 48
1000
0010
0001
0020
,  // measure 49
0000
0030
1000
0001
,  // measure 50
0100
0002
0000
0003
,  // measure 51
0001
1000
0100
2000
,  // measure 52
0000
3000
0100
1000
,  // measure 53
0010
0200
0000
0300
,  // measure 54
0010
1000
0001
0020
,  // measure 55
0000
0030
0100
1000
,  // measure 56
0001
0200
0000
0300
,  // measure 57
0010
0000
1000
0100
0000
0000
0010
0000
,  // measure 58
0001
0100
0000
0000
0001
0000
0000
0010
,  // measure 59
0000
0000
0100
0000
0000
1000
0000
0000
,  // measure 60
0220
0000
0330
2002
,  // measure 61
0000
0000
3003
0000
0010
0000
0000
1000
,  // measure 62
0000
0000
0001
0000
0000
0010
0000
0000
,  // measure 63
2002
0000
3003
0220
,  // measure 64
0000
0000
0330
0000
1000
0000
0000
0100
,  // measure 65
0000
0000
0010
0000
0000
0001
0000
0000
,  // measure 66
0220
0000
0330
2002
,  // measure 67
0000
0000
3003
0000
0010
0000
0000
0100
,  // measure 68
0000
0000
0001
0000
0000
1000
0000
0000
,  // measure 69
0100
0000
0000
0010
0000
0000
0001
0000
,  // measure 70
0000
1000
0000
0000
0010
0000
0010
0000
,  // measure 71
0100
0100
0001
0001
,  // measure 72
1000
0100
0010
0001
,  // measure 73
0010
0000
0100
0000
2100
0000
0000
0010
,  // measure 74
0000
0000
0100
0000
0000
3010
0000
0000
,  // measure 75
0012
0000
0000
1000
0000
0000
0010
0000
,  // measure 76
0000
1003
0000
0000
0210
0000
0000
0001
,  // measure 77
0000
0000
0010
0000
0000
0301
0000
0000
,  // measure 78
1020
0000
0000
0100
0000
0000
1000
0000
,  // measure 79
0000
0130
0000
0000
0110
0000
0000
1001
,  // measure 80
0000
1010
0000
1000
,  // measure 81
0001
0000
0010
0100
0000
0000
0010
0000
,  // measure 82
0001
1000
0000
0000
1001
0000
0000
0000
,  // measure 83
0010
0001
0010
0000
0001
0100
0000
0100
,  // measure 84
0010
1000
0001
0010
,  // measure 85
0100
0000
0010
0000
0102
0000
0000
0010
,  // measure 86
0000
0000
1000
0000
0000
0013
0000
0000
,  // measure 87
2010
0000
0000
0001
0000
0000
0010
0000
,  // measure 88
0000
3100
0000
0000
0210
0000
0000
1000
,  // measure 89
0000
0000
0001
0000
0000
0310
0000
0000
,  // measure 90
0021
0000
0000
1000
0000
0000
0100
0000
,  // measure 91
0000
0031
0000
0000
0101
0000
0000
1100
,  // measure 92
0000
1001
0000
0001
,  // measure 93
1000
0000
0010
0100
,  // measure 94
0001
1000
0000
0000
1001
0000
0000
0010
,  // measure 95
1000
0100
1000
0000
0001
0100
0000
0100
,  // measure 96
0010
1000
0001
0010
,  // measure 97
0100
0010
1001
0000
,  // measure 98
0001
0100
1000
0100
,  // measure 99
0010
0100
0001
0010
,  // measure 100
0100
1000
0010
0001
,  // measure 101
0010
1000
0100
0010
,  // measure 102
0100
1000
0001
0100
,  // measure 103
0010
1000
0100
0010
,  // measure 104
0100
1000
0001
1000
,  // measure 105
0100
0010
2002
0000
,  // measure 106
3003
0220
0000
0330
,  // measure 107
0001
1000
0100
0010
,  // measure 108
0100
1000
0002
0000
,  // measure 109
0000
2003
0000
0000
,  // measure 110
0200
0000
0000
3300
;

//---------------dance-single - ----------------
#NOTES:
     dance-single:
     :
     Easy:
     3:
     0.153129,0.362605,0.013399,0.288074,0.000000,160.000000,158.000000,2.000000,43.000000,0.000000,0.000000,0.153129,0.362605,0.013399,0.288074,0.000000,160.000000,158.000000,2.000000,43.000000,0.000000,0.000000:
0000
0000
0000
0000
,
0000
0000
0000
0000
,
0000
0000
0000
0000
,
0000
0000
0000
0000
,
0000
0000
0000
0000
,
0000
0000
0000
0000
,
0000
0000
0000
0000
,
0000
0000
0000
0000
,
0000
0000
0000
0000
,
0000
0000
0000
0000
,
0000
0000
0000
0000
,
0000
0000
0000
0000
,
0000
0000
0000
0000
,
0000
0000
0000
0000
,
0000
0000
0000
0000
,
0000
0000
0000
0000
,
0000
0000
0020
0000
,
0030
0020
0000
0030
,
0020
0000
0030
0020
,
0000
0030
0002
0000
,
0003
2000
0000
3000
,
0200
0000
0300
0020
,
0000
0000
0030
0000
0100
0000
0000
0100
,
0000
1000
0000
0000
,
0001
0000
0000
0010
,
0000
0000
0000
0000
0001
0000
0000
0001
,
0000
0100
0000
0000
,
0010
0000
0000
0010
0000
0000
1000
0000
,
0000
0000
0000
0000
0100
0000
0000
0100
,
0000
0010
0000
0000
,
0001
0000
0000
1000
,
0000
0000
0020
0000
,
0030
0200
0000
0300
,
0001
0000
0000
1000
,
0000
0000
0000
0000
0010
0000
0000
1000
,
0000
0100
0000
0000
,
1000
0000
0000
0001
,
0000
0000
0000
0000
0100
0000
0000
0001
,
0000
0010
0000
0000
,
0001
0000
0000
1000
,
0000
0000
0000
0000
0010
0000
0000
0100
,
0000
0000
0001
0000
0000
1000
0000
0000
,
0100
0000
0000
0010
,
0000
0000
0001
0000
,
0000
1000
0000
0000
,
0010
0000
0000
0100
,
0000
0000
0000
0000
0001
0000
0000
0010
,
0000
0000
0001
0000
0000
0010
0000
0000
,
0200
0000
0000
0300
,
0000
0000
0000
0000
1000
0000
0000
0100
,
0000
0000
0000
1000
0000
0100
0000
0000
,
0020
0000
0000
0030
,
0000
0000
0000
0000
0001
0000
0000
1000
,
0000
0000
0001
0000
0000
1000
0000
0000
,
0010
0000
0000
1000
,
0000
0000
0001
0000
,
0000
0100
0000
0000
,
0010
0000
0000
0100
,
0000
0000
0002
0000
,
0000
0023
0000
0000
,
0200
0000
0000
0330
,
0000
0000
2000
0000
,
0000
3020
0000
0000
,
0200
0000
0000
0330
,
0000
0000
0002
0000
,
0000
2000
0000
3003
,
0200
0000
0000
0020
,
0000
0330
0002
0000
,
0000
2000
0000
3003
,
0020
0000
0000
0200
,
0000
0330
0001
0001
,
0001
0001
0001
0001
,
1000
1000
1000
1000
,
1000
1000
2002
0000
,
3003
0020
0000
0030
,
0200
0000
0300
0020
,
0000
0030
2000
0000
,
3000
0200
0000
0300
,
0020
0000
0030
0002
,
0000
0000
0003
0000
1000
0000
0000
0001
,
0000
0000
0100
0000
0000
0010
0000
0000
,
1000
0000
0000
0001
,
0000
0000
0000
0000
0010
0000
0000
0100
,
0000
0000
1000
0000
0000
0001
0000
0000
,
0100
0000
0000
0010
,
0000
0000
2000
0000
,
3000
0002
0000
0003
,
2000
0000
3000
0200
,
0000
0300
0020
0000
,
0030
0002
0000
0003
,
2000
0000
3000
0020
,
0000
0000
0030
0000
1000
0000
0000
0100
,
0000
0000
0010
0000
0000
0001
0000
0000
,
0100
0000
0000
0010
,
0000
0000
0000
0000
0100
0000
0000
0001
,
0000
0000
0010
0000
0000
0100
0000
0000
,
1000
0000
0000
0001
,
0000
0000
1001
0000
,
0001
0000
0000
1000
0000
0000
0010
0000
,
0000
0000
0000
0000
1000
0000
0000
0100
,
0000
0010
0000
0000
,
0001
0000
0000
0100
0000
0000
1000
0000
,
0000
0000
0000
0000
0001
0000
0000
1000
,
0000
0100
0000
0000
,
0010
0000
0000
0001
0000
0000
1000
0000
,
0000
0000
0001
0000
,
0000
1000
0000
0000
,
0010
0100
0010
0100
,
0010
0100
0000
0000
;

//---------------dance-single - ----------------
#NOTES:
     dance-single:
     :
     Beginner:
     1:
     0.104319,0.143367,0.006699,0.073693,0.000000,109.000000,108.000000,1.000000,11.000000,0.000000,0.000000,0.104319,0.143367,0.006699,0.073693,0.000000,109.000000,108.000000,1.000000,11.000000,0.000000,0.000000:
0000
0000
0000
0000
,
0000
0000
0000
0000
,
0000
0000
0000
0000
,
0000
0000
0000
0000
,
0000
0000
0000
0000
,
0000
0000
0000
0000
,
0000
0000
0000
0000
,
0000
0000
0000
0000
,
0000
0000
0000
0000
,
0000
0000
0000
0000
,
0000
0000
0000
0000
,
0000
0000
0000
0000
,
0000
0000
0000
0000
,
0000
0000
0000
0000
,
0000
0000
0000
0000
,
0000
0000
0000
0000
,
0000
0000
0010
0000
,
0000
0010
0000
0000
,
0010
0000
0000
0010
,
0000
0000
0010
0000
,
0000
0010
0000
0000
,
0010
0000
0000
0010
,
0000
0000
0001
0000
,
0000
0001
0000
0000
,
0001
0000
0000
0001
,
0000
0000
1000
0000
,
0000
1000
0000
0000
,
1000
0000
0000
1000
,
0000
0000
0100
0000
,
0000
0100
0000
0000
,
0100
0000
0000
0100
,
0000
0000
1000
0000
,
0000
1000
0000
0000
,
0001
0000
0000
0010
,
0000
0000
0100
0000
,
0000
0100
0000
0000
,
0010
0000
0000
0010
,
0000
0000
0001
0000
,
0000
0001
0000
0000
,
1000
0000
0000
1000
,
0000
0000
0100
0000
,
0000
0100
0000
0000
,
1000
0000
0000
1000
,
0000
0000
0001
0000
,
0000
0001
0000
0000
,
0100
0000
0000
0010
,
0000
0000
1000
0000
,
0000
0100
0000
0000
,
2000
0000
0000
3000
,
0000
0000
0001
0000
,
0000
0100
0000
0000
,
0002
0000
0000
0003
,
0000
0000
1000
0000
,
0000
0010
0000
0000
,
0200
0000
0000
0300
,
0000
0000
0002
0000
,
0000
0003
0000
0000
,
2000
0000
0000
3000
,
0000
0000
0010
0000
,
0000
0010
0000
0000
,
0200
0000
0000
0300
,
0000
0000
0100
0000
,
0000
0100
0000
0000
,
0020
0000
0000
0030
,
0000
0000
1000
0000
,
0000
0001
0000
0000
,
1000
0000
0000
0001
,
0000
0000
0020
0000
,
0000
0030
0000
0000
,
0200
0000
0000
0300
,
0000
0000
0020
0000
,
0000
0030
0000
0000
,
0200
0000
0000
0300
,
0000
0000
1001
0000
,
0000
0010
0000
0000
,
0001
0000
0000
0001
,
0000
0000
1000
0000
,
0000
0010
0000
0000
,
1000
0000
0000
1000
,
0000
0000
0100
0000
,
0000
0010
0000
0000
,
0100
0000
0000
0100
,
0000
0000
0010
0000
,
0000
0001
0000
0000
,
0100
0000
0000
1000
,
0000
0000
0010
0000
,
0000
0010
0000
0000
,
0100
0000
0000
0100
,
0000
0000
0001
0000
,
0000
0001
0000
0000
,
1000
0000
0000
1000
,
0000
0000
0100
0000
,
0000
0010
0000
0000
,
0001
0000
0000
1000
,
0000
0000
0100
0000
,
0000
0001
0000
0000
,
0010
0000
0000
1000
,
0000
0000
0100
0000
,
0000
0000
0000
0001
,
0000
0000
0000
0000
,
0000
1000
0000
0000
,
0000
0000
0000
0010
,
0000
0000
0010
0000
,
0000
0100
0000
0000
,
0001
0000
0000
1000
,
0000
0000
0100
0000
,
0000
0100
0000
0000
,
0010
0000
0000
0000
;
