#TITLE:Volver a Comenzar;
#SUBTITLE:;
#ARTIST:Cafe Tacuba;
#TITLETRANSLIT:;
#SUBTITLETRANSLIT:;
#ARTISTTRANSLIT:;
#GENRE:Sino;
#CREDIT:;
#BANNER:Volver A Comenzar-bn.jpg;
#BACKGROUND:Volver A Comenzar-bg.jpg;
#LYRICSPATH:;
#CDTITLE:;
#MUSIC:Volver A Comenzar.mp3;
#OFFSET:-0.023000;
#SAMPLESTART:50.308998;
#SAMPLELENGTH:13.754000;
#SELECTABLE:YES;
#BPMS:0.000000=130.000000
;
#STOPS:156.000000=1.384000
;
#BGCHANGES:;
#KEYSOUNDS:;
#ATTACKS:;

//---------------dance-single - ----------------
#NOTES:
     dance-single:
     :
     Challenge:
     9:
     0.612486,0.607755,0.409388,0.349840,0.096764,474.000000,55.000000,47.000000,0.000000,0.000000,0.000000,0.612486,0.607755,0.409388,0.349840,0.096764,474.000000,55.000000,47.000000,0.000000,0.000000,0.000000:
0000
0000
0000
0000
,
0000
0000
0000
0000
,
0000
0000
0000
0000
,
0000
0000
0011
0000
0010
0100
0000
1001
,
1000
0010
1000
0001
1000
0100
1000
0001
,
1000
0010
0100
0010
0001
0010
0100
0010
,
1000
0100
0001
0100
0010
0001
1000
0001
,
0100
0010
0100
1000
0100
0010
0100
0001
,
0001
0010
0001
1000
0001
0100
0001
1000
,
0001
0010
0100
0010
1000
0010
0100
0010
,
0001
0100
1000
0100
0010
1000
0001
1000
,
0100
0010
0100
0001
0100
0010
0100
1000
,
0010
0010
0100
0100
0001
1000
0002
0000
,
0203
0320
2030
3002
,
1003
0100
1000
1000
0000
0100
0001
0001
,
0000
0100
1000
1000
0000
0100
0020
0000
,
0032
0000
0203
0000
1300
0100
0001
0100
,
0020
2030
3002
0203
,
0302
0000
0013
1000
0000
0010
0001
0001
,
0000
0010
1000
1000
0000
0010
0200
0000
,
2300
0000
3002
0000
0103
1000
0200
0000
,
0301
0100
0002
0000
0023
0000
0230
0000
,
1300
0010
0001
0001
0000
0010
1000
1000
,
0000
0010
0001
0001
0000
0010
0110
0000
,
0200
0000
0302
0000
1003
0001
1000
0010
,
0100
0001
2000
0000
3002
0000
0023
0000
,
0230
0000
1300
0002
0100
0003
0101
0000
,
0200
0010
0310
0000
1000
0001
0000
1001
,
0001
0010
0100
1000
0001
0010
0100
0010
,
0001
0100
0010
1000
0001
1000
0100
1000
,
0001
0100
1000
0100
0010
1000
0001
1000
,
0010
0100
0001
0010
0100
1000
0001
1000
,
1010
0010
0200
0000
1300
0100
0002
0000
,
0023
0032
2003
3200
,
1300
0000
0000
0000
0010
0000
0110
0000
0000
0000
1001
0000
0000
0000
1000
0010
,
0100
0000
0000
0000
0001
0000
1100
0000
0000
0000
0101
0000
0000
0000
1000
0010
,
0100
0000
0002
0100
1003
0010
2000
0000
,
3200
0010
1300
1100
,
1000
0000
1001
0000
0001
0100
1000
0100
,
0002
0000
1003
0010
0100
0001
1000
0010
,
0100
0001
1000
0001
0100
0010
1000
0001
,
0100
0000
0010
0000
2000
0000
0000
0000
3001
0000
1000
0100
2000
0000
0000
0000
,
3001
0000
0100
0001
0100
0000
0000
0000
1001
0000
0000
0000
0010
0000
0100
0000
,
1001
0000
0001
0000
0010
0000
0001
0000
1000
0000
0100
0000
0010
0000
0001
1000
,
0100
0000
1000
0000
0001
0000
0010
0000
0100
0000
1000
0000
0001
0000
0010
0100
,
1000
0100
0020
0000
0130
0010
0200
0000
,
1300
0000
0001
0000
0010
0001
0000
0001
0010
0000
0100
0010
0100
0010
0100
1000
,
0001
0000
1000
0001
1001
0000
0000
0000
1100
0000
0000
0000
0101
0000
0001
0000
,
0010
0001
1001
0001
1010
0100
0110
0010
,
1001
0001
1001
0000
0110
0000
1001
1000
,
0100
0010
0001
0010
0100
1000
0001
0010
,
0100
1000
1001
0000
0011
0000
1100
0100
,
1000
0010
0110
0000
1001
0000
0101
1000
,
0100
1000
1001
0001
0110
1000
1001
0010
,
0100
0001
1000
0100
0010
0001
1000
0100
,
1000
0001
0021
0000
0031
1000
1020
0000
,
1030
0001
0201
0000
0301
1000
1200
0000
,
1300
0001
0100
0000
0001
1001
0000
0001
,
0100
0010
1000
0100
2000
0000
3010
0100
,
0000
0000
1001
0000
0001
0000
0010
0000
0100
0000
1000
0000
0001
0000
0100
0010
,
1000
0000
0001
0000
0010
0000
0100
0000
1000
0000
0001
0000
1000
0000
0100
0010
,
0001
1000
0010
0100
0010
1000
0001
0100
,
1000
0000
0100
0000
0001
0000
0010
0001
0100
0001
0010
0000
0100
1000
0001
1000
,
0100
0000
1001
0000
1001
0000
0001
0000
0010
0000
0001
0000
1000
0000
0001
1000
,
0100
0000
1000
0000
0001
0000
0100
0000
0001
0000
1000
0000
0010
0000
1000
0100
,
0010
0001
0100
0001
0010
0100
0010
1000
,
0010
0000
0100
0000
0100
1000
0100
0010
0100
0000
1000
0001
1000
0010
1000
0000
,
0010
1000
0010
0100
0010
0000
0110
0000
0000
0000
0100
0000
1001
0000
0000
0000
,
0010
0011
0000
0001
1001
0000
1100
1100
,
1100
0000
1010
0010
0000
0100
0101
0000
,
1001
0000
0011
0000
0110
0100
1001
1000
,
0101
0000
0000
0000
;

//---------------dance-single - ----------------
#NOTES:
     dance-single:
     :
     Medium:
     6:
     0.326447,0.317089,0.104208,0.029774,0.000000,289.000000,14.000000,4.000000,0.000000,0.000000,0.000000,0.326447,0.317089,0.104208,0.029774,0.000000,289.000000,14.000000,4.000000,0.000000,0.000000,0.000000:
0000
0000
0000
0000
,
0000
0000
0000
0000
,
0000
0000
0000
0000
,
0000
0000
0010
0000
0100
0001
0000
1001
,
0000
0000
0000
0000
0000
0001
0010
0001
,
0000
0000
0010
0000
0001
1000
0000
0100
,
0000
1000
0000
0001
,
0000
0000
0100
0000
0010
0100
0000
0001
,
0000
0000
0010
0000
0000
0100
1000
0001
,
0000
0000
0010
0000
0001
1000
0000
0100
,
0000
0000
0000
0000
0000
0000
0000
0011
,
0000
0010
0100
0000
1000
0001
1000
0000
,
0001
0000
0001
0000
0100
0010
0100
0000
,
0010
1000
0100
0010
,
0001
0001
1000
1000
,
0001
0001
1000
1000
,
0010
0000
1000
0000
0100
0010
0100
0010
,
0100
0010
0001
1000
,
0001
0100
0001
1000
,
0001
0000
0010
0000
0100
1000
0100
0000
,
1000
0000
0010
0000
1000
0001
1000
0000
,
0010
0000
0100
0000
0001
0010
0001
0000
,
0010
0100
1000
0010
,
1000
0100
0010
0001
,
1000
0000
0001
0000
0010
0001
0010
0000
,
0100
0010
0100
0000
1000
0000
0001
0000
,
1001
0000
0010
0001
0010
0000
0100
0000
,
1000
0000
0010
0000
1000
0001
0000
0100
,
0001
0000
0010
0000
0001
0010
0001
0010
,
0100
0000
0010
0000
0100
1000
0100
1000
,
0001
0100
0010
1000
,
0001
0000
0010
0000
0100
1000
0001
0000
,
0101
0000
1000
0000
0100
1000
0100
0000
,
1000
0010
0100
0001
,
1000
0100
1000
0001
,
0010
0100
0010
0001
,
1000
0000
0100
0000
1000
0001
1000
0000
,
0010
0100
0001
1000
,
0001
0010
0100
1000
,
1001
0000
1000
0100
0010
0001
1000
0100
,
0010
0001
1000
0000
0001
0000
0000
0000
,
1001
0010
0000
1000
,
0000
0001
0000
0100
,
0000
0000
0001
0100
0010
1000
0001
0100
,
0010
1000
0001
0000
0100
0000
0010
0000
,
1000
0001
0000
0010
,
0000
0100
0000
1000
,
0000
0001
0001
1000
,
1000
0010
0001
0100
,
1000
1001
0001
1000
,
0001
0010
0100
1000
,
0001
0100
0010
1000
,
0100
0010
0001
1000
,
0010
0110
0001
1000
,
0100
0010
0001
1000
,
0010
2000
0000
3020
,
0000
0230
0000
0302
,
0000
0000
1003
0000
0001
0001
0000
0100
,
0100
0000
0001
0000
0010
0000
0100
1000
,
0000
0001
0000
0000
1001
0000
0010
0000
,
1000
0100
0001
0000
0101
0000
0100
0000
,
0010
0001
1000
0000
1010
0000
0000
0000
,
0001
0000
1000
0100
,
0010
0001
1000
0000
1001
0000
0010
0001
,
0100
0000
0001
0000
1000
0000
0010
0100
,
0001
1000
0001
0100
,
0001
0000
1000
0000
1100
0000
0001
0100
,
0010
0000
1000
1000
0000
0001
0001
0000
,
0100
0100
0000
0010
0010
0000
1000
0000
,
0001
0000
0010
0010
0000
0100
0100
0000
,
1000
0000
0001
0000
1000
0001
1000
0000
,
1001
0000
0000
0000
;

//---------------dance-single - ----------------
#NOTES:
     dance-single:
     :
     Easy:
     4:
     0.243506,0.211393,0.037217,0.141425,0.000000,205.000000,5.000000,19.000000,0.000000,0.000000,0.000000,0.243506,0.211393,0.037217,0.141425,0.000000,205.000000,5.000000,19.000000,0.000000,0.000000,0.000000:
0000
0000
0000
0000
,
0000
0000
0000
0000
,
0000
0000
0000
0000
,
0000
0010
1000
0100
,
1000
1000
0001
0001
,
1000
0001
1000
0001
,
0100
0100
0010
0010
,
0100
0010
0100
0010
,
1000
1000
0010
0010
,
1000
0010
0100
0001
,
1000
1000
0001
0001
,
0100
0001
1000
0100
,
1000
0000
0010
0000
,
1000
0100
1000
0100
,
0020
0000
0032
0000
,
2003
0000
3200
0000
,
0310
0001
1000
0000
,
0100
1000
0001
0000
,
2000
0000
3002
0000
,
0203
0000
0320
0000
,
1030
0000
0100
0000
,
0010
0000
0001
0000
,
0020
0000
0230
0000
,
2300
0000
3002
0000
,
0103
0001
0010
0000
,
0001
1000
0010
0000
,
0200
0000
0302
0000
,
2003
0000
3020
0000
,
0130
0001
1000
0100
,
1000
0001
0100
0000
,
0001
0010
0001
1000
,
0010
1000
0001
0000
,
0010
0010
0100
0100
,
1000
0010
0100
0001
,
1000
0000
0001
0000
,
1000
0000
0001
0000
,
0001
0001
1000
1000
,
0100
0010
0001
1000
,
0100
0000
0010
0000
,
1001
1001
0010
0001
,
0000
1000
0010
0001
,
0000
0001
0100
1000
,
0000
0001
0100
1000
,
0000
0001
0100
0010
,
1000
0100
0010
0001
,
0000
1000
0000
0010
,
0000
0100
0001
1000
,
0100
1000
1000
0001
,
0001
1000
0001
1000
,
0001
0010
0000
0100
,
0000
1000
0000
0001
,
0000
0100
0100
0010
,
0010
0100
0010
0100
,
0010
1000
0000
0001
,
0000
0100
0000
1000
,
0000
0010
0000
0002
,
0000
2003
0000
3200
,
0000
1300
0000
0001
,
0000
0010
0000
0100
,
0000
1001
0010
1000
,
0100
1000
0010
0001
,
0100
0001
0000
1000
,
0000
0001
1000
0001
,
1000
0010
0001
0100
,
1000
0100
0001
0010
,
1000
0100
0000
1000
,
0000
0001
0000
1001
,
0000
0000
0010
0000
0000
0010
0000
0000
,
0010
0000
0000
0010
0000
0000
0010
0000
,
0000
0000
0100
0000
0000
0100
0000
0000
,
0100
0100
0100
0100
,
0110
0000
0000
0000
;

//---------------dance-single - ----------------
#NOTES:
     dance-single:
     :
     Beginner:
     1:
     0.113778,0.132121,0.044660,0.000000,0.000000,101.000000,6.000000,0.000000,0.000000,0.000000,0.000000,0.113778,0.132121,0.044660,0.000000,0.000000,101.000000,6.000000,0.000000,0.000000,0.000000,0.000000:
0000
0000
0000
0000
,
0000
0000
0000
0000
,
0000
0000
0000
0000
,
0000
0000
0000
0000
,
0100
0000
0000
0000
,
1000
0000
0000
0000
,
0010
0000
0000
0000
,
1000
0000
0000
0000
,
0100
0000
0000
0000
,
0010
0000
0000
0000
,
1000
0000
0000
0000
,
0100
0000
0000
0000
,
1000
0000
1000
0000
,
0001
0000
0001
0000
,
0100
0000
0000
0000
,
0010
0000
0000
0000
,
0100
0000
0100
0000
,
0001
0000
0001
0000
,
1000
0000
0000
0000
,
0010
0000
0000
0000
,
0100
0000
0100
0000
,
0010
0000
0010
0000
,
1000
0000
0001
0000
,
0100
0000
0010
0000
,
1000
0000
1000
0000
,
0010
0000
0010
0000
,
0100
0000
0000
0000
,
1000
0000
0000
0000
,
0010
0000
0000
0000
,
1000
0000
0000
0000
,
0001
0000
0000
0000
,
0010
0000
0000
0000
,
1000
0000
0000
0000
,
0001
0000
0000
0000
,
0100
0000
0000
0000
,
0010
0000
0000
0000
,
0001
0000
0001
0000
,
1000
0000
1000
0000
,
0100
0000
0000
0000
,
1001
0000
0000
0001
,
0000
0000
0000
1000
,
0000
0000
0000
0100
,
0000
0000
0000
1000
,
0000
0000
0000
0010
,
0000
0000
0000
1000
,
0000
0000
0000
0100
,
0000
0000
0000
1000
,
0000
0001
0000
0000
,
1000
0000
0000
0001
,
0000
0100
0000
0000
,
0000
0001
0000
1000
,
0000
0001
0000
0010
,
0000
1000
0000
0010
,
0000
0001
0000
1000
,
0000
0010
0000
0100
,
0000
0001
0000
1000
,
0000
0100
0000
0001
,
0000
1000
0000
0010
,
0000
0001
0000
1000
,
0000
1001
0000
0010
,
0000
0100
0000
0001
,
0000
1000
0000
0100
,
0000
0010
0000
0001
,
0000
1000
0000
1000
,
0000
0001
0000
0001
,
0000
1000
0000
0010
,
0000
0100
0000
0001
,
0000
1001
0000
0000
,
0010
0000
0000
1001
,
0000
1001
0000
0000
,
0100
0000
0100
0000
,
1001
0000
0000
0000
;

//---------------dance-double - ----------------
#NOTES:
     dance-double:
     :
     Challenge:
     9:
     0.554002,0.554906,0.230746,0.141425,0.048382,471.000000,31.000000,19.000000,0.000000,0.000000,0.000000,0.554002,0.554906,0.230746,0.141425,0.048382,471.000000,31.000000,19.000000,0.000000,0.000000,0.000000:
00000000
00000000
00000000
00000000
,
00000000
00000000
00000000
00000000
,
00000000
00000000
00000000
00000000
,
00000000
00000000
00100000
00000000
10000000
00010000
00000000
10010000
,
10000000
01000000
10000000
00010000
00100000
00010000
01000000
00001000
,
00010000
00000100
00001000
00000010
00001000
00000100
00010000
00001000
,
01000000
00010000
01000000
00100000
01000000
10000000
01000000
00010000
,
00100000
01000000
00100000
00001000
00010000
00000100
00001000
00000010
,
00000001
00000010
00000100
00000010
00001000
00000010
00000100
00000001
,
00001000
00000100
00000010
00000100
00010000
00001000
01000000
00100000
,
00010000
00100000
10000000
00010000
00100000
00001000
00010000
00000100
,
00000010
00000100
00000001
00000100
00000010
00000100
00010000
00001000
,
01000000
01000000
00100000
00100000
10000000
10000000
00010000
00010000
,
00100000
00001000
00010000
00000010
00001000
00000100
00001000
00000000
,
00000010
00000110
00000001
00001001
,
00000100
00010100
00001000
01001000
,
01000000
00100000
10000000
00010000
00100000
00100000
01000000
01000000
,
10000000
00100000
00010000
01000000
00001000
00010000
00000100
00001000
,
00000001
00001000
00000100
00001000
00000000
00000100
00010000
00010000
,
00000000
00001000
00100000
00010000
10000000
01000000
01000000
00000000
,
10000000
01000000
10000000
00010000
01000000
00010000
00100000
00001000
,
00010000
00000100
00001000
00000010
00000001
00000010
00001000
00000100
,
00010000
00011000
00100000
00110000
,
01000000
10010000
00100000
00011000
,
00000100
00001000
00000010
00000100
00001000
00000100
00000010
00001000
,
00000100
00010000
00001000
00100000
00010000
01000000
00100000
00010000
,
00100000
10000000
00010000
10000000
01000000
00010000
01000000
00100000
,
00001000
00000000
00011000
00000000
00000100
00010000
00000000
00001100
,
00000100
00000001
00000100
00010000
00001000
00100000
00001000
00010000
,
00001000
01000000
00001000
00100000
00010000
01000000
00010000
10000000
,
00010000
00100000
00001000
00010000
00000010
00000100
00001000
00000100
,
00000010
00010000
00001000
01000000
10000000
01000000
00010000
10000000
,
10010000
10000000
20000000
00000000
30010000
00010000
00020000
00000000
,
00230000
00302000
00023000
00030020
,
00000130
00000000
00000000
00000000
00000000
00000000
00000001
00000000
00000000
00000000
00000010
00000000
00000000
00000000
00000001
00000010
,
00000100
00000000
00000000
00000000
00000000
00000000
00001000
00000000
00000000
00000000
00010000
00000000
00000000
00000000
00100000
00010000
,
00200000
00000000
01300000
01000000
10000000
10000000
00020000
00000000
,
00230000
00302000
00023000
00030020
,
00000130
00000000
00000000
00000000
00000000
00000000
00001000
00000000
00000100
00000000
00000001
00000000
00001000
00000000
00000100
00010000
,
00001000
00000000
00011000
00100000
00010000
10000000
01000000
00100000
,
00001000
00001100
00000011
00001100
,
00110000
00000000
11000000
00000000
10000000
00200000
00010000
00300000
,
00010000
00200000
10000000
00300000
10000000
00100000
00010000
00100000
,
10000000
00000000
00010000
00100000
01000000
10000000
00010000
00100000
,
00001000
00010000
00000100
00001000
00000010
00000100
00000001
00000010
,
00000100
00010000
00001000
01000000
00010000
10000000
00010000
00100000
,
01000000
10000000
00100000
00010000
00100000
10000000
01000000
10000000
,
00100000
01000000
00010000
00000000
00110000
00000000
00011000
00000000
,
00000100
00001000
00000010
00000100
00000000
00000110
00000000
00000001
,
00001000
00000000
00000001
00000010
00000100
00010000
00001000
01000000
,
00010000
10000000
01000000
00100000
00001000
00010000
00000100
00001000
,
00000010
00000100
00000001
00000000
00000010
00000000
00000100
00010000
,
00001000
01000000
00010000
10000000
01000000
00100000
00100000
00001000
,
00010000
00000000
00000100
00001000
00000010
00000100
00000000
00000001
,
00000100
00000001
00000000
00000010
00000100
00010000
00001000
01000000
,
00010000
10000000
00200000
00000000
01300000
00010000
02000000
00000000
,
03100000
10000000
00020000
00000000
00130000
00001000
00020000
00000000
,
00030010
00000100
00000001
00000000
00000100
00000010
00000000
00001000
,
00000100
00010000
00001000
01000000
00200000
00000000
10300000
00010000
,
00000000
10010000
00010000
00100000
00001000
00010000
00000010
00001000
,
00000100
00000001
00000100
00001000
00000010
00010000
00001000
01000000
,
00100000
01000000
00010000
00100000
01000000
10000000
00010000
00100000
,
00001000
00000000
00010000
00000000
00000010
00000000
00000100
00000001
00000100
00000001
00000100
00000000
00000001
00001000
00000001
00001000
,
00000001
00000100
00000010
00010000
00001000
01000000
00100000
10000000
,
01000000
00010000
01000000
10000000
00010000
00100000
00001000
00010000
,
00000010
00000100
00000001
00000010
00000100
00010000
00001000
01000000
,
00100000
00000000
01000000
00000000
00010000
00100000
00010000
00100000
00001000
00000000
00010000
00001000
00010000
00000100
00001000
00000000
,
00000010
00001000
00000010
00001000
00000001
00000000
00000001
00000000
00000000
00000000
00000010
00000000
00000011
00000000
00000000
00000000
,
00000100
00001000
00000000
00010000
00011000
00000000
00110000
00100000
,
11000000
00000000
10010000
00010000
00000000
00100000
00101000
00000000
,
00011000
00000000
00010010
00000000
00000010
00001000
00000100
00000001
,
00000101
00000000
00000000
00000000
;

//---------------dance-double - ----------------
#NOTES:
     dance-double:
     :
     Medium:
     6:
     0.371107,0.369938,0.305180,0.096764,0.000000,295.000000,41.000000,13.000000,0.000000,0.000000,0.000000,0.371107,0.369938,0.305180,0.096764,0.000000,295.000000,41.000000,13.000000,0.000000,0.000000,0.000000:
00000000
00000000
00000000
00000000
,
00000000
00000000
00000000
00000000
,
00000000
00000000
00000000
00000000
,
00000000
00000000
00001000
00000000
00000010
00000100
00000000
00000002
,
00000000
00000000
00000010
00000000
00000000
00001003
00000001
00000100
,
00000000
00000000
00001001
00000000
00000001
00001000
00000000
00000200
,
00000000
00010000
00000000
00010300
,
00000000
00000000
00001000
00000000
00100000
00010000
00000000
02000000
,
00000000
00000000
00010000
00000000
03000000
00010000
10000000
02000000
,
00000000
00000000
13000000
00000000
00010000
00100000
00000000
00002000
,
00010000
00010000
00010000
00013000
,
00010000
00001000
00010000
00001000
00010000
00001000
00010000
00000000
,
00011000
00000100
00001001
00000100
,
00011000
01000000
10010000
01000000
,
00010000
00010000
00100000
00100000
,
00010000
00100000
01000000
10000000
,
10010000
00000000
01000000
00000000
00010000
00100000
00001000
00000000
,
00011000
00000000
00000100
00000000
00001000
00000001
00000010
00000000
,
00001001
00000000
00000100
00000000
00001000
00000010
00010000
00000000
,
00010020
00000000
00001030
00000000
00000100
00001000
00001000
00000000
,
00011000
00100000
10010000
00100000
,
00011000
00000010
00001001
00000010
,
00011000
00000000
01000000
00100000
01000000
00000000
00010000
00000000
,
00011000
00000000
00000100
00000010
00000100
00000000
00001000
00000000
,
00011000
00000000
00100000
00000000
00010000
10000000
00010000
00000000
,
00110000
00100000
00001000
00010000
,
00010010
00000000
00001000
00000000
00000001
00000100
00000001
00000000
,
00000010
00000000
00000001
00000000
00001000
00000010
00000000
00002200
,
00000000
00000000
00000000
00000000
00003300
00010000
00001000
00010000
,
00000000
00000000
00110000
00000000
00100000
01000000
00000000
22000000
,
00000000
00000000
00000000
00000000
00000000
00000000
33000000
10010000
,
00000000
00010000
00010000
00100000
00100000
00010000
00010000
00000000
,
00110000
00000000
00001000
00000000
00010000
00010000
00010000
00000000
,
00000100
00000000
00001000
00000000
00000010
00000010
00000010
00000000
,
00000100
00000000
00000001
00000000
00001000
00000100
00001000
00000000
,
00000010
00000000
00000100
00000000
00000001
00000010
00000100
00000000
,
00010000
00000000
00001000
00000000
01000000
00010000
01000000
00000000
,
10000000
01000000
00010000
00100000
,
00001000
00000000
00010000
00000100
00001000
00000000
00000010
00000000
,
00000110
00000000
00000100
00000001
00000100
00000000
00000010
00001000
,
00000010
00001100
00001100
00000000
,
00000100
00000000
00010000
00000000
00001000
01000000
00001000
00000000
,
01000000
00000000
00100000
10000000
01000000
00000000
00100000
00000000
,
00010000
00000000
01000000
00001000
01000000
00000000
00001000
00010000
,
00001000
00000000
00010000
00000100
00010000
00000000
00000100
00000010
,
00000100
00000010
00000001
00000100
,
00001000
00000010
00001000
00000100
,
00010000
00011000
00100000
01000000
,
10000000
00100000
01000000
00001000
,
00010000
00000100
00001000
00000100
,
00010000
00001000
00100000
00010000
,
10000000
10010000
00100000
00001000
,
00010000
00000100
00001000
00000010
,
00000100
00000001
00000010
00000100
,
00010000
00001000
01000000
00010000
,
10000000
01000000
00000000
00200000
,
00000000
00302000
00000000
00023000
,
00000000
00030100
00000100
00001000
,
00001000
00000000
00000010
00000000
00000100
00000000
00000001
00001000
,
00000000
00001001
00000000
00000000
00000010
00000000
00000001
00000100
,
00000001
00000100
00000000
00000000
00000010
00000000
00001000
00000100
,
00000000
00001000
00000000
00000000
00001100
00000000
00000100
00000000
,
00010000
00000000
00001000
00010000
00001000
00000000
01000000
00010000
,
01000000
00000000
00100000
00000000
10010000
00000000
10000000
00010000
,
00100000
00000000
00001000
00000000
00011000
00000000
00000100
00001000
,
00000001
00000000
00000100
00000000
00000101
00000000
00000001
00000010
,
00000100
00000000
00010000
00000000
00011000
00000000
00001000
01000000
,
00010000
10000000
10010000
00000000
00000000
00110000
00000000
00000000
,
01010000
00000000
00000000
10010000
00000000
00000000
00100000
00000000
,
01000000
00000000
01010000
00000000
00000000
00101000
00000000
00000000
,
00001000
00010000
00000010
00000010
,
00000101
00000000
00000000
00000000
;

//---------------dance-double - ----------------
#NOTES:
     dance-double:
     :
     Easy:
     4:
     0.210542,0.211393,0.074434,0.052104,0.000000,181.000000,10.000000,7.000000,0.000000,0.000000,0.000000,0.210542,0.211393,0.074434,0.052104,0.000000,181.000000,10.000000,7.000000,0.000000,0.000000,0.000000:
00000000
00000000
00000000
00000000
,
00000000
00000000
00000000
00000000
,
00000000
00000000
00000000
00000000
,
00000000
00001000
00001000
00000000
,
00000010
00000000
00000110
00000000
,
00000001
00000000
00001001
00000000
,
00001000
00000100
00010000
00000000
,
00001000
01000000
00010000
00000000
,
00100000
00000000
00100000
00000000
,
01000000
00000000
10000000
00000000
,
00010000
00000000
00010000
00000000
,
00100000
00001000
00010000
00000100
,
00001000
00000000
00001000
00000000
,
00000010
00000000
00000010
00000000
,
00000100
00000000
00001000
00000000
,
00000010
00000000
00000001
00000000
,
00000100
00000000
00010000
00000000
,
00001000
00000000
01000000
00000000
,
00010000
00000000
00100000
00000000
,
10000000
00000000
01000000
00000000
,
00010000
00000000
00100000
00000000
,
00001000
00000000
00010000
00000000
,
00000010
00000000
00001000
00000000
,
00000100
00000000
00000001
00000000
,
00000010
00000000
00000100
00000000
,
00010000
00000000
00001000
00000000
,
01000000
00000000
10000000
00000000
,
00100000
00010000
00100000
10000000
,
02000000
00000000
13000000
00010000
,
10000000
00000000
00010000
00000000
,
00200000
00000000
00301000
00010000
,
00000100
00000000
00001000
00000000
,
00001001
00000000
00000001
00000000
,
00001000
00000000
00000100
00000000
,
00010000
00000000
00001000
00000000
,
01000000
00000000
00100000
00000000
,
10010000
00000000
00010000
00000000
,
00100000
00000000
00001000
00000000
,
00010000
00000000
00000100
00000000
,
00001000
00000000
00000010
00000000
,
00000010
00000000
00001000
00000000
,
00001000
00000200
00000000
00001300
,
00000000
00000010
00000100
00000010
,
00000100
00000001
00000010
00000000
,
00000010
00000000
00000100
00000000
,
00000100
00020000
00000000
00032000
,
00000000
02003000
00000000
03020000
,
00000000
10030000
10000000
10000000
,
00100000
01000000
01000000
00010000
,
00010000
00100000
00001000
00010000
,
00000100
00001000
00000001
00000100
,
00000100
00000001
00000010
00000001
,
00000010
00000100
00001000
00000100
,
00010000
00001000
00001000
00010000
,
00010000
00000100
00000010
00000001
,
00001000
00000001
00000000
00000010
,
00000000
00000100
00000000
00010000
,
00000000
00001000
00000000
00100000
,
00000000
00001000
00000000
00010000
,
00000000
00000100
00010000
00000100
,
00010000
00001000
01000000
00001000
,
01000000
00010000
10000000
00010000
,
10000000
01000000
10000000
01000000
,
10000000
00100000
01000000
00010000
,
00100000
00001000
00010000
00000010
,
00001000
00000100
00000010
00000001
,
00001000
00000100
00010000
00001000
,
01000000
10010000
00000000
00000000
,
00110000
00000000
00000000
00001000
,
00010000
00011000
00000000
00000010
,
00000000
00000101
00000000
00001001
,
00001001
00000000
00000000
00000000
;

//---------------dance-single - ----------------
#NOTES:
     dance-single:
     :
     Hard:
     7:
     0.417894,0.369938,0.253076,0.208416,0.026052,331.000000,34.000000,28.000000,0.000000,0.000000,0.000000,0.417894,0.369938,0.253076,0.208416,0.026052,331.000000,34.000000,28.000000,0.000000,0.000000,0.000000:
// measure 0
0000
0000
0000
0000
,  // measure 1
0000
0000
0000
0000
,  // measure 2
0000
0000
0000
0000
,  // measure 3
0000
0000
0010
0000
0001
1000
0000
0100
,  // measure 4
1000
0000
0010
0000
0100
0001
0100
0010
,  // measure 5
1000
0000
0001
0000
0010
0001
1000
0000
,  // measure 6
0001
0000
0100
0000
0010
1000
0100
1000
,  // measure 7
0010
0000
0110
0000
0100
0001
1000
0100
,  // measure 8
1000
0000
0010
0000
1000
0001
0100
0010
,  // measure 9
1000
0000
0001
0000
0010
0100
1000
0001
,  // measure 10
0100
0101
1000
1100
,  // measure 11
0010
1010
0001
0010
,  // measure 12
0001
0100
1000
0000
0100
0000
0001
0000
,  // measure 13
1000
0010
0001
0000
0010
0000
1000
0000
,  // measure 14
0001
0101
0100
0101
,  // measure 15
0001
0000
0101
0000
0100
0000
0001
1000
,  // measure 16
0100
0000
1000
0000
0010
0010
0100
0000
,  // measure 17
0001
0110
1000
0110
,  // measure 18
0001
0011
0010
0011
,  // measure 19
0001
0000
0011
0000
0001
0010
1000
0000
,  // measure 20
0010
0000
0110
0000
0100
1000
0001
0000
,  // measure 21
0100
0100
0001
0000
1000
0000
1001
0000
,  // measure 22
0010
1010
0100
0110
,  // measure 23
0010
0011
0010
0110
,  // measure 24
0100
0000
0001
0000
1000
0100
0001
0100
,  // measure 25
1000
0000
0001
0000
1001
0000
1000
0010
,  // measure 26
0100
0001
0010
0001
,  // measure 27
1000
0000
0010
0000
1000
0001
0000
0100
,  // measure 28
0001
0000
1000
0000
0010
1000
0100
0010
,  // measure 29
0001
0000
1000
0000
0001
0100
0010
1000
,  // measure 30
0100
0010
0001
1000
,  // measure 31
0010
1000
0010
0100
0010
0000
1001
0000
,  // measure 32
1100
0000
0100
0000
1000
0001
1000
0000
,  // measure 33
0010
0100
0001
0010
,  // measure 34
0200
1300
0020
0130
,  // measure 35
2000
3100
0002
1003
,  // measure 36
0010
0000
1000
0100
0010
0000
0001
0000
,  // measure 37
1000
0101
0001
1000
,  // measure 38
0020
0000
0000
0000
1030
0000
0000
0001
0100
0000
0001
0000
0100
0000
0000
0000
,  // measure 39
1001
0000
0001
0000
1000
0001
1000
0000
,  // measure 40
0010
1000
0001
0000
0010
0000
0100
0000
,  // measure 41
1100
0000
0000
0000
1000
0000
0000
1000
0010
0000
0000
0010
0100
0000
0000
0100
,  // measure 42
0001
0010
0011
0100
,  // measure 43
1100
0000
1000
0001
0100
0000
0001
1000
,  // measure 44
0100
0010
0001
0100
,  // measure 45
1001
0000
0000
0000
0100
0000
0000
0100
0001
0000
0000
0001
1000
0000
0000
1000
,  // measure 46
0001
0010
1000
0100
,  // measure 47
1100
1000
1000
0001
,  // measure 48
0001
2000
3020
0032
,  // measure 49
0203
1300
1000
0001
,  // measure 50
0001
0020
2030
3200
,  // measure 51
0302
1003
1000
0001
,  // measure 52
0001
0200
2300
3020
,  // measure 53
0032
1003
1000
0001
,  // measure 54
0001
0000
0010
0000
0110
0000
0100
1000
,  // measure 55
0001
0100
0002
0000
0000
0000
0023
0000
,  // measure 56
0000
0230
0000
2300
,  // measure 57
0000
3002
0000
0203
,  // measure 58
0000
0320
0000
2030
,  // measure 59
0000
0000
3001
0100
0001
1000
0001
0100
,  // measure 60
0001
0000
1000
0010
1000
0001
1000
0010
,  // measure 61
1000
0000
0010
0100
1000
0100
0010
0100
,  // measure 62
0001
0020
0230
2300
,  // measure 63
3001
1000
1001
0000
0010
0000
1000
0010
,  // measure 64
0100
0000
1001
0000
0010
0000
0001
0010
,  // measure 65
0100
0000
1001
0000
0100
0000
1000
0100
,  // measure 66
0010
0000
1001
0000
0010
0100
0001
0001
,  // measure 67
1000
1000
0010
0100
0000
0001
0100
0000
,  // measure 68
1000
0100
0000
0001
0100
0000
0010
1000
,  // measure 69
0100
0000
0001
0100
0000
1000
0100
0000
,  // measure 70
0010
0000
0001
0000
1000
0001
1000
0010
,  // measure 71
0110
0000
0000
0000
;

//---------------dance-double - ----------------
#NOTES:
     dance-double:
     :
     Hard:
     7:
     0.411514,0.369938,0.163755,0.052104,0.029774,358.000000,22.000000,7.000000,0.000000,0.000000,0.000000,0.411514,0.369938,0.163755,0.052104,0.029774,358.000000,22.000000,7.000000,0.000000,0.000000,0.000000:
00000000
00000000
00000000
00000000
,
00000000
00000000
00000000
00000000
,
00000000
00000000
00000000
00000000
,
00000000
00000000
00100000
00000000
00001000
00010000
00000000
00000100
,
00001000
00000000
00000010
00000000
00000100
00000001
00000010
00000001
,
00001000
00000000
00000010
00000000
00010000
00001000
00010000
00000000
,
00000100
00000000
00001000
00000000
00000001
00000100
00000001
00000000
,
00001000
00000000
00000100
00000000
00010000
00001000
00100000
00000000
,
00010000
00000000
01000000
00000000
10000000
01000000
00010000
00000000
,
00100000
00000000
00001000
00000000
00010000
00000100
00001000
00000000
,
00000001
00000000
00000100
00000000
00001000
00000100
00000001
00000010
,
00000100
00001000
00000100
00000000
00010000
00000000
00011000
00000000
,
00100000
00100000
00010000
00010000
01000000
00000000
10010000
00000000
,
00010000
00100000
01000000
10000000
,
00010000
00000000
01000000
00001000
00010000
00000000
00000100
00010000
,
00001000
00000000
01000000
00001000
00010000
00000000
00000100
00000000
,
00000010
00000000
00000001
00000000
00001000
00001000
00000100
00000000
,
00010000
00011000
00100000
01100000
,
01000000
00000000
10000000
00010000
00100000
00000000
00001000
00010000
,
00000100
00000000
00001000
00000001
00000100
00000000
00000001
00000010
,
00000100
00000000
00010000
00000000
00001000
01000000
00010000
00000000
,
10000000
00010000
00100000
00000000
00001000
00000000
00011000
00000000
,
00000100
00000000
00001000
00000001
00000100
00000000
00000001
00001000
,
00000100
00000000
00010000
00001000
01000000
00000000
00010000
10000000
,
01000000
00000000
00100000
00000000
00001000
00001000
00010000
00000100
,
00001000
00000010
00000100
00000001
,
00000010
00000000
00000100
00001000
00000100
00000000
00010000
00000000
,
00001000
00000000
01000000
00000000
00010000
10000000
00000000
00100000
,
01000000
00000000
00010000
00000000
00100000
00001000
00010000
00001000
,
00010000
00000000
00000100
00000000
00001000
00000010
00000100
00000000
,
00000001
00000010
00000100
00010000
,
00001000
00001000
00010000
00010000
00001000
00000000
00011000
00000000
,
00100000
00100000
00200000
00000000
00310000
00010000
00020000
00000000
,
01030000
00001000
00010000
00000100
,
00001000
00000000
00000000
00000010
00000000
00000100
00000000
00000100
,
00000001
00000000
00000000
00000010
00000000
00000100
00000000
00000100
,
00010000
00000000
00001000
01000000
00010000
00000000
10000000
00000000
,
00100000
01000000
00010000
00100000
,
00001000
00000000
00000000
00000000
00010000
00000000
00000000
00000100
00001000
00000000
00000010
00000000
00000100
00000000
00000001
00000000
,
00001000
00000000
00000100
00000100
00010000
00010000
00001000
00001000
,
01000000
01000000
00100000
00000000
10000000
00000000
01000000
00000000
,
00100000
00000000
00000000
00000000
00001000
00000000
00000000
00001000
00010000
00000000
00000000
00010000
00000100
00000000
00000000
00000100
,
00001000
00000000
00000010
00000000
00000100
00000001
00001000
00000000
,
00000100
00010000
00001000
00001000
01000000
01000000
00010000
00010000
,
10000000
00000000
00100000
00000000
10000000
00000000
00010000
00100000
,
00001000
00000000
00000000
00000000
00010000
00000000
00000000
00010000
00001000
00000000
00000000
00001000
00000010
00000000
00000000
00000010
,
00000100
00000000
00000000
00000100
00001000
00000000
00000000
00000000
00001000
00000000
00000000
00000000
00000001
00000000
00000001
00000000
,
00000100
00000101
00001100
00000001
,
00001000
00011000
00110000
10000000
,
01000000
01010000
10010000
00010000
,
00100000
00000000
00001000
00001000
00010000
00010000
00000100
00000100
,
00001000
00001000
00001010
00000000
00001001
00000000
00001000
00000000
,
00000100
00011000
00011000
00100000
,
00010000
00000000
01000000
00100000
10000000
00000000
00010000
00100000
,
00001000
00010000
00000100
00001000
,
00000010
00000210
00000000
00000302
,
00000000
00002003
00000000
00003200
,
00000000
00020300
00001000
00031000
,
00000000
00000000
00000000
00000000
00100000
00000000
00010000
10000000
,
00000000
01000000
00100000
00010000
00100000
00000000
00001000
00010000
,
00000100
00000000
00001000
00000100
00000010
00000000
00000100
00000100
,
00001000
00000000
00000100
00010000
00001000
00000000
01000000
00010000
,
10000000
00000000
01000000
00100000
00001000
00010000
00000100
00001000
,
00000010
00000100
00000001
00000010
00000001
00000000
00000100
00000010
,
00001000
00000000
00000100
00010000
00001000
00000000
01000000
00010000
,
10000000
00000000
00100000
01000000
00010000
00000000
00100000
00001000
,
00010000
00000000
00000100
00001000
00000010
00000100
00000001
00000010
,
00000100
00000000
00010000
00010000
00000000
00011000
00011000
00000000
,
00100000
00100000
00000000
00110000
00110000
00000000
01000000
01000000
,
01000000
00000000
10000000
10000000
00000000
00100000
00100000
00000000
,
01000000
00000000
00010000
00000000
00100000
00100000
00001000
00010000
,
00011000
00000000
00000000
00000000
;
