#TITLE:Ursa Major;
#SUBTITLE:;
#ARTIST:Ryan Henwood;
#TITLETRANSLIT:;
#SUBTITLETRANSLIT:;
#ARTISTTRANSLIT:;
#GENRE:Lovers In A Dangerous Spacetime;
#CREDIT:;
#BANNER:Ursa Major-bn.jpg;
#BACKGROUND:Ursa Major-bg.jpg;
#LYRICSPATH:;
#CDTITLE:;
#MUSIC:Ursa Major.mp3;
#OFFSET:-0.000000;
#SAMPLESTART:24.004498;
#SAMPLELENGTH:12.000000;
#SELECTABLE:YES;
#BPMS:0.000000=120.000000
;
#STOPS:196.000000=0.500002
;
#BGCHANGES:;
#KEYSOUNDS:;
#ATTACKS:;

//---------------dance-single - ----------------
#NOTES:
     dance-single:
     :
     Challenge:
     10:
     0.501695,0.610422,0.391399,0.171572,0.345825,655.000000,582.000000,73.000000,32.000000,0.000000,0.000000,0.501695,0.610422,0.391399,0.171572,0.345825,655.000000,582.000000,73.000000,32.000000,0.000000,0.000000:
// measure 0
0000
0000
0000
0000
,  // measure 1
0000
0000
0000
0000
,  // measure 2
0000
0000
0000
0000
,  // measure 3
0000
0000
0000
0000
,  // measure 4
0000
0000
0000
0000
,  // measure 5
0000
0000
0000
0000
,  // measure 6
0001
0100
0101
1000
0010
1010
0001
0010
,  // measure 7
0011
1000
0001
1001
1000
0100
1100
0100
,  // measure 8
0010
0110
0001
1000
1001
0001
0100
0101
,  // measure 9
1001
0100
0010
1010
0100
0010
0101
0010
,  // measure 10
0100
0011
0100
0010
1100
0001
1000
1001
,  // measure 11
0010
0000
0000
0000
0100
0000
0000
0000
0011
0000
0000
0000
0100
0000
0000
0000
0010
0000
0000
0000
1000
0000
0100
0000
0010
0000
0001
0000
1000
0001
1000
0001
,  // measure 12
1000
0000
1000
0000
1000
0001
0000
0001
0010
0000
1000
0000
0010
0000
0001
0000
,  // measure 13
1000
0000
0001
0000
0001
0100
0000
0100
1000
0000
0100
0000
0001
0000
0100
0000
,  // measure 14
0010
0000
1000
0000
1000
0100
0000
0100
0001
0000
0100
0000
0010
0000
0001
0000
,  // measure 15
1000
0000
0010
0000
0001
0010
0000
1000
0010
0000
0100
0000
0001
0000
0100
0000
,  // measure 16
1000
0000
0100
0000
0001
1000
0000
0001
0010
0000
0100
0000
1000
0000
0010
0000
,  // measure 17
0100
0000
0001
0000
1000
0100
0000
0010
0001
0000
0100
0000
1000
0000
0100
0000
,  // measure 18
0001
0000
1000
0000
0010
1000
0000
1000
0100
0000
0001
0000
1000
0000
0010
0000
,  // measure 19
0001
0000
0100
0000
0010
1000
0000
1000
0001
0000
0010
0000
1000
0000
0001
0000
,  // measure 20
0100
0000
1000
0000
0001
0100
0000
0100
1000
0000
0001
0000
0010
0000
1000
0000
,  // measure 21
0001
0000
0010
0000
0100
1000
0000
1000
0010
0000
0001
0000
1000
0000
0100
0000
,  // measure 22
0001
0000
1000
0000
0010
0001
0000
0001
1000
0000
0100
0000
0001
0000
1000
0000
,  // measure 23
0100
0000
0001
0000
1000
0010
0000
0010
0001
0000
1000
0000
0100
0000
0001
0000
,  // measure 24
0100
1000
0100
0000
0101
0000
1000
0100
0000
0001
0100
0000
0010
1000
0001
0010
,  // measure 25
0100
1000
0010
0000
0011
0000
1000
0010
0000
0010
0001
0000
1000
0010
1000
0001
,  // measure 26
0100
0000
1010
0000
0101
0000
0010
0000
0100
1000
0010
0100
0001
0000
1000
0100
,  // measure 27
1000
0001
1000
0010
1000
0001
1000
0000
0001
0100
0001
0000
1100
0000
0001
0100
,  // measure 28
0002
0000
0010
0003
1100
0000
0010
0000
0002
0000
0010
0003
1100
0000
0010
0000
,  // measure 29
0001
0010
0001
0000
0100
1000
0100
1000
0010
0001
0010
1000
0100
0000
0010
0001
,  // measure 30
1000
0001
0100
0001
2000
0000
0010
3000
0101
0000
0010
0000
2000
0000
0010
3000
,  // measure 31
0101
0000
0010
0000
1000
0010
1000
0000
1000
0000
1000
0100
0001
0000
0100
0000
,  // measure 32
1000
0010
0001
0010
1000
0001
1000
0100
0001
0100
1000
0010
1000
0000
0000
0000
,  // measure 33
0001
0100
1000
0100
0001
0010
0001
0100
1000
0100
0001
0010
1000
0000
0010
0000
,  // measure 34
0001
0000
0001
0000
0101
0000
0100
0000
0000
1000
0000
0000
1100
0000
0000
1000
0000
0000
0010
0000
0000
1010
0000
0000
,  // measure 35
0010
0000
0001
0000
0011
0000
0001
0010
1000
0010
0001
0010
1000
0000
0100
0000
,  // measure 36
0110
0000
0001
0000
2200
0000
0000
3300
0010
0000
0100
0000
0202
0000
0000
0303
,  // measure 37
1000
0010
1000
0010
0101
0000
1000
0010
1000
0010
0101
0000
1010
0000
0101
0000
,  // measure 38
0001
0010
0100
0000
0010
0100
1000
0000
0100
1000
0001
0000
1001
0000
1000
0000
,  // measure 39
0020
0000
0100
0000
1000
0000
0130
0000
0001
0100
0001
0000
1000
0100
1000
0000
,  // measure 40
0001
0000
1000
0000
0101
0000
1000
0000
0001
1000
0100
0000
1100
0000
1000
0000
,  // measure 41
0001
0000
0000
0101
0000
0000
0001
0000
0000
1000
0000
0000
0100
1000
0100
1000
0000
0000
0101
0000
0000
1000
0000
0000
,  // measure 42
0001
0000
1100
0000
0001
0000
1000
0000
0101
0000
1000
0000
0001
0000
1000
0100
,  // measure 43
0010
0001
1000
0000
0101
0000
1000
0000
0001
0000
1010
0000
0001
0000
1000
0000
,  // measure 44
0001
0100
0001
0100
0001
0000
0000
0000
0001
0000
0000
0000
1100
0000
0000
0000
0001
0000
1000
0000
0001
0000
1000
0000
0001
0010
0001
0010
0001
0010
0001
0010
,  // measure 45
0001
1010
0100
1001
0100
0011
0100
2001
,  // measure 46
0001
3001
0020
1000
1030
0200
0001
0301
,  // measure 47
2000
0100
3100
0002
1000
1003
0020
0001
,  // measure 48
0031
0002
0100
0103
0200
1000
1300
0200
,  // measure 49
0000
0000
0300
0000
1001
0000
0000
0000
0010
0001
0010
0000
1000
0001
1000
0001
,  // measure 50
0100
0000
0010
0000
2000
0000
0010
3000
0101
0000
0010
1000
0010
0001
0010
0000
,  // measure 51
0101
0000
0010
0000
2000
0000
0001
3000
1100
0000
0001
0000
1000
0001
1000
0001
,  // measure 52
1000
0010
0100
0000
0001
0100
0001
0010
0100
1000
0010
0100
0001
1000
0001
0100
,  // measure 53
0001
0000
2010
0010
0010
3010
0102
0100
,  // measure 54
0100
0000
0103
0000
1000
0000
0100
0000
0001
0000
1000
0010
0000
0001
1000
0000
,  // measure 55
0100
0000
0001
0000
0010
0000
0100
0000
1000
0000
0001
0010
0000
1000
0100
0000
,  // measure 56
0001
0000
1000
0000
0010
0001
0100
0010
1000
0000
0001
0000
0001
0010
1000
0000
,  // measure 57
0010
0000
0001
0000
1100
0000
0010
0000
0100
0000
0001
1000
0000
0001
0010
0000
,  // measure 58
0100
0000
0000
0000
0000
0000
0000
0000
1000
0000
0000
0000
0000
0000
0000
0000
0010
0000
0000
0000
0000
0000
0000
0000
0100
0000
0000
0000
0000
0000
0000
0000
0001
0000
0000
0000
1000
0000
0000
0000
0100
0000
0000
0000
0000
0000
0000
0000
0100
0000
0000
0000
0000
0000
0000
0010
0000
0000
0000
0000
0000
0000
0000
0000
,  // measure 59
1001
0000
0000
0000
0001
0000
0001
0010
0000
0010
0100
0000
0100
1000
0100
0000
,  // measure 60
0100
0000
0100
0000
0100
0000
1000
0001
0100
0000
0010
0000
1000
0010
0001
0000
,  // measure 61
0010
0000
1002
1000
1003
0000
0100
0001
,  // measure 62
1000
0010
0001
0010
1000
0000
0001
1000
,  // measure 63
0010
0000
2001
0001
3001
0000
1000
0100
,  // measure 64
0001
0100
1000
0010
1000
0000
0010
0100
,  // measure 65
0001
0000
0202
0000
0303
0000
1001
1001
,  // measure 66
0000
2002
0000
3003
0000
0000
1010
1010
,  // measure 67
1010
0000
0220
0000
0330
0000
0101
0101
,  // measure 68
0000
0202
0000
0000
0303
0000
0011
0110
,  // measure 69
1100
0000
0000
0000
;

//---------------dance-single - ----------------
#NOTES:
     dance-single:
     :
     Hard:
     9:
     0.363059,0.425445,0.150126,0.209104,0.083105,474.000000,446.000000,28.000000,39.000000,0.000000,0.000000,0.363059,0.425445,0.150126,0.209104,0.083105,474.000000,446.000000,28.000000,39.000000,0.000000,0.000000:
// measure 0
0000
0000
0000
0000
,  // measure 1
0000
0000
0000
0000
,  // measure 2
0000
0000
0000
0000
,  // measure 3
0000
0000
0000
0000
,  // measure 4
0000
0000
0000
0000
,  // measure 5
0000
0000
0000
0000
,  // measure 6
1001
1000
0100
0001
1000
0010
0001
1000
,  // measure 7
0100
0001
1000
0010
0001
1000
0100
0001
,  // measure 8
1000
0010
0001
1000
0100
0001
1000
0010
,  // measure 9
0001
0010
1000
0001
0100
1000
0001
0010
,  // measure 10
1000
0001
0100
1000
0001
0010
1000
0001
,  // measure 11
0100
1000
0001
0010
1000
0001
0100
1000
,  // measure 12
0100
0000
0010
0000
0001
1000
0000
0000
0001
0000
0100
0000
0010
0000
2000
0000
,  // measure 13
0000
0100
3100
0000
0010
0001
0010
2000
,  // measure 14
0000
0010
3010
0000
0001
0100
0010
0000
,  // measure 15
2000
0100
3100
0000
1000
0100
0010
0002
,  // measure 16
0000
0010
0013
0000
0001
0100
1000
0200
,  // measure 17
0000
0001
0301
0000
1000
0010
0100
0000
,  // measure 18
0010
0000
0100
0000
0001
1000
0000
0000
0100
0000
0001
0000
0100
0000
2000
0000
,  // measure 19
0000
0010
3010
0000
0100
0001
0100
2000
,  // measure 20
0000
0100
3100
0000
0010
1000
0001
0000
,  // measure 21
0020
0100
0130
0000
1000
0010
0100
0020
,  // measure 22
0000
0001
0130
0000
0001
0010
1000
0020
,  // measure 23
0000
0100
0130
0000
0001
1000
0100
0000
,  // measure 24
0001
0000
1000
0000
0001
0000
0100
0010
0000
0010
0100
0000
0010
0000
1000
0000
,  // measure 25
0100
0000
0010
0000
0001
0000
1000
0010
0000
0010
1000
0000
0001
0000
0100
0000
,  // measure 26
0010
0000
1000
0000
1001
0000
0001
0000
0010
0001
0010
0000
0100
0000
1000
0000
,  // measure 27
0010
0000
1000
0000
0001
0000
0100
0000
0010
0100
0010
0000
1000
0000
0000
0000
,  // measure 28
0001
0010
0011
0000
1000
0010
1010
0000
,  // measure 29
0001
0010
0001
0000
1000
0000
0010
0000
1000
0001
1000
0000
0100
0000
0000
0000
,  // measure 30
0010
0001
1000
0010
1010
0000
0001
0010
,  // measure 31
0011
0000
1000
0010
0001
0010
1000
0100
,  // measure 32
0010
0001
0010
0000
0100
1000
0100
0000
1000
0000
0001
0000
0101
0000
0000
0000
,  // measure 33
0001
0100
0001
0000
1000
0010
1000
0000
0001
0100
0001
0000
0101
0000
0000
0000
,  // measure 34
0010
1000
0100
0010
0001
1000
0010
0100
,  // measure 35
0001
1000
0010
0001
1000
0100
0001
1000
,  // measure 36
0010
0200
0310
1002
,  // measure 37
0013
0001
1002
0013
0001
1001
1000
0010
,  // measure 38
1000
0100
1000
0001
0002
0100
0103
0000
,  // measure 39
0220
0000
0000
0330
1001
0100
0010
0000
,  // measure 40
1001
0001
0100
1000
0001
0010
1000
0001
,  // measure 41
0100
1000
0001
0010
1000
0001
0100
1000
,  // measure 42
0100
0001
1000
0010
0001
1000
0100
0001
,  // measure 43
1000
0010
0001
1000
0100
0001
1000
0010
,  // measure 44
0001
1000
0100
0001
1000
0010
0001
1000
,  // measure 45
0100
0002
0100
2003
0100
3002
0100
2003
,  // measure 46
0100
3001
1000
0001
0100
0001
1000
0001
,  // measure 47
0010
0100
1000
0100
0010
0100
1000
0100
,  // measure 48
0010
0001
0010
0100
0010
0001
0010
0200
,  // measure 49
0000
0300
1001
0000
0001
0100
1000
0010
,  // measure 50
1000
0000
0020
0100
0130
0000
0002
0010
,  // measure 51
1003
0000
0001
0100
0101
0000
0010
1000
,  // measure 52
0100
0010
0100
1000
0001
1000
0010
0100
,  // measure 53
0010
0000
2000
0001
3001
0000
0200
0010
,  // measure 54
0310
0000
0000
0000
0001
0000
0010
0000
1000
0000
0001
0100
0000
0100
0001
0000
,  // measure 55
1000
0000
0010
0000
1000
0000
0100
0000
0010
0000
0001
1000
0000
1000
0100
0000
,  // measure 56
0010
0000
0001
0000
0100
0001
0100
0001
1000
0000
0010
0000
1000
0010
1000
0000
,  // measure 57
1100
0000
0000
0000
0010
0000
0001
0000
1000
0000
0010
0100
0000
0100
0001
0000
,  // measure 58
1000
0000
0010
0000
1000
0000
0100
0000
0010
0001
0010
0000
0001
0000
1000
0000
,  // measure 59
1001
0000
0000
0000
0001
0000
0001
0100
0000
0100
0010
0000
0010
1000
0000
1000
,  // measure 60
0100
0000
0010
0000
0100
0000
0010
0100
0010
0000
0001
0000
1000
0001
1000
0000
,  // measure 61
0100
0000
1002
1000
1003
0000
0100
0001
,  // measure 62
0000
2002
0000
3003
0100
0000
0001
1000
,  // measure 63
0010
0000
2001
0001
3001
0000
1000
0100
,  // measure 64
0000
2002
0000
3003
0100
0000
0010
1000
,  // measure 65
0001
0000
0202
0000
0303
0000
0001
1000
,  // measure 66
0000
2002
0000
3003
0000
0000
0010
1000
,  // measure 67
1010
0000
0220
0000
0330
0000
0100
0001
,  // measure 68
0000
0202
0000
0000
0303
0000
0001
1000
,  // measure 69
1001
0000
0000
0000
;

//---------------dance-single - ----------------
#NOTES:
     dance-single:
     :
     Medium:
     7:
     0.264252,0.295962,0.096509,0.166211,0.008042,345.000000,327.000000,18.000000,31.000000,0.000000,0.000000,0.264252,0.295962,0.096509,0.166211,0.008042,345.000000,327.000000,18.000000,31.000000,0.000000,0.000000:
// measure 0
0000
0000
0000
0000
,  // measure 1
0000
0000
0000
0000
,  // measure 2
0000
0000
0000
0000
,  // measure 3
0000
0000
0000
0000
,  // measure 4
0000
0000
0000
0000
,  // measure 5
0000
0000
0000
0000
,  // measure 6
1000
0100
0000
0001
0100
0000
1000
0100
,  // measure 7
0000
0001
0100
0000
1000
0100
0000
0001
,  // measure 8
0100
0000
1000
0100
0000
0001
0100
0000
,  // measure 9
1000
0010
0000
0001
0010
0000
1000
0010
,  // measure 10
0000
0001
0010
0000
1000
0010
0000
0001
,  // measure 11
0010
0000
1000
0010
0000
0001
0010
0000
,  // measure 12
1001
0000
1001
0000
0010
1000
0010
2000
,  // measure 13
0000
0000
0000
0000
3001
0100
0001
0200
,  // measure 14
0000
0000
0000
0000
0310
1000
0010
0000
,  // measure 15
2002
0000
3003
0000
0100
1000
0100
2000
,  // measure 16
0000
0000
0000
0000
3001
0010
0001
0020
,  // measure 17
0000
0000
0000
0000
0130
1000
0100
0000
,  // measure 18
1000
0000
1001
0000
0001
0100
0001
0200
,  // measure 19
0000
0000
0000
0000
0301
0010
0001
0020
,  // measure 20
0000
0000
0000
0000
0130
1000
0100
0000
,  // measure 21
2002
0000
3003
0000
0010
1000
0010
2000
,  // measure 22
0000
0000
0000
0000
3001
0100
0001
0200
,  // measure 23
0000
0000
0000
0000
0301
1000
0001
0000
,  // measure 24
0010
1000
0010
0000
0001
1000
0001
0000
,  // measure 25
0010
0100
1000
0100
0010
0100
1000
0000
,  // measure 26
0001
1000
0001
0000
0100
0001
1000
0000
,  // measure 27
0010
1000
0100
0010
0100
0000
0100
0000
,  // measure 28
1000
0100
1000
0000
0001
0010
0001
0000
,  // measure 29
1000
0010
1000
0000
0001
0100
0001
0000
,  // measure 30
1000
0010
0100
0010
0100
0000
0001
1000
,  // measure 31
0001
0000
0010
0000
0100
1000
0100
0000
,  // measure 32
1000
0010
1000
0010
1000
0010
1000
0000
,  // measure 33
0001
0100
0001
0100
0001
0010
0001
0000
,  // measure 34
0010
0100
0010
0000
0001
0000
1001
0000
,  // measure 35
0100
0000
0110
0000
1000
0001
1000
0000
,  // measure 36
0010
1000
0020
0000
1030
0100
0020
0000
,  // measure 37
0031
1000
0001
1000
0001
0000
0100
0000
,  // measure 38
1000
0100
0001
0000
1000
0100
0001
0000
,  // measure 39
0010
0100
0010
0000
0001
1000
0001
0000
,  // measure 40
1000
0100
0000
0001
0100
0000
1000
0100
,  // measure 41
0000
0001
0100
0000
1000
0100
0000
0001
,  // measure 42
0010
0000
1000
0010
0000
0001
0010
0000
,  // measure 43
1000
0010
0000
0001
0010
0000
1000
0010
,  // measure 44
0000
0001
0010
0000
1000
0010
0000
0001
,  // measure 45
0010
0100
0000
0100
0000
1000
0000
1000
,  // measure 46
0000
0001
0000
0001
0000
1000
0000
1000
,  // measure 47
0000
0001
0000
0010
0000
0100
0000
1000
,  // measure 48
0000
0010
0000
0100
0000
0001
0000
1000
,  // measure 49
0000
0000
1001
0000
1000
0000
0001
0100
,  // measure 50
0101
0000
0001
1000
0001
0010
0001
1000
,  // measure 51
0100
0000
0020
0000
0130
0000
1000
0001
,  // measure 52
0100
0000
0010
0000
1000
0000
0001
1000
,  // measure 53
0100
0220
0330
2002
,  // measure 54
3003
0000
0001
0100
0001
0100
0010
1000
,  // measure 55
0010
0000
1000
0100
1000
0100
0001
0100
,  // measure 56
1000
0000
0000
0000
0010
0000
1000
0001
1000
0000
0001
0000
0100
0000
0010
0000
,  // measure 57
0100
0000
0000
0000
0010
0000
0000
0000
1000
0000
0000
0100
0000
0000
0010
0000
,  // measure 58
0001
0000
0010
0100
1000
0000
0001
0010
,  // measure 59
0100
0000
0000
0000
0010
0000
0000
0001
0000
0000
1000
0000
0010
0000
1000
0000
,  // measure 60
0001
0000
0100
0010
1000
0010
0100
0001
,  // measure 61
0100
0000
0001
1000
0001
0000
1000
0001
,  // measure 62
0000
2002
0000
3003
0100
0000
0001
1000
,  // measure 63
0001
0000
1000
0001
1000
0000
1000
0001
,  // measure 64
0000
2002
0000
3003
0100
0000
0001
1000
,  // measure 65
0001
0000
0220
0000
0330
0000
0010
0100
,  // measure 66
0000
0220
0000
0330
0000
0000
0010
0100
,  // measure 67
0010
0000
0220
0000
0330
0000
1000
0001
,  // measure 68
0000
2002
0000
0000
3003
0000
0010
0100
,  // measure 69
1001
0000
0000
0000
;

//---------------dance-single - ----------------
#NOTES:
     dance-single:
     :
     Easy:
     5:
     0.225188,0.258967,0.128679,0.193019,0.000000,294.000000,270.000000,24.000000,36.000000,0.000000,0.000000,0.225188,0.258967,0.128679,0.193019,0.000000,294.000000,270.000000,24.000000,36.000000,0.000000,0.000000:
// measure 0
0000
0000
0000
0000
,  // measure 1
0000
0000
0000
0000
,  // measure 2
0000
0000
0000
0000
,  // measure 3
0000
0000
0000
0000
,  // measure 4
0000
0000
0000
0000
,  // measure 5
0000
0000
0000
0000
,  // measure 6
1000
0010
0001
1000
,  // measure 7
0100
0001
1000
0010
,  // measure 8
0001
1000
0100
0001
,  // measure 9
0100
1000
0001
0010
,  // measure 10
1000
0001
0100
1000
,  // measure 11
0001
0010
1000
0001
,  // measure 12
0100
0000
1000
0000
0001
1000
0001
0000
,  // measure 13
0100
0000
0010
0000
1000
0001
1000
0000
,  // measure 14
0010
0000
0100
0000
0001
1000
0001
0000
,  // measure 15
0010
0000
0100
0000
0010
0100
0010
0000
,  // measure 16
0001
0000
0100
0000
0010
0100
0010
0000
,  // measure 17
1000
0000
0100
0000
0010
0100
0010
0000
,  // measure 18
0001
0000
1000
0000
0001
1000
0001
0000
,  // measure 19
0010
0000
0100
0000
1000
0001
1000
0000
,  // measure 20
0010
0000
0100
0000
0001
1000
0001
0000
,  // measure 21
1000
0000
0100
0000
0010
0100
0010
0000
,  // measure 22
0001
0000
1000
0000
0010
0100
0010
0000
,  // measure 23
1000
0000
0001
0000
0100
0010
0100
0000
,  // measure 24
0001
0010
0100
1000
,  // measure 25
0001
0000
0010
0000
0001
0001
0001
0000
,  // measure 26
1000
0000
0010
0000
1000
1000
1000
0000
,  // measure 27
0001
0100
0001
0000
1000
0000
0001
0000
,  // measure 28
1000
0010
1000
0000
1000
0010
1000
0000
,  // measure 29
0100
0010
0100
0010
,  // measure 30
0001
1000
0001
0000
0010
0000
0100
0000
,  // measure 31
1000
0000
0100
0000
0010
0100
0010
0000
,  // measure 32
0001
0000
0100
0000
1000
0100
1000
0000
,  // measure 33
0100
0000
0001
0000
1000
0001
1000
0000
,  // measure 34
0010
0001
0010
1000
,  // measure 35
0100
0001
0100
1000
,  // measure 36
0001
0100
0001
0000
1000
0010
1000
0000
,  // measure 37
0010
0100
0001
0010
,  // measure 38
0100
0100
0100
0000
0010
0010
0010
0000
,  // measure 39
0001
1000
0010
0010
,  // measure 40
0100
0110
0100
0100
,  // measure 41
0001
1001
0001
0001
,  // measure 42
0010
0110
0010
0010
,  // measure 43
1000
1001
1000
1000
,  // measure 44
0100
0010
0100
0010
,  // measure 45
0001
0001
1000
1000
,  // measure 46
0010
0010
0100
0100
,  // measure 47
0001
0001
1000
1000
,  // measure 48
0010
0100
0001
1001
,  // measure 49
0000
0000
1001
0000
0001
1000
0100
1000
,  // measure 50
0001
0000
0100
0100
0100
0000
0010
0010
,  // measure 51
0010
2000
3001
0100
,  // measure 52
0001
0000
2000
0000
3100
0000
0010
0010
,  // measure 53
0010
0002
0000
2000
,  // measure 54
3003
0010
0100
0010
,  // measure 55
1001
0100
0010
0100
,  // measure 56
1001
0000
0001
0010
0001
1000
0010
1000
,  // measure 57
0001
0000
1000
0000
0001
0000
0100
0100
,  // measure 58
0100
0000
0010
0000
0100
0000
0010
0010
,  // measure 59
0010
1000
0100
0001
,  // measure 60
0100
0000
0010
0000
1000
0000
0100
0010
,  // measure 61
0100
2002
3003
2002
,  // measure 62
3003
2002
0000
0000
3003
0000
2002
0000
,  // measure 63
3003
2002
3003
2002
,  // measure 64
3003
2002
0000
0000
3003
0000
2002
0000
,  // measure 65
3003
0220
0330
0220
,  // measure 66
0330
0220
0000
0000
0330
0000
0220
0000
,  // measure 67
0330
0220
0330
0220
,  // measure 68
0330
0220
0000
0000
0330
0000
2002
0000
,  // measure 69
3003
0000
0000
0000
;

//---------------dance-single - ----------------
#NOTES:
     dance-single:
     :
     Beginner:
     2:
     0.122552,0.221971,0.091148,0.139402,0.000000,160.000000,143.000000,17.000000,26.000000,0.000000,0.000000,0.122552,0.221971,0.091148,0.139402,0.000000,160.000000,143.000000,17.000000,26.000000,0.000000,0.000000:
// measure 0
0000
0000
0000
0000
,  // measure 1
0000
0000
0000
0000
,  // measure 2
0000
0000
0000
0000
,  // measure 3
0000
0000
0000
0000
,  // measure 4
0000
0000
0000
0000
,  // measure 5
0000
0000
0000
0000
,  // measure 6
1000
1000
0000
0100
,  // measure 7
0100
0000
0001
0001
,  // measure 8
0000
0010
0010
0000
,  // measure 9
1000
1000
0000
0010
,  // measure 10
0010
0000
0001
0001
,  // measure 11
0000
0100
0100
0000
,  // measure 12
1000
0000
0001
0000
,  // measure 13
0010
0000
0100
0000
,  // measure 14
1000
0000
0001
0000
,  // measure 15
0200
0000
0300
0000
,  // measure 16
0010
0000
0010
0000
,  // measure 17
1000
0000
0100
0000
,  // measure 18
0001
0000
0010
0000
,  // measure 19
1000
0000
0010
0000
,  // measure 20
0001
0000
0100
0000
,  // measure 21
2000
0000
3000
0000
,  // measure 22
0010
0000
0001
0000
,  // measure 23
0010
0000
1000
0000
,  // measure 24
0100
0100
0100
0000
,  // measure 25
0010
0010
0010
0000
,  // measure 26
0001
0001
0001
0001
,  // measure 27
0001
0000
1000
0000
,  // measure 28
0100
0000
0010
0000
,  // measure 29
0100
0100
0100
0100
,  // measure 30
0100
0000
1000
0000
,  // measure 31
1000
0000
0001
0001
,  // measure 32
0001
0000
0010
0000
,  // measure 33
0100
0100
0100
0100
,  // measure 34
0100
0000
1000
0000
,  // measure 35
0001
0000
0100
0000
,  // measure 36
0010
0000
0010
0000
,  // measure 37
1000
1000
1000
0000
,  // measure 38
0001
0000
1000
0000
,  // measure 39
0100
0000
0010
0000
,  // measure 40
0001
0000
0001
0000
,  // measure 41
0100
0000
1000
0000
,  // measure 42
0010
0000
0001
0000
,  // measure 43
0100
0000
1000
0000
,  // measure 44
0100
0100
0000
0010
,  // measure 45
0010
0000
0010
0000
,  // measure 46
0010
0000
0010
0000
,  // measure 47
0001
0000
1000
0000
,  // measure 48
0100
0000
0010
0000
,  // measure 49
0000
0000
0001
0000
,  // measure 50
0001
0000
1000
0000
,  // measure 51
1001
0000
0010
0000
,  // measure 52
0100
0000
0110
0000
,  // measure 53
1001
2002
3003
0220
,  // measure 54
0330
0001
0001
0001
,  // measure 55
0000
1000
1000
1000
,  // measure 56
0000
0110
0110
0110
,  // measure 57
0000
1001
0000
0110
,  // measure 58
0000
1001
0000
0110
,  // measure 59
0000
1001
0000
1000
,  // measure 60
0000
0001
0001
0001
,  // measure 61
0000
0020
0030
0020
,  // measure 62
0030
0200
0300
0200
,  // measure 63
0300
0020
0030
0200
,  // measure 64
0300
0020
0030
0020
,  // measure 65
0030
2002
3003
2000
,  // measure 66
3000
0002
0003
2002
,  // measure 67
3003
2002
3003
0002
,  // measure 68
0003
2000
3000
2002
,  // measure 69
3003
0000
0000
0000
;

//---------------dance-routine - ----------------
#NOTES:
     dance-routine:
     :
     Hard:
     10:
     0.000766,0.000000,0.000000,0.000000,0.000000,1.000000,1.000000,0.000000,0.000000,0.000000,0.000000,0.000000,0.000000,0.000000,0.000000,0.000000,0.000000,0.000000,0.000000,0.000000,0.000000,0.000000:
10000000
00000000
00000000
00000000
&
00000000
00000000
00000000
00000000
;
