#TITLE:Triumph (Stormblood Boss Theme);
#SUBTITLE:;
#ARTIST:Masayoshi Soken;
#TITLETRANSLIT:;
#SUBTITLETRANSLIT:;
#ARTISTTRANSLIT:;
#GENRE:Stormblood;
#CREDIT:;
#BANNER:Triumph-bn.jpg;
#BACKGROUND:Triumph-bg.jpg;
#LYRICSPATH:;
#CDTITLE:;
#MUSIC:Triumph.mp3;
#OFFSET:0.027000;
#SAMPLESTART:57.711613;
#SAMPLELENGTH:15.750000;
#LASTBEATHINT:269.995117;
#SELECTABLE:YES;
#BPMS:0.000000=160.000000
;
#STOPS:128.500000=1.125000,
141.500000=1.125000
;
#BGCHANGES:;
#KEYSOUNDS:;
#ATTACKS:;

//---------------dance-single - ----------------
#NOTES:
     dance-single:
     :
     Challenge:
     10:
     0.637737,0.722668,0.661986,0.398889,0.335236,526.000000,448.000000,78.000000,47.000000,3.000000,0.000000,0.637737,0.722668,0.661986,0.398889,0.335236,526.000000,448.000000,78.000000,47.000000,3.000000,0.000000:
0000
0000
0101
1001
,
2020
0000
0000
0000
0030
0000
0000
0001
0002
0000
0000
0000
3003
0000
0000
0000
,
0202
0000
0000
0000
0300
0000
0000
1000
2000
0000
0000
0000
3003
0000
0000
0000
,
1001
0000
1000
0010
0100
0000
0001
0000
0100
0010
1000
0000
0001
0000
0010
0100
,
1000
0000
0100
0000
0010
0001
1000
0000
1000
0000
0001
0010
0100
1000
0100
0010
,
0001
0000
0010
0001
1000
0000
0010
0000
1000
0001
0100
0000
0010
0000
0100
0001
,
1000
0000
0010
0000
1000
0001
0100
0000
0010
0000
0100
0001
1000
0100
1000
0001
,
0100
0000
0001
0010
0100
0000
1000
0000
1000
0010
0100
0000
0100
0000
0001
1000
,
0010
0000
0100
0000
0001
0010
0100
0000
1000
0000
0001
0100
0010
1000
0100
0010
,
0001
0101
0000
0100
1100
0000
0010
1010
,
0000
0010
0011
0000
1010
0011
0101
0000
,
2002
0003
0020
3000
,
0002
0030
0200
0003
,
0020
0300
0002
0030
,
2000
0003
0020
3030
,
0220
0000
0000
0000
0330
0000
1000
0100
,
0001
0000
0001
0100
1000
0000
1000
0100
,
0020
0000
0001
0000
1000
0000
0031
0100
,
0002
0103
2001
3100
,
1200
0000
1300
0000
0001
0000
0001
1000
,
1020
0031
0021
1030
,
2001
0000
0100
0000
0100
0000
0010
0010
,
0000
0001
3001
0000
1200
0000
0301
0000
,
0202
0000
0000
0000
0303
0000
0100
1000
0200
0000
0000
0000
0310
0000
0000
0000
,
0012
0103
0201
1300
,
1200
0000
0301
0000
0102
0000
1003
0010
,
0000
0001
0010
0000
0110
0000
0100
0000
,
2001
0010
3001
0101
,
0021
0130
0210
0301
,
0101
0000
1100
0000
0110
0000
0011
1001
,
0000
1001
1010
0000
0100
0010
1000
0001
,
2200
0000
0000
0000
3300
0000
0001
0100
0001
0000
0001
0000
1000
0010
1000
0000
,
0010
0100
0010
0000
1000
0000
0100
1000
0100
0000
0010
0000
0001
1000
0001
0000
,
0100
0000
0010
0100
0010
0000
0000
0000
1010
0000
0000
0000
0101
0000
0000
0000
,
1100
0000
0000
0000
1001
0000
0001
0010
0001
0000
1000
0000
0100
1000
0100
0000
,
0010
0000
0001
1000
0010
0000
0100
0000
0101
0000
0100
0001
1000
0000
1100
0000
,
0100
1000
0001
0000
0101
0000
0010
1000
0002
0000
0000
0000
1003
0000
0000
0000
,
0101
0000
0000
0000
1100
0000
0000
0000
1001
0000
0001
0100
0001
0000
1000
0000
,
0100
0010
0100
0000
1000
0000
0001
1000
0010
0000
0100
0000
0001
0010
0100
0000
,
1000
0000
0010
1000
0001
1000
0100
0010
0001
0000
0100
0001
0100
0000
0010
0000
,
1000
0100
1000
0000
0010
0000
1000
0001
1000
0000
0100
0000
0100
0001
0100
0000
,
0010
0000
0001
0000
1000
0000
0010
0000
0011
0000
0010
0001
0010
0000
0001
0000
,
1000
0000
0010
0000
0100
0000
0001
0000
1010
0000
0010
1000
0010
0000
0001
0000
,
1000
0000
0010
0000
0100
0000
0001
0000
0110
0000
1000
0100
1000
0000
0110
0000
,
1000
0100
1000
0000
0101
0000
1000
0100
1000
0000
0010
0000
0001
0000
0010
0000
,
0100
0000
0001
0000
1000
0000
0100
0000
0101
0000
0100
0010
0100
0000
0101
0000
,
0100
0010
0100
0000
1100
0000
1000
0001
1000
0000
0010
0100
0010
0000
1000
0000
,
0001
0010
0100
1000
0102
0000
0010
0000
,
0100
0000
0000
1000
0000
1000
0010
0000
,
0103
001M
1000
0001
2100
0000
0010
0000
,
0100
0000
0000
0001
0000
0001
0010
0000
,
3100
M010
0001
1000
1020
0000
0100
0000
,
1000
0000
0000
0001
0000
0001
0100
0000
,
1030
00M1
0100
0010
1100
0000
0011
0000
,
1100
0000
0000
0101
0000
0101
1010
0000
,
0101
0000
0000
0000
1001
0000
0000
0000
2020
0000
0000
0000
0030
0000
0000
0001
,
0002
0000
0000
0000
3003
0000
0000
0000
0022
0000
0000
0000
0030
0000
0000
1000
,
2000
0000
0000
0000
3003
0000
0000
0000
1001
0000
1000
0010
0100
0000
0001
0000
,
0100
0010
1000
0000
0001
0000
0010
0100
1000
0000
0100
0000
0010
0001
1000
0000
,
1000
0000
0001
0010
0100
1000
0100
0010
0001
0000
0010
0001
1000
0000
0010
0000
,
1000
0001
0100
0000
0010
0000
0100
0001
1000
0000
0010
0000
1000
0001
0100
0000
,
0010
0000
0100
0001
1000
0100
1000
0001
0100
0000
0001
0010
0100
0000
1000
0000
,
1000
0010
0100
0000
0100
0000
0001
1000
0010
0000
0100
0000
0001
0010
0100
0000
,
1000
0000
0001
0100
0010
1000
0100
0010
0001
0000
0101
0000
0000
0000
0100
0000
,
1100
0000
0010
1010
0000
0010
0011
0000
,
1010
0011
0101
0000
1001
0000
0000
0000
;

//---------------dance-single - ----------------
#NOTES:
     dance-single:
     :
     Medium:
     6:
     0.326143,0.416924,0.441324,0.517707,0.000000,269.000000,217.000000,52.000000,61.000000,0.000000,0.000000,0.326143,0.416924,0.441324,0.517707,0.000000,269.000000,217.000000,52.000000,61.000000,0.000000,0.000000:
0000
0000
1001
0110
,
2002
0000
0000
0003
0020
0000
3030
0000
,
2002
0000
0000
3000
0020
0000
0030
0003
,
0011
0000
0000
1010
0000
0000
0110
0000
,
0000
1001
0000
0000
0010
0000
0100
0000
,
0101
0000
0000
1100
0000
0000
0110
0000
,
0000
1001
0000
0000
0010
0000
1000
0000
,
1010
0000
0000
0011
0000
0000
1001
0000
,
0000
0110
0000
0000
0001
0000
0100
0000
,
1000
1000
0000
0001
0001
0000
0100
0100
,
0000
0010
0010
0000
1000
0000
0001
0000
,
2002
0003
0020
3000
,
0002
0030
0020
0003
,
2000
0030
0002
3000
,
0200
0003
0020
0300
,
2000
0000
0030
3100
,
0002
0000
2000
0003
,
0020
0000
0000
3000
,
0200
0030
0002
0300
,
2000
0000
0003
3002
,
0020
0003
0002
0030
,
2000
0003
0200
0000
,
0000
3000
0020
0330
,
2002
0000
3000
0100
,
2000
0003
0002
3000
,
0020
0000
0003
0130
,
2200
0300
0020
3030
,
2002
0000
3003
0010
,
2002
3000
0200
0303
,
0202
0000
0000
0000
,
0303
0000
1001
0110
,
2002
3003
0010
1000
,
2002
3003
0110
0000
0000
1001
0000
0000
,
0110
0000
0001
1000
,
0100
2200
3300
0001
,
1000
0000
2002
3003
0110
0000
0000
1001
,
0000
0110
0000
0001
,
0010
1000
0110
0100
,
1001
0100
0110
0100
,
0001
1000
0001
1000
0100
0000
0100
0000
,
1100
0100
1001
0100
,
0001
0010
0001
0010
0002
0000
0103
0000
,
1000
0010
1000
0010
2000
0000
3100
0000
,
0001
0100
1000
0100
0002
0000
1003
0000
,
0100
0000
0010
0000
0100
0010
0100
0000
,
0011
1010
1001
0100
,
0001
0010
0100
1000
0001
0000
1000
0000
,
0010
1000
0001
0100
0110
0000
0002
0000
,
0103
0000
0000
1000
0000
1000
0010
0000
,
1000
0100
1000
0100
0001
0000
0100
0000
,
1000
0000
0000
0001
0000
1000
0100
0000
,
0010
0001
1000
0001
0010
0000
0100
0000
,
0010
0000
0000
0001
0000
1000
0010
0000
,
0100
0000
0001
1000
,
0100
0000
0000
1000
0000
0010
0100
0000
,
0001
1000
2002
0003
,
0020
3030
2002
3000
,
0020
0000
0033
0000
1001
0000
0000
0010
,
0000
0000
1001
0000
0000
0100
0000
0000
,
0001
0100
0001
0000
1001
0000
0000
0010
,
0000
0000
1001
0000
0000
0100
0000
0000
,
1000
0100
1000
0000
0011
0000
0000
0100
,
0000
0000
1010
0000
0000
0100
0000
0000
,
0010
1000
0001
1000
0010
0010
0000
0100
,
0100
0000
0001
0001
0000
1000
1000
0000
,
0010
1000
0001
0000
1001
0000
0000
0000
;

//---------------dance-single - ----------------
#NOTES:
     dance-single:
     :
     Hard:
     9:
     0.474059,0.500308,0.441324,0.390402,0.016974,391.000000,339.000000,52.000000,46.000000,0.000000,0.000000,0.474059,0.500308,0.441324,0.390402,0.016974,391.000000,339.000000,52.000000,46.000000,0.000000,0.000000:
0000
0000
0101
1100
,
2002
0003
0200
3300
,
2002
3000
0200
0303
,
0101
0000
1000
0010
0000
1000
1100
0000
,
0001
0010
0000
0001
0100
0100
0010
0100
,
0001
0000
1000
0010
0000
1000
1001
0000
,
0001
0010
0000
0001
1000
0010
0100
0010
,
1010
0000
0001
0010
0000
0100
0010
0000
,
0001
0000
0100
0000
0000
0000
0010
0000
0100
0000
0001
0100
0001
0100
0001
0100
,
0001
0010
0000
0010
1001
0000
1000
0010
,
0000
0010
1001
0000
0010
1000
0100
0000
,
2002
3000
0020
0003
,
2000
0030
0200
3000
,
0002
0300
0020
0030
,
0200
0300
2000
3003
,
2002
0000
0000
0000
3003
0000
0010
1000
,
0100
0000
0100
1000
0010
0000
0100
0000
,
0011
0000
0100
0000
0010
0000
1000
0100
,
1000
0010
0100
0010
,
1001
0000
0100
0000
0010
0000
0001
0100
,
0000
0100
0010
0000
1010
0000
0100
0000
,
0011
0000
0110
0000
1100
0000
0001
1000
,
0000
1000
0001
0000
0110
0000
0010
0000
,
1001
0000
0000
0000
0000
0000
0001
0100
0020
0000
0000
0000
0030
0000
0000
0000
,
1000
0100
0001
0000
0001
0100
1000
0000
,
2200
0000
3300
0000
0010
0100
0010
0000
,
0011
0100
0010
0100
,
0001
0000
0010
0000
0100
0000
1000
0010
,
0000
0010
0001
0000
1010
0000
0011
0000
,
1000
0000
0001
0000
0100
0000
0010
0100
,
0000
0100
0001
0000
1100
0000
0110
0000
,
2002
0000
3003
0021
0100
0030
1200
0010
,
0300
1001
0201
0000
0310
1020
0000
0130
,
0202
0303
1100
0110
,
0011
0000
2002
0000
3003
1200
0010
0300
,
0021
0100
0030
1100
1010
0000
0010
0101
,
0000
0100
1001
0000
0001
0010
0100
1000
,
0001
0010
1000
0010
0001
0100
0001
0100
,
1000
0100
0010
0100
0001
0100
0001
0100
,
1000
0100
0001
0100
0010
1000
0010
0100
,
0001
0010
0100
1000
0001
1000
0010
0100
,
0001
0010
1000
0010
0001
0100
0010
0100
,
0001
0010
1000
0010
0001
0100
0010
0100
,
0001
0010
1000
0010
0001
0100
0010
0100
,
0001
0100
1000
0100
0001
0100
0010
0100
,
0001
0010
0100
1000
0010
1000
0010
1000
,
0001
0100
1000
0100
0010
1000
0010
1000
,
0001
0100
1000
0100
0102
0000
0010
0000
,
0100
0000
0000
1000
0000
1000
0010
0000
,
0103
0010
1000
0001
2100
0000
0010
0000
,
0100
0000
0000
0001
0000
0001
0010
0000
,
3100
0010
0001
1000
1020
0000
0100
0000
,
1000
0000
0000
0001
0000
0001
0100
0000
,
1030
0001
0100
0010
2100
0000
0001
0000
,
0100
0000
0000
0010
0000
0010
3100
0000
,
1100
1001
0022
0030
,
2000
3003
2020
0030
,
0002
0000
3003
0000
1001
0000
0001
0100
,
0000
1000
0100
0000
0100
0010
0000
1000
,
0100
0010
0100
1000
0001
0000
0010
0100
,
0000
0100
0010
0000
0001
1000
0000
0010
,
1000
0010
0100
0001
1000
0000
0100
0001
,
0000
0100
1000
0000
0001
0010
0000
0100
,
1000
0010
0100
0001
0020
0100
0030
0200
,
1000
0300
2000
0001
3000
0002
0100
0003
,
0100
0010
1000
0001
0100
0000
0000
0000
;

//---------------dance-single - ----------------
#NOTES:
     dance-single:
     :
     Easy:
     4:
     0.229149,0.277949,0.246123,0.568629,0.000000,189.000000,160.000000,29.000000,67.000000,0.000000,0.000000,0.229149,0.277949,0.246123,0.568629,0.000000,189.000000,160.000000,29.000000,67.000000,0.000000,0.000000:
// measure 0
0000
0000
0001
0100
,  // measure 1
0202
0303
0020
0030
,  // measure 2
2200
3300
0020
0030
,  // measure 3
0100
0000
0010
0000
,  // measure 4
1000
0100
0001
0100
,  // measure 5
0010
0000
1000
0000
,  // measure 6
0001
0010
1000
0010
,  // measure 7
0001
0001
0100
0100
,  // measure 8
1000
1000
0100
0010
,  // measure 9
1001
0000
0000
0100
0000
0000
1001
0000
,  // measure 10
0000
0100
0000
0000
1001
0000
0000
0000
,  // measure 11
0002
0000
0010
0003
,  // measure 12
2000
0000
0100
3000
,  // measure 13
0002
0000
1000
0003
,  // measure 14
0200
0000
0010
0300
,  // measure 15
2002
0000
3003
0010
,  // measure 16
0200
0300
0020
0030
,  // measure 17
2000
0000
0000
3000
,  // measure 18
0002
0003
0020
0030
,  // measure 19
0200
0000
0300
1000
,  // measure 20
0020
0030
0200
0300
,  // measure 21
0002
0003
2000
0000
,  // measure 22
0000
3000
0200
0300
,  // measure 23
2200
0000
3300
0100
,  // measure 24
0020
0030
0002
0003
,  // measure 25
2000
0000
3000
0010
,  // measure 26
0200
0300
0002
0003
,  // measure 27
0020
0000
0030
0100
,  // measure 28
2000
3000
0002
0003
,  // measure 29
0200
0000
0000
0000
,  // measure 30
0000
0300
0001
1000
,  // measure 31
0010
0000
0001
1000
,  // measure 32
0010
1001
0000
0110
,  // measure 33
0000
1001
0000
1000
,  // measure 34
0001
0100
0000
1000
,  // measure 35
0001
0100
1001
0000
,  // measure 36
0110
0000
1001
0000
,  // measure 37
0001
1000
0010
0010
,  // measure 38
0001
1000
0010
0010
,  // measure 39
0001
1000
0100
0100
,  // measure 40
0010
0010
0001
0001
,  // measure 41
1000
0010
2020
3030
,  // measure 42
0001
0010
0022
0033
,  // measure 43
1000
0001
2002
0000
,  // measure 44
0000
0000
3003
0000
,  // measure 45
0010
0100
0220
0330
,  // measure 46
0001
1000
2002
3003
,  // measure 47
0100
1000
2200
0300
,  // measure 48
0020
0030
0200
0300
,  // measure 49
0020
3030
0202
0300
,  // measure 50
0020
0030
0200
0300
,  // measure 51
0020
0033
2002
0003
,  // measure 52
0020
0030
0002
3000
,  // measure 53
0020
0033
2002
0003
,  // measure 54
0200
0300
0002
3003
,  // measure 55
1000
0001
0200
0300
,  // measure 56
0020
0030
0200
0300
,  // measure 57
0020
0000
0030
0000
1001
0000
0000
0100
,  // measure 58
0000
0000
1001
0000
0000
0100
0000
0000
,  // measure 59
1001
0000
0000
0000
0010
0000
0000
1000
,  // measure 60
0000
0000
0100
0000
0000
0010
0000
0000
,  // measure 61
1001
0000
0000
0000
0110
0000
0000
0001
,  // measure 62
0000
0000
0110
0000
0000
1000
0000
0000
,  // measure 63
0110
0000
0000
0000
0001
0000
0000
0010
,  // measure 64
0000
0000
1000
0000
0000
0100
0000
0000
,  // measure 65
0001
1000
0100
0000
;

//---------------dance-single - ----------------
#NOTES:
     dance-single:
     :
     Beginner:
     2:
     0.145491,0.194564,0.042435,0.033948,0.000000,120.000000,115.000000,5.000000,4.000000,0.000000,0.000000,0.145491,0.194564,0.042435,0.033948,0.000000,120.000000,115.000000,5.000000,4.000000,0.000000,0.000000:
// measure 0
0000
0000
0000
0000
,  // measure 1
1001
0000
0010
0000
,  // measure 2
1001
0000
0010
0000
,  // measure 3
0001
0000
0000
0000
,  // measure 4
1000
0000
0000
0000
,  // measure 5
0100
0000
0000
0000
,  // measure 6
0010
0000
0000
0000
,  // measure 7
0001
0000
0000
0000
,  // measure 8
0100
0000
0000
0000
,  // measure 9
0010
0000
0000
1000
,  // measure 10
0000
0000
0001
0000
,  // measure 11
1001
0000
0010
0000
,  // measure 12
0001
0000
0001
0000
,  // measure 13
1000
0000
0010
0000
,  // measure 14
1000
0000
1000
0000
,  // measure 15
0001
0000
0000
0100
,  // measure 16
0100
0000
0100
0000
,  // measure 17
0010
0000
0000
0000
,  // measure 18
1000
0000
0010
0000
,  // measure 19
0010
0000
0000
1000
,  // measure 20
1000
0000
0001
0000
,  // measure 21
1000
0000
0100
0000
,  // measure 22
0000
0000
0100
0000
,  // measure 23
0010
0000
0000
0001
,  // measure 24
0001
0000
0001
0000
,  // measure 25
1000
0000
0000
0010
,  // measure 26
0010
0000
0100
0000
,  // measure 27
0001
0000
0000
0010
,  // measure 28
0010
0000
0100
0000
,  // measure 29
1000
0000
0000
0000
,  // measure 30
0000
0000
0010
0010
,  // measure 31
0010
0000
0100
0100
,  // measure 32
0100
0000
0000
1000
,  // measure 33
0000
0001
0000
1000
,  // measure 34
1000
1000
0000
0010
,  // measure 35
0010
0010
0000
0000
,  // measure 36
0100
0000
0001
0000
,  // measure 37
1000
1000
1000
0000
,  // measure 38
0100
0100
0100
0000
,  // measure 39
0010
0010
0010
0000
,  // measure 40
0001
0000
1000
0000
,  // measure 41
0001
0001
0001
0000
,  // measure 42
1000
1000
1000
0000
,  // measure 43
0010
0010
0010
0000
,  // measure 44
0100
0000
0010
0000
,  // measure 45
0100
0100
0100
0000
,  // measure 46
0001
0001
0001
0000
,  // measure 47
1000
1000
2000
0000
,  // measure 48
0000
0000
0000
0000
,  // measure 49
3000
0000
0000
0000
,  // measure 50
0000
0000
0000
0000
,  // measure 51
0000
0000
0002
0000
,  // measure 52
0000
0000
0000
0000
,  // measure 53
0000
0000
0003
0000
,  // measure 54
0000
0000
0000
0000
,  // measure 55
0010
0010
0010
0000
,  // measure 56
0200
0300
0010
0000
,  // measure 57
0200
0300
0010
0000
,  // measure 58
0000
0001
0000
0000
,  // measure 59
1000
0000
0010
0000
,  // measure 60
0000
1000
0000
0000
,  // measure 61
0001
0000
0010
0000
,  // measure 62
0000
0100
0000
0000
,  // measure 63
1000
0000
0010
0000
,  // measure 64
0000
0100
0000
0000
,  // measure 65
0110
0000
1001
0000
;
