#TITLE:Thunder Rolls (The Striking Tree);
#SUBTITLE:;
#ARTIST:Masayoshi Soken;
#TITLETRANSLIT:;
#SUBTITLETRANSLIT:;
#ARTISTTRANSLIT:;
#GENRE:Before The Fall;
#CREDIT:;
#BANNER:Thunder Rolls-bn.jpg;
#BACKGROUND:Thunder Rolls-bg.jpg;
#LYRICSPATH:;
#CDTITLE:;
#MUSIC:Thunder Rolls.mp3;
#OFFSET:-0.097000;
#SAMPLESTART:98.239204;
#SAMPLELENGTH:19.090912;
#LASTBEATHINT:221.984909;
#SELECTABLE:YES;
#BPMS:0.000000=110.000000
;
#STOPS:
;
#BGCHANGES:;
#KEYSOUNDS:;
#ATTACKS:;

//---------------dance-single - ----------------
#NOTES:
     dance-single:
     :
     Hard:
     8:
     0.359134,0.492478,0.198260,0.333077,0.142747,317.000000,292.000000,25.000000,42.000000,0.000000,0.000000,0.359134,0.492478,0.198260,0.333077,0.142747,317.000000,292.000000,25.000000,42.000000,0.000000,0.000000:
0000
0000
0000
0000
,
0000
0000
0000
0000
,
0000
0000
0000
0000
,
0000
0000
0000
0000
,
0000
0000
0000
0000
,
0000
0000
0000
0000
,
0000
0000
0000
0000
,
0000
0000
0000
0000
,
0000
0000
0000
0000
,
1001
2000
0010
3000
2020
3030
0100
0000
,
0020
0001
0230
1000
,
0310
0110
0100
0000
1002
0000
0013
0100
,
2000
0000
0010
0000
3100
0000
0002
0000
0010
0000
0103
0000
,
1000
0100
0001
0100
0020
0000
1000
0000
,
0200
0330
0001
1000
,
0202
0000
0303
0000
1010
0100
0010
0100
,
0002
0000
0100
0000
1003
0000
2000
0000
0010
0000
3100
0000
,
0001
0010
1000
0010
0002
0000
0100
0010
,
0200
0303
0010
1000
,
0002
0000
0000
0000
0013
0100
0010
0001
,
0100
0000
0000
0010
,
2001
0000
3100
0000
0010
0001
0100
0010
,
0200
0000
0301
0000
1000
0010
1000
0100
,
0020
0000
0031
2000
0000
3001
0100
0010
,
0100
0000
0101
0000
1000
0010
0100
0001
,
0020
0000
0130
2000
0000
3001
0100
0010
,
0200
0000
0301
0020
0000
0130
1000
0010
,
1000
0100
0010
0001
0000
0001
2000
0000
,
3010
0100
0010
1000
0000
1000
0010
0100
,
0001
0000
0010
0100
0010
0000
0001
0000
0010
0100
0010
0000
0022
0000
0000
0000
,
0033
1000
0010
0100
0000
0100
0010
0000
,
1000
0000
0010
0100
0010
0000
1000
0000
0010
0100
0010
0000
2020
0000
0000
0000
,
3030
0001
0010
0100
0000
1000
0100
0000
,
0010
0000
0001
0100
0001
0000
0010
0000
0001
0100
0001
0000
0010
0000
0100
0000
,
1000
0000
0010
0100
0010
0000
1000
0000
0010
0100
0010
0000
1000
0000
0001
0000
,
0200
0000
1000
0001
0000
1000
0001
0300
,
0101
0000
0000
1001
,
2010
0000
0000
0000
3001
0000
0010
0000
0000
0000
1000
0010
0001
0000
0010
0000
,
0100
0000
0000
0000
1000
0000
0100
0000
0010
0000
0000
0001
0000
0000
1000
0000
,
0010
0000
0100
0001
0200
0000
0000
0000
1000
0000
1000
0000
0301
0000
0000
0010
,
0100
1000
0100
0010
0001
1000
0001
0000
,
0101
0000
0100
0001
1000
0000
0100
0000
0100
0001
1000
0000
0100
0000
0010
0000
,
0001
0010
0002
0000
1000
0000
1000
0000
0100
0000
0100
0000
1003
0000
0000
0000
,
1100
0000
0100
1000
0001
0000
0100
0000
0100
1000
0001
0000
0100
0000
0010
0000
,
1000
0010
2000
0000
0001
0000
0001
0000
0100
0000
3100
0000
1001
0000
0000
0000
,
0011
0000
0001
1000
0100
0000
2000
0000
0000
0000
3001
0100
0001
0000
0010
0000
,
0100
0000
0000
0000
1000
0000
0010
0000
0100
0000
0001
0100
0000
0000
0001
0000
,
0010
0000
0100
1000
0200
0000
0000
0000
0001
0000
0010
0000
1300
0000
0000
0010
,
0100
0001
0100
0010
1000
0001
0100
0010
,
1100
0000
0001
1000
0100
0000
0001
0000
0010
0100
1000
0000
0001
0000
0001
0000
,
1000
0010
1000
0000
0001
0000
0220
0000
0000
0000
0330
0000
0001
0000
1000
0000
,
0101
0000
0100
0001
1000
0000
0101
0000
0100
0010
1000
0000
0110
0000
0010
0000
,
0120
0100
0100
0100
0130
0000
0110
0000
,
0202
0000
0000
0000
,
0303
0000
0000
0000
;

//---------------dance-single - ----------------
#NOTES:
     dance-single:
     :
     Medium:
     5:
     0.210722,0.275780,0.174469,0.372729,0.007930,186.000000,164.000000,22.000000,47.000000,0.000000,0.000000,0.210722,0.275780,0.174469,0.372729,0.007930,186.000000,164.000000,22.000000,47.000000,0.000000,0.000000:
0000
0000
0000
0000
,
0000
0000
0000
0000
,
0000
0000
0000
0000
,
0000
0000
0000
0000
,
0000
0000
0000
0000
,
0000
0000
0000
0000
,
0000
0000
0000
0000
,
0000
0000
0000
0000
,
0000
0000
0000
0000
,
1000
0001
1000
0000
2200
0000
3300
0000
,
0010
0000
0100
0000
,
0010
0100
0010
0000
0202
0000
0303
0000
,
1000
0010
0001
0100
,
1000
0100
1000
0001
2000
0000
0000
0000
,
3200
0300
0010
0001
,
2000
0000
0000
0000
3001
0000
0100
0010
,
0200
0300
0000
0000
,
0001
0010
0001
1000
0020
0000
0000
0000
,
0230
0300
0010
1000
,
0200
0000
0000
0000
,
0300
0000
0000
1000
,
0020
0000
0000
0000
0030
1000
0010
0100
,
0001
0100
0010
1000
,
0001
0000
0010
0200
0000
0000
0310
0000
,
0001
1000
0010
0100
,
0001
0000
1000
0100
0000
1000
0100
0000
,
1000
0000
0001
0010
0000
0001
0010
0000
,
0001
0000
0100
0010
0000
0100
0010
0000
,
1000
0000
0001
0000
0100
0001
1000
0000
,
2200
0000
3300
2002
0000
3003
2200
0000
,
3300
0010
0001
0100
,
0202
0000
0303
2002
0000
3003
0202
0000
,
0303
0100
0010
0100
,
0001
0000
0010
0000
0100
1000
0100
0000
,
0010
0000
0001
0000
1000
0001
1000
0000
,
0010
0000
0100
0000
0001
1000
0010
0000
,
2002
0000
3003
0010
,
1001
0000
0010
0001
0000
0010
0000
2002
,
0000
0000
3003
0000
0000
0000
1000
0000
0010
0000
0000
1000
0000
0000
0100
0000
,
0020
0002
0033
1000
,
0010
0100
0001
1000
,
2200
0000
3300
2020
0000
3030
1001
0000
,
0011
0100
0010
0100
,
0022
0000
0033
2002
0000
3003
1010
0000
,
2200
0000
3300
0110
,
0010
0000
1000
0001
0000
1000
0000
2002
,
0000
0000
3003
0000
0000
0000
0001
0000
0010
0000
0000
0001
0000
0000
1000
0000
,
0020
0200
0330
0100
,
0010
0000
1001
0000
0100
0010
1000
0000
,
0001
0000
0010
0100
0000
0100
0010
0000
,
0001
0000
1000
0000
0100
0010
0100
0000
,
1000
0000
0010
0100
0000
0100
0020
0000
,
0000
0000
0030
0010
,
0200
0000
0300
0000
;

//---------------dance-single - ----------------
#NOTES:
     dance-single:
     :
     Easy:
     2:
     0.097431,0.168125,0.095165,0.245842,0.000000,86.000000,74.000000,12.000000,31.000000,0.000000,0.000000,0.097431,0.168125,0.095165,0.245842,0.000000,86.000000,74.000000,12.000000,31.000000,0.000000,0.000000:
// measure 0
0000
0000
0000
0000
,  // measure 1
0000
0000
0000
0000
,  // measure 2
0000
0000
0000
0000
,  // measure 3
0000
0000
0000
0000
,  // measure 4
0000
0000
0000
0000
,  // measure 5
0000
0000
0000
0000
,  // measure 6
0000
0000
0000
0000
,  // measure 7
0000
0000
0000
0000
,  // measure 8
0000
0000
0000
0000
,  // measure 9
1000
0000
1100
0000
,  // measure 10
0000
0000
0000
0000
,  // measure 11
0001
0000
0101
0000
,  // measure 12
0000
0000
0000
0000
,  // measure 13
0010
0000
1010
0000
,  // measure 14
0010
0000
0100
0000
,  // measure 15
0010
0000
0011
0000
,  // measure 16
0010
0000
0100
0000
,  // measure 17
1000
0000
1001
0000
,  // measure 18
0010
0000
0100
0000
,  // measure 19
0001
0000
1001
0000
,  // measure 20
0100
0000
0000
0000
,  // measure 21
2000
0000
3000
0100
,  // measure 22
0002
0000
0003
0100
,  // measure 23
1000
0000
0010
0000
,  // measure 24
0001
0000
0010
0000
,  // measure 25
0200
0000
0300
0000
,  // measure 26
0020
0000
0030
0000
,  // measure 27
0002
0003
2000
3000
,  // measure 28
0020
0030
0200
0300
,  // measure 29
0002
0000
0003
0200
,  // measure 30
0000
0000
0300
0000
,  // measure 31
2000
0000
3000
0200
,  // measure 32
0000
0000
0300
0000
,  // measure 33
0002
0003
0020
0030
,  // measure 34
0200
0300
2000
3000
,  // measure 35
0002
0000
0000
0000
,  // measure 36
0003
0000
0000
0000
,  // measure 37
1000
1000
0000
0100
,  // measure 38
0100
0000
0001
1000
,  // measure 39
0002
0000
0000
0003
,  // measure 40
0010
0000
0100
0000
,  // measure 41
2000
3000
0020
0030
,  // measure 42
2020
0000
0000
3030
,  // measure 43
0002
0003
0020
0030
,  // measure 44
0022
0000
0033
0000
,  // measure 45
0100
0100
0000
0010
,  // measure 46
0010
0000
0001
1000
,  // measure 47
0002
0000
0000
0003
,  // measure 48
0100
0000
0010
0000
,  // measure 49
1000
0000
0001
0000
,  // measure 50
2002
0000
0000
3003
,  // measure 51
0010
0000
0100
0000
,  // measure 52
0220
0000
0330
0110
,  // measure 53
0110
0000
0000
0000
;

//---------------dance-single - ----------------
#NOTES:
     dance-single:
     :
     Beginner:
     1:
     0.083836,0.126093,0.047582,0.015861,0.000000,74.000000,68.000000,6.000000,2.000000,0.000000,0.000000,0.083836,0.126093,0.047582,0.015861,0.000000,74.000000,68.000000,6.000000,2.000000,0.000000,0.000000:
// measure 0
0000
0000
0000
0000
,  // measure 1
0000
0000
0000
0000
,  // measure 2
0000
0000
0000
0000
,  // measure 3
0000
0000
0000
0000
,  // measure 4
0000
0000
0000
0000
,  // measure 5
0000
0000
0000
0000
,  // measure 6
0000
0000
0000
0000
,  // measure 7
0000
0000
0000
0000
,  // measure 8
0000
0000
0000
0000
,  // measure 9
1000
0000
1001
0000
,  // measure 10
0000
0000
0000
0000
,  // measure 11
0001
0000
1001
0000
,  // measure 12
0000
0000
0000
0000
,  // measure 13
0010
0000
0100
0000
,  // measure 14
0010
0000
1000
0000
,  // measure 15
0010
0000
0001
0000
,  // measure 16
0010
0000
0100
0000
,  // measure 17
1000
0000
0010
0000
,  // measure 18
0100
0000
0001
0000
,  // measure 19
1000
0000
0100
0000
,  // measure 20
0100
0000
0000
0000
,  // measure 21
1000
0000
0000
0001
,  // measure 22
0001
0000
0000
1000
,  // measure 23
1000
0000
0010
0000
,  // measure 24
0001
0000
0010
0000
,  // measure 25
0100
0000
0000
0000
,  // measure 26
0010
0000
0000
0000
,  // measure 27
0001
0000
0001
0000
,  // measure 28
1000
0000
1000
0000
,  // measure 29
0010
0000
0000
0010
,  // measure 30
0000
0000
0000
0000
,  // measure 31
0100
0000
0000
0100
,  // measure 32
0000
0000
0000
0000
,  // measure 33
0001
0000
0010
0000
,  // measure 34
0100
0000
1000
0000
,  // measure 35
0001
0000
0000
0000
,  // measure 36
0000
0000
0000
0000
,  // measure 37
0000
1000
0000
0100
,  // measure 38
0000
0001
0000
0010
,  // measure 39
0010
0020
0000
0000
,  // measure 40
0030
0000
0000
0000
,  // measure 41
0010
0000
0100
0000
,  // measure 42
0110
0000
0000
0000
,  // measure 43
0001
0000
1000
0000
,  // measure 44
1001
0000
0000
0000
,  // measure 45
0000
0100
0000
0010
,  // measure 46
0000
1000
0000
0100
,  // measure 47
0100
0200
0000
0000
,  // measure 48
0300
0000
0000
0000
,  // measure 49
0010
0000
0100
0000
,  // measure 50
0110
0000
0000
0000
,  // measure 51
0001
0000
1000
0000
,  // measure 52
0001
0000
1000
0000
,  // measure 53
1001
0000
0000
0000
;
