#TITLE:The Seed;
#SUBTITLE:;
#ARTIST:Aurora;
#TITLETRANSLIT:;
#SUBTITLETRANSLIT:;
#ARTISTTRANSLIT:;
#GENRE:A Different Kind of Human (Step 2);
#CREDIT:[Ness];
#BANNER:The Seed.png;
#BACKGROUND:The Seed-bg.png;
#LYRICSPATH:;
#CDTITLE:;
#MUSIC:The Seed.mp3;
#OFFSET:-0.992000;
#SAMPLESTART:98.799194;
#SAMPLELENGTH:14.385963;
#LASTBEATHINT:225.092941;
#SELECTABLE:YES;
#BPMS:0.000000=99.750000
,48.000000=133.000000
,62.000000=199.500000
,159.000000=66.500000
,165.000000=133.000000
,225.000000=199.500000
;
#STOPS:62.000000=0.602000,
225.000000=1.504000
;
#BGCHANGES:;
#KEYSOUNDS:;
#ATTACKS:;

//---------------dance-single - ----------------
#NOTES:
     dance-single:
     :
     Hard:
     7:
     0.444775,0.526145,0.154329,0.181169,0.211364,464.000000,441.000000,23.000000,27.000000,0.000000,0.000000,0.444775,0.526145,0.154329,0.181169,0.211364,464.000000,441.000000,23.000000,27.000000,0.000000,0.000000:
// measure 0
0000
0000
0000
0000
,  // measure 1
0000
0000
0000
0000
,  // measure 2
0000
0000
0000
0000
,  // measure 3
0000
0000
0000
0000
,  // measure 4
0000
0000
0000
0000
,  // measure 5
0000
0000
0000
0000
,  // measure 6
0001
2000
0010
0002
0000
3003
0200
0000
,  // measure 7
0310
1000
0100
1000
0002
0000
0000
0200
,  // measure 8
0000
0003
0301
0100
1000
0010
1000
0100
,  // measure 9
0020
0000
0000
0002
0000
0030
2000
0000
,  // measure 10
0003
0000
0020
0000
3000
0000
1030
0000
0002
0000
0000
0000
0003
0010
0200
0000
,  // measure 11
0000
0000
0300
1000
0002
0000
0000
0000
0103
0000
0010
0000
0000
1000
0100
0000
,  // measure 12
2000
0000
0000
0000
0000
3010
0100
0000
0001
0000
1000
0000
,  // measure 13
0000
0000
0001
0100
0000
0010
1000
0000
0100
0000
0010
0000
,  // measure 14
0002
0000
0000
0000
0000
1003
0100
0000
0010
0000
0001
0000
,  // measure 15
0100
0000
0000
0000
0000
0000
0001
1000
,  // measure 16
0010
0100
0001
0000
0202
0000
0000
0000
,  // measure 17
0303
0000
0001
1000
0100
0010
0000
0000
,  // measure 18
0001
0100
0000
0010
0000
0000
1000
0100
,  // measure 19
1000
0000
0001
1000
0010
0000
0100
0000
,  // measure 20
0001
0000
1000
0000
0000
0001
0000
0010
,  // measure 21
0100
0000
1000
0010
0000
0000
1001
0000
,  // measure 22
0001
0100
0000
1000
0010
1000
0000
0001
,  // measure 23
0000
0100
0010
0100
,  // measure 24
0001
1000
0000
0010
0000
0000
0100
0001
,  // measure 25
1000
0000
0100
0000
1100
0000
1000
0100
,  // measure 26
0010
0100
1000
0000
0001
1000
0000
0000
,  // measure 27
0010
0100
0000
0001
0000
0000
1000
0010
,  // measure 28
1000
0000
0001
1000
0100
0000
0010
0000
,  // measure 29
0100
0000
1000
0000
0001
0010
0000
0000
,  // measure 30
0001
1000
0000
0010
0000
0000
1000
0100
,  // measure 31
1000
0000
0001
1000
0010
0000
0001
0010
,  // measure 32
0001
0000
0101
0000
0001
0010
0000
0001
,  // measure 33
1000
0000
0001
0100
0000
0000
0010
0000
,  // measure 34
0100
0001
0000
1000
0010
1000
0000
0100
,  // measure 35
0000
0010
0001
0100
,  // measure 36
0001
0010
0000
0100
0000
0000
0010
0001
,  // measure 37
1000
0000
0001
0100
0001
0000
1000
0000
,  // measure 38
0010
0100
0101
1100
,  // measure 39
1000
0000
0001
0000
0100
0000
0010
1000
,  // measure 40
0001
0100
0001
0010
0200
0000
0000
0000
,  // measure 41
0000
0000
0000
2300
0000
0000
0000
0000
3010
0100
0000
0001
,  // measure 42
0000
1000
0000
0000
0000
0001
0010
0000
0100
1000
0000
0001
,  // measure 43
0000
0100
0000
0002
0000
0000
0000
0000
0013
0100
0000
1000
,  // measure 44
0000
0001
0000
0000
0000
1000
0010
0000
0100
0001
0000
1000
,  // measure 45
0000
0100
0000
0020
0000
0000
0000
0000
0031
0100
0000
0001
,  // measure 46
0000
1000
0000
0000
0000
0010
1000
0000
0001
0010
0000
0100
,  // measure 47
0000
0010
0000
0002
0000
0000
0000
0000
1003
0100
0000
0010
,  // measure 48
0000
0001
0000
0000
0000
1000
0001
0000
0100
0001
0000
1000
,  // measure 49
0000
0100
0000
2000
0000
0000
0000
0000
3010
0100
0000
0001
,  // measure 50
0000
1000
0000
0000
0000
0001
0010
0000
1000
0010
0000
0001
,  // measure 51
0000
1000
0000
0200
0000
0000
0000
0000
0310
0001
0000
1000
,  // measure 52
0000
0010
0000
0000
0000
1000
0100
0000
0001
0100
0000
0010
,  // measure 53
0000
1000
0000
0200
0000
0001
0000
1000
0000
0001
0000
0000
,  // measure 54
1000
0000
0000
0320
0000
0001
0000
1000
0000
0001
0000
0000
,  // measure 55
1000
0000
0000
0130
0000
0000
1000
0001
1000
0100
0000
0000
,  // measure 56
0001
0000
1000
0000
0001
0000
0100
0000
0000
0000
0000
0000
1001
0000
0000
0000
0000
0000
0100
0000
0000
0001
0000
0000
,  // measure 57
1000
2200
0000
3300
,  // measure 58
1000
0000
0000
0010
0000
0000
1000
0001
,  // measure 59
0000
0010
0000
0000
0001
0100
0001
0000
,  // measure 60
1000
0001
0100
0000
0001
0100
1000
0000
,  // measure 61
1100
0000
1000
0010
0000
1000
0001
0000
,  // measure 62
0001
0010
0000
0000
0011
0000
0010
0001
,  // measure 63
0000
0001
1000
0001
0000
0101
0000
0000
,  // measure 64
0001
0000
1000
0000
0100
0000
1000
0001
,  // measure 65
0000
1000
0000
0000
0100
1000
0001
0000
,  // measure 66
0100
0001
0100
0000
1000
0100
1000
0000
,  // measure 67
1100
0000
1000
0010
0000
1000
0001
0010
,  // measure 68
0000
0001
0000
0000
0010
0001
0100
0000
,  // measure 69
0001
0100
0001
0000
1000
0010
0100
0010
,  // measure 70
1000
0000
0100
0010
0000
0000
0001
1000
,  // measure 71
0000
0001
0000
0000
0100
0001
1000
0000
,  // measure 72
0001
0100
0001
0000
0010
0001
0010
0000
,  // measure 73
1010
0000
0010
1000
0100
1000
0010
0000
,  // measure 74
1000
0001
0000
1000
0010
0000
0100
0001
,  // measure 75
0000
0001
0010
0001
0000
1000
0000
0100
,  // measure 76
0010
0000
0100
0000
1000
0000
0010
1000
,  // measure 77
0000
0001
0000
1000
0010
0100
0001
0000
,  // measure 78
0010
0001
1000
0000
0001
0100
0001
1000
,  // measure 79
0100
1010
0011
0010
,  // measure 80
0100
1000
0001
0100
0010
0000
1000
0100
,  // measure 81
1000
1100
1000
0001
,  // measure 82
0100
0000
0001
0010
0001
0000
0011
0000
,  // measure 83
0010
0000
0100
0000
1000
0000
0010
1000
,  // measure 84
0001
1000
0010
0000
0100
0001
1000
0000
,  // measure 85
0001
0010
0001
0000
0010
1000
0010
0000
,  // measure 86
0100
0001
1000
0000
0001
0000
0010
0001
,  // measure 87
1000
0001
0010
0000
0011
0000
1001
0000
,  // measure 88
1010
0000
0010
1000
0001
1000
0010
0000
,  // measure 89
1010
0000
1100
0000
1001
0000
1000
0100
,  // measure 90
1000
0001
0100
0000
0001
0100
0001
1000
,  // measure 91
0010
0100
0001
0000
0001
0010
0001
0000
,  // measure 92
0001
1000
0001
0000
0000
0000
0000
0000
;

//---------------dance-single - ----------------
#NOTES:
     dance-single:
     :
     Challenge:
     9:
     0.564596,0.680894,0.208009,0.107359,0.254979,589.000000,558.000000,31.000000,16.000000,0.000000,0.000000,0.564596,0.680894,0.208009,0.107359,0.254979,589.000000,558.000000,31.000000,16.000000,0.000000,0.000000:
0000
0000
0000
0000
,
0000
0000
0000
0000
,
0000
0000
0000
0000
,
0000
0000
0000
0000
,
0000
0000
0000
0000
,
0000
0000
0000
0000
,
0001
2000
0010
0002
0000
3003
0200
0000
,
0310
1000
0100
1000
0002
0000
0000
0200
,
0000
0003
0301
0100
1000
0010
1000
0100
,
0020
0000
0000
0002
0000
0030
2000
0000
,
0003
0000
0020
0000
3000
0000
1030
0000
0002
0000
0000
0000
0003
0010
0200
0000
,
0000
0000
0300
1000
0002
0000
0000
0000
0103
0000
0010
0000
0000
1000
0100
0000
,
2000
0000
0000
0000
0000
3010
0100
0000
0001
0000
1000
0000
,
0000
0000
0001
0100
0000
0010
1000
0000
0100
0000
0010
0000
,
0002
0000
0000
0000
0000
1003
0100
0000
0010
0000
0001
0000
,
0200
0000
0000
0000
0000
0000
0000
0000
0010
0000
0000
0000
0000
0000
0000
0000
1000
0300
0000
0000
0000
0000
0000
0000
0001
0000
0000
0000
1000
0000
0000
0000
,
0010
0100
0001
0010
0001
1000
0100
0000
,
0000
0000
0001
1000
0100
0010
0001
0100
,
1000
0100
0001
0100
0000
0010
1000
0100
,
1000
0001
1000
0010
0100
0001
1000
0000
,
0000
0000
1000
0001
0010
0100
1000
0001
,
0100
0001
1000
0010
0000
0100
0001
0010
,
0001
0100
0010
1000
0100
1000
0001
0000
,
0000
0000
1000
0100
1000
0001
0010
0100
,
1000
0001
0100
0010
0000
0100
0001
1000
,
0001
0010
0100
1000
0001
1000
0100
0000
,
0000
0000
1000
0010
1000
0001
0010
0100
,
1000
0100
0010
0001
0000
0001
1000
0001
,
0100
0001
1000
0100
1000
0001
0100
0000
,
0000
0000
0010
1000
0001
0010
0001
1000
,
0100
1000
0001
0100
0000
0010
1000
0100
,
1000
0001
1000
0010
0100
0001
0010
0000
,
0000
0000
0001
0100
0001
0010
0100
1000
,
0001
1000
0100
0010
0000
0001
0100
0001
,
1000
0010
1000
0001
0100
0010
1000
0000
,
0000
0000
0100
1000
0001
0100
0001
0010
,
0100
1000
0001
0100
0000
0010
1000
0001
,
1000
0100
0010
0001
0100
0001
1000
0000
,
0000
0000
0010
0100
0001
1000
0100
0010
,
0001
0100
0001
0010
0000
0100
1000
0001
,
0100
0000
0000
1000
0000
0000
0001
0000
0000
0010
0000
0000
0200
0000
0001
0000
0001
0000
0000
0000
0010
0010
0000
0001
,
0001
0010
0001
1300
0000
0000
0001
0000
0010
0100
0000
1100
,
0000
1001
0000
0100
0000
0001
0010
0000
0100
1000
0000
0001
,
0000
0100
0000
0001
1000
0000
0100
0000
0010
0100
0000
1000
,
0000
0001
0000
0000
0000
1000
0010
0000
0001
0100
0000
0101
,
0000
1100
0000
0001
0010
0000
0001
0000
1000
0010
0000
0100
,
0000
0001
0000
0000
0000
1000
0100
0000
0001
0010
0000
0110
,
0000
1001
0000
0001
0010
0000
0001
0000
1000
0010
0000
0100
,
0000
0001
0000
0000
0000
1000
0100
0000
1000
0001
0000
0110
,
0000
1010
0000
0001
1000
0000
0010
0000
1000
0001
0000
0010
,
0000
0100
0000
0000
0000
1000
0001
0000
0100
0010
0000
1100
,
0000
0011
0000
1000
0100
0000
0001
0000
1000
0100
0000
0010
,
0000
0001
0000
0000
0000
1000
0001
0000
0010
0100
0000
1001
,
0000
1010
0000
0001
0000
0011
0000
0110
0000
1100
0000
0000
,
1001
0000
0000
1000
0000
1010
0000
0110
0000
0101
0000
0000
,
1001
0000
0000
1100
0000
1000
0001
0010
0100
1000
0000
1000
,
0001
0000
0010
0000
0100
0000
0110
0000
0000
0000
0000
0000
0100
0000
0000
1000
0000
0000
0010
0000
0000
0100
0000
0000
,
0001
1000
0100
0010
0001
0000
0000
0000
,
1000
0001
0100
0010
1000
0001
0010
0100
,
0010
0001
0000
1000
0010
1000
0001
1000
,
0100
0010
0001
0100
0001
0000
0000
0000
,
0001
0010
0100
1000
0100
0010
0001
1000
,
0001
0100
0000
0010
1000
0100
1000
0010
,
0100
0001
0100
0010
1000
0000
0000
0000
,
0001
1000
0100
0010
0100
1000
0010
1000
,
0001
0010
0000
0010
0001
0100
0001
1000
,
0100
0010
0001
0100
0001
0000
0000
0000
,
1000
0100
0010
0001
0100
0001
1000
0100
,
0010
0001
0000
0001
0010
0100
0010
1000
,
0010
0100
0010
0001
1000
0000
0000
0000
,
0001
0100
0010
0100
1000
0100
0001
0100
,
0010
1000
0000
1000
0100
0010
0100
1000
,
0100
0001
0100
0010
0001
0000
0000
0000
,
1000
0001
0100
0001
1000
0010
1000
0100
,
0010
0001
0000
0001
1000
0010
1000
0001
,
0100
0010
0100
0001
1000
0000
0000
0000
,
0001
0010
0001
1000
0100
0010
0001
1000
,
0001
0010
0000
0100
1000
0001
1000
0100
,
0010
0100
1000
0010
1000
0000
0000
0000
,
0001
0100
0010
1000
0100
0010
0001
1000
,
0001
0100
0000
0010
1000
0000
0100
1000
,
0010
1000
0100
0000
0101
0000
0011
0000
,
1010
0000
0010
1000
0001
1000
0010
0100
,
0001
0010
0000
0001
1000
0001
0010
0100
,
1000
0010
1000
0001
0100
0000
0000
0000
,
0001
1000
0100
0010
0001
1000
0010
1000
,
0001
0100
0000
0001
0010
0100
0010
0001
,
1000
0001
0010
0000
0011
0000
1001
0000
,
1010
0000
0010
1000
0001
1000
0010
0000
,
1010
0000
1100
0000
1001
0000
1000
0100
,
1000
0001
0100
0000
0001
0100
0001
1000
,
0010
0100
0001
0000
0001
0010
0001
0000
,
0001
1000
0001
0000
0000
0000
0000
0000
;

//---------------dance-single - ----------------
#NOTES:
     dance-single:
     :
     Medium:
     6:
     0.319203,0.371397,0.053680,0.140909,0.100650,333.000000,325.000000,8.000000,21.000000,0.000000,0.000000,0.319203,0.371397,0.053680,0.140909,0.100650,333.000000,325.000000,8.000000,21.000000,0.000000,0.000000:
// measure 0
0000
0000
0000
0000
,  // measure 1
0000
0000
0000
0000
,  // measure 2
0000
0000
0000
0000
,  // measure 3
0000
0000
0000
0000
,  // measure 4
0000
0000
0000
0000
,  // measure 5
0000
0000
0000
0000
,  // measure 6
1000
0100
0010
0001
0000
0000
1000
0000
,  // measure 7
0000
0001
0000
0000
1000
0000
0000
0010
,  // measure 8
0000
0000
0000
0001
0100
0001
0100
0010
,  // measure 9
1000
0000
0000
0100
0000
0000
1000
0000
,  // measure 10
0000
0010
0000
0100
0001
0000
0000
0010
,  // measure 11
0000
0000
1000
0000
0000
0100
0000
0000
,  // measure 12
0020
0000
0000
0000
0000
0000
0031
0000
1000
0000
0001
0000
,  // measure 13
0000
0000
0000
0100
0000
0000
0001
0000
0100
0000
0010
0000
,  // measure 14
2000
0000
0000
0000
0000
0000
3001
0000
1000
0000
0001
0000
,  // measure 15
0000
0000
0000
1001
,  // measure 16
0001
0010
0100
1000
,  // measure 17
0001
1000
0010
0001
,  // measure 18
0010
0100
0010
0001
,  // measure 19
0100
1000
0100
0010
,  // measure 20
0100
0001
1000
0010
,  // measure 21
1000
0100
0001
0100
,  // measure 22
1000
0100
1000
0001
,  // measure 23
0100
0001
0010
0001
,  // measure 24
0100
0010
1000
0100
,  // measure 25
0010
0100
1000
0001
,  // measure 26
1000
0100
0010
0001
,  // measure 27
0100
1000
0100
1002
,  // measure 28
1000
1000
1003
0010
,  // measure 29
1000
2100
0100
0100
,  // measure 30
3100
1000
0001
0011
,  // measure 31
0001
1000
1100
1000
,  // measure 32
0001
0010
1000
0100
,  // measure 33
0010
0100
0010
0021
,  // measure 34
0001
0001
0031
1000
,  // measure 35
0010
1020
1000
1000
,  // measure 36
1030
0001
0100
0010
,  // measure 37
1000
0100
0001
0100
,  // measure 38
1000
0001
0010
0100
,  // measure 39
1000
0000
0100
0000
0010
0000
0001
0001
,  // measure 40
1000
1000
0100
0100
0020
0000
0000
0000
,  // measure 41
0030
0000
0000
0200
0000
0000
0000
0000
0000
1300
0000
0010
,  // measure 42
0000
0100
0000
0000
0000
0000
1000
0000
0000
1000
0000
0010
,  // measure 43
0000
0100
0000
0002
0000
0000
0000
0000
0000
1003
0000
0001
,  // measure 44
0000
0010
0000
0000
0000
0000
0100
0000
0000
0100
0000
1000
,  // measure 45
0000
0001
0000
0200
0000
0000
0000
0000
0000
0301
0000
1000
,  // measure 46
0000
0010
0000
0000
0000
0000
1000
0000
0000
0100
0000
0010
,  // measure 47
0000
0001
0000
2000
0000
0000
0000
0000
0000
3001
0000
0100
,  // measure 48
0000
0001
0000
0000
0000
0000
0010
0000
0000
0100
0000
1000
,  // measure 49
0000
0010
0000
0200
0000
0000
0000
0000
0000
0301
0000
1000
,  // measure 50
0000
0001
0000
0000
0000
0000
0010
0000
0000
0010
0000
0001
,  // measure 51
0000
1000
0000
0200
0000
0000
0000
0000
0000
1300
0000
0010
,  // measure 52
0000
0001
0000
0000
0000
0000
0100
0000
0000
0100
0000
0001
,  // measure 53
0000
1000
0000
0100
0000
0000
0010
0000
0000
0001
0000
0000
,  // measure 54
1000
0001
0010
0100
,  // measure 55
1000
0001
0001
1000
,  // measure 56
1000
1001
0001
0010
,  // measure 57
0001
0100
1000
0100
,  // measure 58
0001
0100
0010
1000
,  // measure 59
0100
0010
0001
1000
,  // measure 60
0001
0010
0100
1000
,  // measure 61
0001
0000
0000
1000
0000
0000
0010
0000
,  // measure 62
0100
0001
0000
0000
1000
0000
0000
0100
,  // measure 63
0000
0000
0010
0100
0000
1000
0000
0000
,  // measure 64
0001
0000
0010
0000
0001
0000
0100
0010
,  // measure 65
0000
1000
0000
0000
0001
0000
1000
0000
,  // measure 66
0010
0100
0001
0010
,  // measure 67
0001
1000
0100
0010
,  // measure 68
0100
1000
0010
1000
,  // measure 69
0001
0010
0001
0100
,  // measure 70
0001
1000
0100
1000
,  // measure 71
0010
0100
0010
1000
,  // measure 72
0100
1000
0001
0010
,  // measure 73
0100
0000
0000
1000
0000
0000
0100
0000
,  // measure 74
0000
0010
0000
0000
0001
0000
0100
0001
,  // measure 75
0000
0000
1000
0000
0000
0010
0000
0000
,  // measure 76
1000
0000
0100
0000
0010
0000
0001
0100
,  // measure 77
0000
0001
0000
0000
0010
0100
0010
0000
,  // measure 78
0100
1000
0001
0100
,  // measure 79
0010
1000
0001
1000
,  // measure 80
0000
0000
0020
0000
,  // measure 81
0000
1030
0100
0001
,  // measure 82
0200
0000
0000
0301
,  // measure 83
0010
0100
2000
0000
,  // measure 84
3000
0010
0200
0000
0000
0000
0300
0001
,  // measure 85
0010
0001
0010
0000
0100
1000
0100
0000
,  // measure 86
0000
0000
0002
0000
,  // measure 87
0000
0003
0100
0010
,  // measure 88
2000
0000
0000
3000
,  // measure 89
1000
0001
0020
0000
,  // measure 90
0030
0100
2000
0000
0000
0000
3000
0001
,  // measure 91
0100
0001
0100
0000
0010
1000
0010
0000
,  // measure 92
1000
0100
1000
0000
0000
0000
0000
0000
;

//---------------dance-single - ----------------
#NOTES:
     dance-single:
     :
     Easy:
     4:
     0.211843,0.247262,0.013420,0.093940,0.000000,221.000000,219.000000,2.000000,14.000000,0.000000,0.000000,0.211843,0.247262,0.013420,0.093940,0.000000,221.000000,219.000000,2.000000,14.000000,0.000000,0.000000:
// measure 0
0000
0000
0000
0000
,  // measure 1
0000
0000
0000
0000
,  // measure 2
0000
0000
0000
0000
,  // measure 3
0000
0000
0000
0000
,  // measure 4
0000
0000
0000
0000
,  // measure 5
0000
0000
0000
0000
,  // measure 6
1000
0000
0000
1000
0000
0000
0000
0000
,  // measure 7
0000
0001
0000
0000
0010
0000
0000
0001
,  // measure 8
0000
0000
0000
0000
0000
0100
0000
0000
,  // measure 9
0010
0000
0000
1000
0000
0000
0000
0000
,  // measure 10
0000
0001
0000
0000
0010
0000
0000
0100
,  // measure 11
0000
1000
0000
0000
,  // measure 12
0001
0000
0010
0000
,  // measure 13
1000
0000
0100
0000
,  // measure 14
0010
0000
0001
0000
,  // measure 15
0100
0000
0000
1001
,  // measure 16
1000
0100
1000
0000
,  // measure 17
0000
0000
0001
0000
0000
0010
0000
0000
,  // measure 18
0100
0000
0000
0010
0000
0000
0001
0000
,  // measure 19
0100
0001
0100
0000
,  // measure 20
0000
0000
0010
0000
0000
1000
0000
0000
,  // measure 21
0100
0000
0000
1000
0000
0000
0010
0000
,  // measure 22
0000
0100
0000
0000
0001
0000
0000
1000
,  // measure 23
0000
0000
0001
0000
0000
0010
0000
0000
,  // measure 24
0100
0000
0000
1000
0000
0000
0001
0000
,  // measure 25
1000
0001
1000
0000
,  // measure 26
0000
0000
0001
0000
0000
0100
0000
0000
,  // measure 27
0010
0000
0000
1000
0000
0000
0100
0000
,  // measure 28
1000
0100
0010
0000
,  // measure 29
0000
0000
0001
0000
0000
0100
0000
0000
,  // measure 30
0010
0000
0000
1000
0000
0000
0100
0000
,  // measure 31
1000
0100
1000
0000
,  // measure 32
0000
0000
0001
0000
0000
0010
0000
0000
,  // measure 33
0100
0000
0000
1000
0000
0000
0001
0000
,  // measure 34
0000
0010
0000
0000
0001
0000
0000
1000
,  // measure 35
0000
0000
0001
0000
0000
0100
0000
0000
,  // measure 36
1000
0000
0000
0100
0000
0000
1000
0000
,  // measure 37
0000
0001
0000
0000
1000
0000
0000
0010
,  // measure 38
0000
0001
0100
0001
,  // measure 39
0100
0000
0000
0010
,  // measure 40
0000
0000
0000
0000
,  // measure 41
0000
2000
0000
3100
,  // measure 42
0000
0002
0000
0103
,  // measure 43
0000
2000
0000
3001
,  // measure 44
0000
0200
0000
0310
,  // measure 45
0000
2000
0000
3001
,  // measure 46
0000
0020
0000
0130
,  // measure 47
0000
0020
0000
0031
,  // measure 48
0000
0200
0000
0310
,  // measure 49
0000
2000
0000
3100
,  // measure 50
0000
0002
0000
0103
,  // measure 51
0000
2000
0000
3001
,  // measure 52
0000
2000
0000
3010
,  // measure 53
0000
0002
0000
0013
,  // measure 54
0000
2000
0000
3100
,  // measure 55
0000
0010
0000
0010
,  // measure 56
0000
0010
1001
1000
,  // measure 57
0100
1000
0000
0000
,  // measure 58
0010
1000
0100
1000
,  // measure 59
0000
0001
0000
0000
0100
0000
0001
0000
,  // measure 60
0010
0001
0000
0000
,  // measure 61
0010
0100
1000
0001
,  // measure 62
0000
1000
0000
0000
0010
0000
0000
0100
,  // measure 63
0000
0000
0001
0000
0000
0010
0000
0000
,  // measure 64
0001
0100
0010
1000
,  // measure 65
0000
0100
0000
0000
1000
0000
0001
0000
,  // measure 66
1000
0100
0000
0000
,  // measure 67
0010
0000
0000
0001
0000
0000
0100
0000
,  // measure 68
0000
1000
0000
0000
0100
0000
0010
0000
,  // measure 69
0100
0010
0000
0000
,  // measure 70
0001
0000
0000
1000
0000
0000
0010
0000
,  // measure 71
0000
0100
0000
0000
0001
0000
0010
0000
,  // measure 72
0001
0010
0000
0000
,  // measure 73
0100
0000
0000
1000
0000
0000
0010
0000
,  // measure 74
0000
1000
0000
0000
0100
0000
0000
1000
,  // measure 75
0000
0000
0001
0000
0000
0100
0000
0000
,  // measure 76
0010
0000
0000
1000
0000
0000
0100
0000
,  // measure 77
0000
1000
0000
0000
0001
0000
1000
0000
,  // measure 78
0100
1000
0000
0000
,  // measure 79
0001
0000
0000
0100
0000
0000
0010
0000
,  // measure 80
0000
1000
0000
0000
0100
0000
0010
0000
,  // measure 81
0100
0010
0000
0000
,  // measure 82
0001
0100
0001
0100
,  // measure 83
0000
0010
0000
0000
1000
0000
0100
0000
,  // measure 84
1000
0100
0000
0000
,  // measure 85
1000
0001
0100
0010
,  // measure 86
0000
0100
0000
0000
0001
0000
1000
0000
,  // measure 87
0010
0100
0000
0000
,  // measure 88
0001
0010
0100
1000
,  // measure 89
0000
0001
0000
0000
1000
0000
0100
0000
,  // measure 90
1000
0001
0010
0000
,  // measure 91
0001
0100
0001
1000
,  // measure 92
0000
0001
0000
0000
0000
0000
0000
0000
;

//---------------dance-single - ----------------
#NOTES:
     dance-single:
     :
     Beginner:
     1:
     0.074768,0.122121,0.000000,0.000000,0.000000,78.000000,78.000000,0.000000,0.000000,0.000000,0.000000,0.074768,0.122121,0.000000,0.000000,0.000000,78.000000,78.000000,0.000000,0.000000,0.000000,0.000000:
// measure 0
0000
0000
0000
0000
,  // measure 1
0000
0000
0000
0000
,  // measure 2
0000
0000
0000
0000
,  // measure 3
0000
0000
0000
0000
,  // measure 4
0000
0000
0000
0000
,  // measure 5
0000
0000
0000
0000
,  // measure 6
0010
0000
0000
0001
,  // measure 7
0000
0000
1000
0000
,  // measure 8
0000
0001
0000
0000
,  // measure 9
0010
0000
0000
0001
,  // measure 10
0000
0000
1000
0000
,  // measure 11
0000
0001
0000
0000
,  // measure 12
0100
0000
0000
0000
,  // measure 13
0100
0000
0000
0000
,  // measure 14
0100
0000
0000
0000
,  // measure 15
0100
0000
0000
0100
,  // measure 16
0000
0000
0000
0000
,  // measure 17
0000
1000
0000
0000
,  // measure 18
0000
0000
0000
0010
,  // measure 19
0000
0000
0000
0000
,  // measure 20
0000
0001
0000
0000
,  // measure 21
0000
0000
0000
0010
,  // measure 22
0000
0000
0100
0000
,  // measure 23
0000
0010
0000
0000
,  // measure 24
0100
0000
0000
0010
,  // measure 25
0000
0000
0000
0000
,  // measure 26
0000
0001
0000
0000
,  // measure 27
0000
0000
0000
0100
,  // measure 28
0000
0000
0000
0000
,  // measure 29
0000
1000
0000
0000
,  // measure 30
0000
0000
0000
0100
,  // measure 31
0000
0000
0000
0000
,  // measure 32
0000
0001
0000
0000
,  // measure 33
0000
0000
0000
0010
,  // measure 34
0000
0000
0100
0000
,  // measure 35
0000
0010
0000
0000
,  // measure 36
0100
0000
0000
0010
,  // measure 37
0000
0000
0000
0000
,  // measure 38
0000
1000
0000
0000
,  // measure 39
0000
0000
0000
0100
,  // measure 40
0000
0000
0000
0000
,  // measure 41
0000
0010
0000
0000
,  // measure 42
0000
0010
0000
0000
,  // measure 43
0000
0010
0000
0000
,  // measure 44
0000
0010
0000
0000
,  // measure 45
0000
0010
0000
0000
,  // measure 46
0000
0010
0000
0000
,  // measure 47
0000
0010
0000
0000
,  // measure 48
0000
0010
0000
0000
,  // measure 49
0000
0010
0000
0000
,  // measure 50
0000
0010
0000
0000
,  // measure 51
0000
0010
0000
0000
,  // measure 52
0000
0010
0000
0000
,  // measure 53
0000
0010
0000
0000
,  // measure 54
0000
0010
0000
0000
,  // measure 55
0000
0100
0000
0100
,  // measure 56
0000
0100
0100
0000
,  // measure 57
0000
0000
0000
0000
,  // measure 58
0001
0000
0000
0000
,  // measure 59
0000
0000
1000
0000
,  // measure 60
0000
0000
0000
0000
,  // measure 61
0001
0000
0000
0000
,  // measure 62
0000
0000
0010
0000
,  // measure 63
0000
0100
0000
0000
,  // measure 64
0010
0000
0000
0100
,  // measure 65
0000
0000
0010
0000
,  // measure 66
0000
0000
0000
0000
,  // measure 67
0100
0000
0000
0000
,  // measure 68
0000
0000
1000
0000
,  // measure 69
0000
0000
0000
0000
,  // measure 70
0001
0000
0000
0000
,  // measure 71
0000
0000
0010
0000
,  // measure 72
0000
0000
0000
0000
,  // measure 73
1000
0000
0000
0000
,  // measure 74
0000
0000
0010
0000
,  // measure 75
0000
0100
0000
0000
,  // measure 76
0010
0000
0000
0100
,  // measure 77
0000
0000
0010
0000
,  // measure 78
0000
0000
0000
0000
,  // measure 79
0001
0000
0000
0000
,  // measure 80
0000
0000
1000
0000
,  // measure 81
0000
0000
0000
0000
,  // measure 82
0001
0000
0000
0000
,  // measure 83
0000
0000
0100
0000
,  // measure 84
0000
0000
0000
0000
,  // measure 85
0010
0000
0000
0000
,  // measure 86
0000
0000
1000
0000
,  // measure 87
0000
0000
0000
0000
,  // measure 88
0100
0000
0000
0000
,  // measure 89
0000
0000
0010
0000
,  // measure 90
0000
0000
0000
0000
,  // measure 91
0001
0000
0000
0000
;
