#TITLE:The Edge of Glory;
#SUBTITLE:;
#ARTIST:Lady Gaga;
#TITLETRANSLIT:;
#SUBTITLETRANSLIT:;
#ARTISTTRANSLIT:;
#GENRE:Born This Way;
#CREDIT:;
#BANNER:The Edge of Glory-bn.jpg;
#BACKGROUND:The Edge of Glory-bg.jpg;
#LYRICSPATH:;
#CDTITLE:;
#MUSIC:The Edge of Glory.mp3;
#OFFSET:0.185000;
#SAMPLESTART:51.660000;
#SAMPLELENGTH:12.000000;
#SELECTABLE:YES;
#BPMS:0.000000=128.000000
;
#STOPS:
;
#BGCHANGES:;
#KEYSOUNDS:;
#ATTACKS:;

//---------------dance-single - ----------------
#NOTES:
     dance-single:
     :
     Hard:
     7:
     0.374683,0.387042,0.089045,0.194280,0.016190,324.000000,313.000000,11.000000,24.000000,0.000000,0.000000,0.374683,0.387042,0.089045,0.194280,0.016190,324.000000,313.000000,11.000000,24.000000,0.000000,0.000000:
// measure 0
0000
0000
0000
0000
,  // measure 1
0000
0000
0000
0000
,  // measure 2
0000
0000
0000
0000
,  // measure 3
0000
0000
0000
0000
,  // measure 4
0000
0000
0000
0000
1000
0000
0100
0000
1000
0000
0001
0100
0000
0000
0001
0000
,  // measure 5
0010
0100
1000
0001
1000
0010
2000
0000
,  // measure 6
3010
0200
0000
0000
0301
0000
1000
1000
,  // measure 7
0100
0020
0000
0000
0031
0000
0100
0100
,  // measure 8
0000
0000
0000
0000
0000
0000
0010
0000
1000
0000
0100
1000
0000
0000
0001
0000
,  // measure 9
0100
0010
1000
0001
1000
0001
0200
0000
,  // measure 10
0301
2000
0000
0000
0000
3000
0000
0000
,  // measure 11
0000
0000
0000
0000
,  // measure 12
0000
0000
0000
0000
1000
0000
0001
0000
0100
0000
0010
0100
0000
0000
0010
0000
,  // measure 13
1000
0100
0001
0100
1000
0001
0200
0000
,  // measure 14
0301
0020
0000
0000
0031
0000
0100
0100
,  // measure 15
0010
0200
0000
0000
0310
0000
1000
1000
,  // measure 16
0000
0000
0000
0000
0100
0000
1000
0000
0001
0000
0100
0001
0000
0000
1000
0000
,  // measure 17
0001
0010
1000
0010
0001
0100
0020
0000
,  // measure 18
1030
0100
2000
0000
0100
0000
0001
0000
,  // measure 19
3100
0020
0001
0100
,  // measure 20
0031
0000
2000
0000
3010
0000
1000
0001
,  // measure 21
0100
0000
0002
0000
1003
0000
0001
0100
,  // measure 22
0010
0000
0200
0000
0301
0000
1000
0100
,  // measure 23
0010
0000
0002
0000
0103
0000
0010
1000
,  // measure 24
0001
0000
2000
0000
3100
1000
0001
0001
,  // measure 25
0010
0000
0002
0000
0103
0001
1000
1000
,  // measure 26
0001
0000
0200
0000
0301
1000
0001
0001
,  // measure 27
0100
0001
1001
0000
,  // measure 28
1001
0000
0001
0010
0001
1000
0100
0000
,  // measure 29
1100
0000
1000
0010
1000
0001
0100
0000
,  // measure 30
0001
0100
1000
0100
0001
0010
0100
1000
,  // measure 31
0001
1000
0200
0000
1300
0000
0001
0000
,  // measure 32
1001
0000
0100
0001
0100
0010
1000
0000
,  // measure 33
1010
0000
1000
0001
0100
0010
0100
0000
,  // measure 34
0001
0010
1000
0010
0001
0100
0010
1000
,  // measure 35
0001
1000
0200
0000
1300
0000
0001
0000
,  // measure 36
1001
0000
1000
0100
0010
0001
1000
0001
,  // measure 37
0100
0010
1000
0010
0100
0001
1000
0100
,  // measure 38
0001
0100
1000
0010
0100
0001
0100
0001
,  // measure 39
0010
0100
2000
0000
3001
0000
0010
0000
,  // measure 40
0101
0000
0001
0010
1000
0010
0001
0100
,  // measure 41
0010
1000
0001
1000
0100
1000
0010
0100
,  // measure 42
0001
0010
0200
0000
1300
0000
0001
0100
,  // measure 43
0001
0000
1000
0100
1000
0010
0100
0000
,  // measure 44
1001
0000
0010
1000
0001
0010
0001
0100
,  // measure 45
0010
1000
0100
1000
0001
0100
0010
1000
,  // measure 46
0100
0001
0200
0000
1300
0000
0001
0100
,  // measure 47
0010
0000
1000
0100
0010
0001
1000
0000
,  // measure 48
1001
0000
0001
0010
0001
0100
0010
1000
,  // measure 49
0001
0100
1000
0100
0001
0010
0100
1000
,  // measure 50
0001
0100
0010
0000
1010
0000
0010
1000
,  // measure 51
0001
0000
0001
0010
0100
1000
0001
0000
,  // measure 52
1001
0000
0010
1000
0100
0001
0100
1000
,  // measure 53
0010
0100
0001
0010
1000
0010
0001
1000
,  // measure 54
0010
0100
0002
0000
0103
0000
0001
1000
,  // measure 55
0100
0000
1000
0010
0100
0001
0010
0100
,  // measure 56
1000
0001
1000
0000
0000
0000
0000
0000
;

//---------------dance-single - ----------------
#NOTES:
     dance-single:
     :
     Medium:
     6:
     0.291420,0.341508,0.072855,0.024285,0.000000,252.000000,243.000000,9.000000,3.000000,0.000000,0.000000,0.291420,0.341508,0.072855,0.024285,0.000000,252.000000,243.000000,9.000000,3.000000,0.000000,0.000000:
0000
0000
0000
0000
,
0000
0000
0000
0000
,
0000
0000
0000
0000
,
0000
0000
0000
0000
,
0000
1000
0010
0100
,
0001
0010
0100
0010
,
0100
0010
0001
1000
,
0000
0010
1000
0001
,
0000
0100
0010
1000
,
0001
0100
0010
0100
,
0001
1000
0000
0100
,
0000
0001
0000
0100
,
0000
0000
0110
0000
1000
0000
0100
0010
,
0001
0100
0001
0100
,
0010
2000
0100
3010
,
0100
0020
0001
0130
,
0001
0100
0010
1000
,
0100
1000
0001
0100
,
0010
2000
0001
3010
,
0001
0100
0010
1000
,
0100
0000
0010
0000
0001
0100
1000
0000
,
0100
0010
1000
0100
,
0010
0000
0001
0000
1000
0010
0001
0000
,
0010
1000
0100
0001
,
0100
0000
1000
0000
0010
0100
0001
0000
,
1000
0000
0100
0000
0010
0001
1000
0000
,
0001
0000
0100
0000
0010
1000
0001
0000
,
1000
1100
0101
0000
,
1001
0000
0001
0100
0001
0100
0001
0000
,
1000
0000
0100
1000
0100
1000
0100
0000
,
1100
0000
0001
0000
0100
0000
0010
1000
,
0010
0100
0000
0000
1001
0000
0001
0000
,
1000
0000
0100
0010
0100
0010
0100
0000
,
0110
0000
0001
1000
0001
1000
0001
0000
,
1001
0000
1000
0000
0100
0000
0010
0001
,
1000
0100
0000
0000
1100
0000
0001
0100
,
0010
1000
0001
0000
1000
0000
0100
1000
,
0100
0000
1000
0000
0001
0000
0100
0001
,
0100
0000
0001
0000
0100
0000
0010
0100
,
0010
0000
1000
0000
0100
0000
0010
0001
,
1000
0100
1000
0000
1000
0000
1000
0000
,
0001
0100
0001
0000
0001
0000
0001
0000
,
0001
0100
0010
1000
0100
0000
0100
0000
,
0010
0000
0001
1000
0100
1000
0000
0000
,
1000
0001
0100
0000
0010
0000
1000
0100
,
0001
0000
0100
0000
1000
0000
0010
0100
,
0001
0000
1000
0000
0001
0000
0010
1000
,
0010
0000
0001
0100
0010
1000
0000
0000
,
1000
0100
0010
0000
0001
0000
0100
0010
,
0100
0000
0001
0000
1000
0000
0100
1000
,
0100
0000
1000
0000
0010
0000
0100
0001
,
0100
0000
0001
1000
0100
1000
0000
0000
,
1000
0001
0100
0000
0100
0010
0100
0000
,
0001
0000
1000
0000
0100
1000
0100
0000
,
1000
0000
0001
0000
0010
0100
1000
0000
,
0001
0100
0010
1000
,
0001
1000
0000
0000
;

//---------------dance-single - ----------------
#NOTES:
     dance-single:
     :
     Easy:
     4:
     0.224347,0.227672,0.032380,0.000000,0.000000,194.000000,190.000000,4.000000,0.000000,0.000000,0.000000,0.224347,0.227672,0.032380,0.000000,0.000000,194.000000,190.000000,4.000000,0.000000,0.000000,0.000000:
0000
0000
0000
0000
,
0000
0000
0000
0000
,
0000
0000
0000
0000
,
0000
0000
0000
0000
,
0000
1000
0000
1000
,
0000
0001
0000
0001
,
0000
0010
0000
0010
,
0000
0001
0000
0001
,
0000
0100
0000
0100
,
0000
0010
0000
0010
,
0000
1000
0000
1000
,
0000
0100
0000
0100
,
0000
0010
0010
0010
,
0010
0001
0100
0001
,
0100
0010
0010
0010
,
0010
1000
0100
1000
,
1000
1000
0100
1000
,
0001
0010
0100
0010
,
0001
0100
0100
0100
,
0100
0010
0010
0010
,
0010
1000
0100
1000
,
0100
0010
0001
0010
,
0001
1000
0001
1000
,
0001
1000
0100
0010
,
0001
0100
0100
0010
,
1000
0100
0100
0010
,
0001
1000
0100
1000
,
0001
0100
0010
0000
,
0000
0010
0010
0010
,
0010
0010
0010
0010
,
0010
1000
0100
0010
,
0001
1000
1001
1000
,
0000
0100
0100
0100
,
0100
0100
0100
0100
,
0100
0010
0001
0100
,
0010
1000
1001
1000
,
0100
1000
0010
1000
,
0010
1000
0010
1000
,
0001
0100
0001
0100
,
0001
1000
1001
0001
,
0010
0100
0100
0100
,
0100
0100
0100
0100
,
0100
0010
0001
1000
,
0100
1000
1000
0001
,
0100
0010
1000
0100
,
0100
1000
0010
0001
,
0010
1000
0100
0001
,
0100
1000
0001
0100
,
0010
0010
1000
0100
,
1000
1000
0001
0010
,
0001
0100
0010
0100
,
0001
0010
0100
1000
,
0001
1000
1000
0100
,
1000
1000
0001
0100
,
0001
0001
0010
0100
,
0010
0001
1000
0100
,
1000
1001
0000
0000
;

//---------------dance-single - ----------------
#NOTES:
     dance-single:
     :
     Beginner:
     1:
     0.107548,0.136603,0.008095,0.000000,0.000000,93.000000,92.000000,1.000000,0.000000,0.000000,0.000000,0.107548,0.136603,0.008095,0.000000,0.000000,93.000000,92.000000,1.000000,0.000000,0.000000,0.000000:
0000
0000
0000
0000
,
0000
0000
0000
0000
,
0000
0000
0000
0000
,
0000
0000
0000
0000
,
0000
1000
0000
0000
,
0000
0001
0000
0000
,
0000
0100
0000
0000
,
0000
0100
0000
0000
,
0000
0001
0000
0000
,
0000
0001
0000
0000
,
0000
0010
0000
0000
,
0000
0010
0000
0000
,
0000
0001
0001
0000
,
0000
1000
1000
0000
,
0000
0100
0100
0000
,
0000
1000
1000
0000
,
0000
0001
0001
0000
,
0000
0010
0010
0000
,
0000
0100
0100
0000
,
0000
1000
1000
0000
,
0000
0001
0000
0010
,
0000
0001
0000
0010
,
0000
0100
0000
1000
,
0000
0100
0000
1000
,
0000
0010
0000
0100
,
0000
0010
0000
0100
,
0000
0001
0000
1000
,
0000
0100
0000
0010
,
0000
1001
0000
0000
,
1000
1000
0000
0000
,
0001
0001
0000
0100
,
0000
0010
0000
1000
,
0000
0001
0000
0000
,
0010
0010
0000
0000
,
0100
0100
0000
1000
,
0000
0001
0000
0100
,
0000
0010
0000
0100
,
0000
0001
0000
1000
,
0000
0001
0000
1000
,
0000
0010
0000
0100
,
0000
0010
0000
0000
,
0100
0100
0000
0000
,
0001
0001
0000
1000
,
0000
0100
0000
0010
,
0000
0001
0000
0100
,
0000
1000
0000
0100
,
0000
0001
0000
0000
,
0000
0010
0000
0100
,
0000
1000
0000
0010
,
0000
0001
0000
0010
,
0000
1000
0000
0000
,
0000
0001
0000
0000
,
0000
0100
0000
0010
,
0000
1000
0000
0001
,
0000
0100
0000
0000
,
0000
0010
0000
0000
,
0000
0100
0000
0000
;
