#TITLE:Take Me Out;
#SUBTITLE:;
#ARTIST:Franz Ferdinand;
#TITLETRANSLIT:;
#SUBTITLETRANSLIT:;
#ARTISTTRANSLIT:;
#GENRE:Take Me Out;
#CREDIT:;
#BANNER:Take Me Out-bn.jpg;
#BACKGROUND:Take Me Out-bg.jpg;
#LYRICSPATH:;
#CDTITLE:;
#MUSIC:Take Me Out.mp3;
#OFFSET:1.652000;
#SAMPLESTART:82.476280;
#SAMPLELENGTH:18.370132;
#LASTBEATHINT:282.000000;
#SELECTABLE:YES;
#DISPLAYBPM:105.000000:140.000000;
#BPMS:0.000000=142.000000
,36.000000=141.750000
,64.000000=143.000000
,74.000000=143.500000
,78.000000=145.000000
,82.000000=142.199997
,84.000000=140.000000
,90.000000=142.199997
,96.000000=142.000000
,99.000000=145.000000
,100.000000=142.199997
,112.000000=140.000000
,116.000000=138.000000
,119.000000=134.000000
,124.000000=124.000000
,126.000000=119.000000
,128.000000=113.000000
,131.000000=110.000000
,132.000000=104.000000
,140.000000=103.199997
,146.000000=105.000000
,162.000000=108.000000
,164.000000=105.000000
,176.000000=106.000000
,184.000000=105.000000
,188.000000=103.000000
,192.000000=105.000000
,198.000000=105.400002
,200.000000=104.000000
,219.000000=106.000000
,222.000000=105.000000
,227.000000=112.000000
,228.000000=107.400002
,243.000000=107.800003
,260.000000=103.000000
,268.000000=102.000000
;
#STOPS:
;
#BGCHANGES:;
#KEYSOUNDS:;
#ATTACKS:;

//---------------dance-single - ----------------
#NOTES:
     dance-single:
     :
     Hard:
     8:
     0.469692,0.561935,0.404872,0.125650,0.202436,471.000000,413.000000,58.000000,18.000000,0.000000,0.000000,0.469692,0.561935,0.404872,0.125650,0.202436,471.000000,413.000000,58.000000,18.000000,0.000000,0.000000:
0000
0000
0000
0000
,
0000
0000
0000
0000
,
0000
0000
0000
0000
,
0000
0000
0000
0000
,
0000
0000
1000
0000
0001
0000
1000
0010
,
0000
0100
0001
0000
0001
0000
0001
0000
,
1000
0000
0010
0000
1000
0100
0010
0000
,
0100
0000
0100
0000
1000
0001
0100
0001
,
1000
0000
0010
0000
0100
0000
0001
1000
,
0000
0010
0100
0000
0100
0000
0100
0000
,
0010
1000
0100
0010
,
0001
0000
1000
0000
0010
1000
0001
0100
,
0010
0000
0010
0000
1000
0100
0000
0010
,
0000
0001
0100
0000
0001
0000
1000
0000
,
0010
0000
0100
0000
0001
1000
0010
0000
,
1000
0000
1000
0000
0001
0010
0100
1000
,
0100
0000
0010
0000
0001
0000
1000
0010
,
0000
0100
0001
0000
0001
0000
0001
0000
,
0010
0000
0100
0000
1000
0100
0010
0001
,
1000
0000
0100
0000
0010
0100
0010
0001
,
0100
0100
0010
0010
,
1010
1010
0011
0011
,
0101
0101
1100
1100
,
0001
1000
0001
1000
0010
0100
0010
0100
,
0001
1000
0001
1000
0100
0010
0100
0010
,
0200
1300
0102
0013
,
2010
3001
1100
0101
,
0010
0000
0001
0100
0001
1000
0010
0000
,
0100
0000
0010
1000
0010
0001
0100
0000
,
0101
0101
1100
1100
,
0101
1001
1100
1001
,
0101
0110
1010
0110
,
0101
0011
1100
1010
,
1001
0000
0000
0000
1001
0000
0000
0000
1001
0000
0000
0001
1000
0001
1000
0000
,
1001
0000
0000
0000
1001
0000
0000
0000
1001
0000
0000
0001
1000
0001
1000
0000
,
1001
0000
0000
0000
1001
0000
0000
0000
1001
0000
0000
0001
1000
0001
1000
0000
,
1001
0000
0000
0000
1001
0000
0000
0000
1001
0000
0000
0001
1000
0001
1000
0000
,
1001
0000
1000
0000
0010
0000
0100
0001
0100
0000
0001
0000
0020
0000
0000
0000
,
0130
0000
1000
0000
0001
0000
1000
0100
1000
0000
0001
0000
0020
0000
0000
0000
,
0130
0000
0010
0000
0001
0000
0100
0001
0100
0000
0010
0000
2000
0000
0000
0000
,
3100
0000
1000
0100
1000
0000
0001
1000
0001
0000
0100
0010
0100
0000
0010
0100
,
0010
0000
1000
0000
0100
0000
1000
0100
1000
0000
0001
0000
0020
0000
0000
0000
,
0130
0000
0010
0000
0001
0000
1000
0001
1000
0000
0010
0000
0200
0000
0000
0000
,
0301
0000
1000
0000
0010
0000
1000
0001
1000
0000
0100
0000
0020
0000
0000
0000
,
0031
0000
0100
0001
0100
0000
0001
1000
0001
0000
1000
0010
1000
0000
0010
0000
,
0100
0000
0001
0000
1001
0000
0000
0000
1000
0000
0100
2000
0000
0000
0000
0000
,
3001
0000
0010
0000
1001
0000
0000
0000
0001
0010
0000
0002
0000
0000
0000
0000
,
0103
0010
1001
0000
0100
0010
1001
0000
,
0100
0010
0100
0010
1001
0000
0110
1001
,
0000
0000
0001
0000
1001
0000
0000
0000
1000
0010
0000
2000
0000
0000
0000
0000
,
3001
0000
0100
0000
1001
0000
0000
0000
0001
0000
1000
0200
0000
0000
0000
0000
,
0310
0100
1001
0000
0010
0100
1001
0000
,
0010
0100
0100
0010
1001
0000
0110
1001
,
0000
0000
0001
0000
1000
0000
0010
1000
0001
0000
1000
0000
0020
0000
0000
0000
,
0130
0000
0001
0000
1000
0000
0001
1000
0100
0000
0010
0000
0200
0000
0000
0000
,
1300
0000
0010
0000
0100
0000
0001
0100
0010
0000
0100
0000
0002
0000
0000
0000
,
1003
0000
0010
1000
0010
0000
1000
0001
1000
0000
0100
1000
0100
0000
0010
0100
,
0010
0000
0000
0010
0001
0000
0000
0001
1000
0000
0000
1000
0100
0000
0010
0000
,
0100
0000
1000
0100
1000
0000
0000
0000
0010
0000
0100
0000
0001
0000
0000
0000
,
0101
0000
0000
0100
0001
0000
0000
0001
1000
0000
0000
1000
0010
0000
0100
0000
,
0010
0000
1000
0010
1000
0000
0000
0000
0001
0000
1000
0000
0100
0000
0010
0000
,
0001
0000
0000
0001
1000
0000
0000
1000
0010
0000
0000
0010
0100
0000
0001
0000
,
1000
0000
0001
0100
0001
0000
0000
0000
1000
0000
0010
0000
0100
0000
0001
0000
,
1001
0000
0000
1000
0001
0000
0000
0001
1000
0000
0000
1000
0100
0000
0010
0000
,
0001
0000
0010
0100
1000
0000
0000
0000
0001
0000
0100
0010
1000
0000
0010
0100
,
0001
0000
0000
0000
0001
0000
0000
0000
0001
0000
0000
1000
0010
0100
0001
0000
,
1000
0000
0000
0000
1000
0000
0000
0000
1000
0000
0000
0001
0010
0100
1000
0000
,
0001
0000
0000
0000
1000
0000
0000
0000
0010
0000
0000
0100
0001
1000
0100
0000
,
2002
0000
0000
0000
,
0000
0000
0000
0000
,
3003
0000
0000
0000
;

//---------------dance-single - ----------------
#NOTES:
     dance-single:
     :
     Medium:
     6:
     0.326092,0.390911,0.118670,0.069806,0.000000,327.000000,310.000000,17.000000,10.000000,0.000000,0.000000,0.326092,0.390911,0.118670,0.069806,0.000000,327.000000,310.000000,17.000000,10.000000,0.000000,0.000000:
0000
0000
0000
0000
,
0000
0000
0000
0000
,
0000
0000
0000
0000
,
0000
0000
0000
0000
,
0000
1000
0100
0010
,
0001
0001
1000
1000
,
0010
0000
0100
0000
0001
0100
0001
0000
,
1000
0010
0100
0001
,
1000
0000
0010
0000
1000
0010
1000
0000
,
0100
0010
0001
1000
,
0010
0000
0100
0000
0001
1000
0001
0000
,
0010
0100
1000
0001
,
0100
0000
0010
0000
1000
0001
1000
0000
,
0010
0010
0100
0100
,
0001
0000
0010
0000
0100
1000
0100
0000
,
1000
0010
0100
0001
,
1000
0000
1000
0000
0001
1000
0001
0000
,
0100
0100
0010
0010
,
1000
0000
0100
0000
0010
0100
0010
0000
,
0001
0001
1000
1000
,
0100
0000
0100
0000
0010
0100
0010
0000
,
2002
3003
0220
0330
,
2002
0000
0000
3003
,
0010
0010
0100
0100
,
0001
1000
0001
1000
0001
1000
0001
0000
,
0010
0010
0100
0100
,
1000
1000
0001
1000
,
0010
0000
0100
0001
0000
0000
0000
0000
,
0000
0000
2000
0000
,
3200
0000
0000
0000
,
0310
0100
0010
0100
,
0010
0001
0100
1000
,
0001
0010
1000
0100
,
0001
0000
0001
0000
0001
0000
1000
0001
,
0100
0000
0100
0000
0100
0000
0010
1000
,
0100
0000
0100
0000
0100
0000
0001
0010
,
0100
0000
0100
0000
0100
1000
0100
1000
,
0001
0010
0001
0010
0001
0010
0001
0000
,
1000
0010
1000
0010
1000
0010
1000
0000
,
0001
0100
0001
0100
0001
0100
0001
0000
,
0010
0010
0100
0100
,
1000
0100
1000
0100
1000
0100
1000
0000
,
0001
0100
0001
0100
0001
0100
0001
0000
,
1000
0010
1000
0010
1000
0010
1000
0000
,
0001
0001
1000
1000
,
1001
0000
0110
0000
0001
1000
0100
0000
,
1001
0000
0110
0000
0001
1000
0100
0000
,
1001
0000
0110
0000
0001
1000
0100
0000
,
0001
1000
0100
0000
0001
1000
0100
0000
,
1001
0000
0110
0000
0001
1000
0100
0000
,
1001
0000
0110
0000
0001
1000
0100
0000
,
1001
0000
0110
0000
0001
1000
0100
0000
,
0001
1000
0100
0000
0001
1000
0100
0000
,
0001
0010
0001
0010
0001
1000
0001
0000
,
1000
0010
1000
0010
1000
0001
1000
0000
,
0001
0100
0001
0100
0001
1000
0001
0000
,
1000
0100
0001
0100
,
1001
0000
0100
0000
0010
0000
1000
0010
,
0100
0000
0001
0000
0010
0000
0100
1000
,
0001
0000
0010
0000
0100
0000
1000
0010
,
0100
0000
0001
0000
1000
0000
0010
0100
,
0001
0000
0010
0000
0100
0000
1000
0001
,
0100
0000
0010
0000
1000
0001
1000
0001
,
1000
0000
0010
0000
0100
0000
0001
1000
,
0100
0000
0010
0000
0001
1000
0001
1000
,
0001
0000
0001
0000
0001
0000
0010
1000
,
0001
0000
0001
0000
0001
0000
0100
1000
,
0001
0000
0001
0000
0001
0000
0010
1000
,
2002
0000
0000
0000
,
0000
0000
0000
0000
,
3003
0000
0000
0000
;

//---------------dance-single - ----------------
#NOTES:
     dance-single:
     :
     Easy:
     5:
     0.280220,0.390911,0.272242,0.083767,0.000000,281.000000,242.000000,39.000000,12.000000,0.000000,0.000000,0.280220,0.390911,0.272242,0.083767,0.000000,281.000000,242.000000,39.000000,12.000000,0.000000,0.000000:
// measure 0
0000
0000
0000
0000
,  // measure 1
0000
0000
0000
0000
,  // measure 2
0000
0000
0000
0000
,  // measure 3
0000
0000
0000
0000
,  // measure 4
0000
0010
0010
0010
,  // measure 5
0100
0100
0100
0100
,  // measure 6
1000
1000
1000
1000
,  // measure 7
0001
0001
0010
0010
,  // measure 8
0100
0100
0100
0100
,  // measure 9
0010
0001
0010
0010
,  // measure 10
0001
1000
0001
0001
,  // measure 11
1000
0010
1000
1000
,  // measure 12
0100
1000
0100
0100
,  // measure 13
0001
0100
0001
0100
,  // measure 14
1000
0100
1000
0100
,  // measure 15
0010
0100
0010
0100
,  // measure 16
1000
0001
1000
0001
,  // measure 17
0100
0010
0100
0010
,  // measure 18
1000
0010
1000
0010
,  // measure 19
0100
0001
0100
0001
,  // measure 20
1000
0001
1000
0001
,  // measure 21
0020
0030
0200
0300
,  // measure 22
2000
0000
0000
3000
,  // measure 23
0001
1000
0001
1000
,  // measure 24
0010
0100
0010
0100
,  // measure 25
0001
0001
1000
1000
,  // measure 26
0100
0100
0010
0010
,  // measure 27
0001
0001
0100
0100
,  // measure 28
0010
0010
1000
1000
,  // measure 29
0200
0000
0000
0000
,  // measure 30
0000
0000
0000
0000
,  // measure 31
1300
1000
0001
0001
,  // measure 32
1000
1000
0001
0001
,  // measure 33
1001
1001
1001
0100
,  // measure 34
1001
1001
1001
0100
,  // measure 35
1001
1001
1001
0100
,  // measure 36
1001
1001
1001
0100
,  // measure 37
1000
0100
0001
0101
,  // measure 38
0001
0100
1000
1100
,  // measure 39
1000
0100
0001
0101
,  // measure 40
0001
1000
0001
1000
,  // measure 41
0001
0010
0100
0110
,  // measure 42
1000
0010
0100
0110
,  // measure 43
0001
0010
0100
0110
,  // measure 44
1000
0001
1000
0001
,  // measure 45
1000
0100
0002
1003
,  // measure 46
0001
0100
2000
3001
,  // measure 47
0010
0200
0000
0310
,  // measure 48
0001
1000
1100
1100
,  // measure 49
0001
1000
0002
0013
,  // measure 50
1000
0001
2000
3010
,  // measure 51
0100
0020
0000
0130
,  // measure 52
0001
0100
0101
0101
,  // measure 53
1000
0010
0001
1001
,  // measure 54
0001
1000
0100
1001
,  // measure 55
1000
0100
0001
1001
,  // measure 56
0001
1000
0001
1000
,  // measure 57
0010
0010
0100
0100
,  // measure 58
0001
0001
1000
1001
,  // measure 59
0001
0001
0010
0010
,  // measure 60
0100
0100
0010
0110
,  // measure 61
0100
0100
1000
1000
,  // measure 62
0001
0001
1000
1001
,  // measure 63
0001
0001
1000
1000
,  // measure 64
0010
0010
0100
0110
,  // measure 65
1001
1001
1001
0100
,  // measure 66
1001
1001
1001
0100
,  // measure 67
1001
1001
1001
0100
,  // measure 68
2002
0000
0000
0000
,  // measure 69
0000
0000
0000
0000
,  // measure 70
3003
0000
0000
0000
;

//---------------dance-single - ----------------
#NOTES:
     dance-single:
     :
     Beginner:
     2:
     0.165539,0.219888,0.069806,0.055844,0.000000,166.000000,156.000000,10.000000,8.000000,0.000000,0.000000,0.165539,0.219888,0.069806,0.055844,0.000000,166.000000,156.000000,10.000000,8.000000,0.000000,0.000000:
// measure 0
0000
0000
0000
0000
,  // measure 1
0000
0000
0000
0000
,  // measure 2
0000
0000
0000
0000
,  // measure 3
0000
0000
0000
0000
,  // measure 4
0000
0000
0000
0000
,  // measure 5
1000
0000
1000
0000
,  // measure 6
0100
0000
0010
0000
,  // measure 7
0001
0000
1000
1000
,  // measure 8
1000
0000
0010
0000
,  // measure 9
0100
0000
0001
0000
,  // measure 10
0010
0000
0100
0000
,  // measure 11
1000
0000
0001
0001
,  // measure 12
0001
0000
0010
0000
,  // measure 13
0100
0100
0100
0000
,  // measure 14
1000
1000
1000
0000
,  // measure 15
0001
0001
0001
0000
,  // measure 16
0100
0000
0010
0000
,  // measure 17
0100
0100
0100
0000
,  // measure 18
0010
0010
0010
0000
,  // measure 19
1000
0000
0100
0000
,  // measure 20
0010
0000
0001
0000
,  // measure 21
2002
3003
0220
0330
,  // measure 22
2002
0000
0000
3003
,  // measure 23
0010
0000
0100
0000
,  // measure 24
0010
0000
0000
0000
,  // measure 25
1000
0000
0100
0000
,  // measure 26
0010
0000
0001
0001
,  // measure 27
0001
0001
0001
0000
,  // measure 28
1000
0000
0100
0000
,  // measure 29
0010
0000
0010
0000
,  // measure 30
0010
0000
0010
0000
,  // measure 31
0010
0000
0010
0000
,  // measure 32
0010
0000
0010
0000
,  // measure 33
0010
0010
0010
0010
,  // measure 34
0010
0010
0010
0010
,  // measure 35
0010
0010
0010
0010
,  // measure 36
0010
0010
0010
0000
,  // measure 37
1001
0000
0001
0000
,  // measure 38
1000
0000
0001
0000
,  // measure 39
1000
0000
0001
0000
,  // measure 40
0100
0000
0100
0000
,  // measure 41
1000
0000
0001
0000
,  // measure 42
1000
0000
0001
0000
,  // measure 43
1000
0000
0001
0000
,  // measure 44
0100
0000
0100
0000
,  // measure 45
1000
1000
1000
0000
,  // measure 46
0001
0001
0001
0000
,  // measure 47
0100
0000
0010
0000
,  // measure 48
0110
0000
1001
0000
,  // measure 49
0001
0001
0001
0000
,  // measure 50
1000
1000
1000
0000
,  // measure 51
0010
0000
0100
0000
,  // measure 52
1001
0000
0110
0000
,  // measure 53
1001
0000
0001
0001
,  // measure 54
0000
0000
1000
1000
,  // measure 55
0000
0000
0100
0100
,  // measure 56
0000
0010
0010
0010
,  // measure 57
0010
0000
0001
0000
,  // measure 58
1000
0000
0100
0100
,  // measure 59
0100
0000
1000
0000
,  // measure 60
0010
0000
0100
0100
,  // measure 61
0100
0000
0001
0000
,  // measure 62
0010
0000
0100
0100
,  // measure 63
0100
0000
1000
0000
,  // measure 64
0001
0000
0010
0010
,  // measure 65
0010
0010
0010
0010
,  // measure 66
0010
0010
0010
0010
,  // measure 67
0010
0010
0010
0000
,  // measure 68
2002
0000
0000
0000
,  // measure 69
0000
0000
0000
0000
,  // measure 70
3003
0000
0000
0000
;
