#TITLE:Take Me Away (into the night) (radio vocal);
#SUBTITLE:;
#ARTIST:4 STRINGS;
#TITLETRANSLIT:;
#SUBTITLETRANSLIT:;
#ARTISTTRANSLIT:;
#GENRE:DanceDanceRevolution;
#CREDIT:;
#BANNER:Take Me Away (into the night)(radio vocal)-bn.jpg;
#BACKGROUND:Take Me Away (into the night)(radio vocal)-bg.jpg;
#LYRICSPATH:;
#CDTITLE:d.png;
#MUSIC:Take Me Away (into the night)(radio vocal).mp3;
#OFFSET:-1.327000;
#SAMPLESTART:60.410000;
#SAMPLELENGTH:12.000000;
#LASTBEATHINT:206.000000;
#SELECTABLE:YES;
#DISPLAYBPM:138.000000;
#BPMS:0.000000=138.000000
;
#STOPS:
;
#BGCHANGES:;
#KEYSOUNDS:;
#ATTACKS:;

//---------------dance-single - ----------------
#NOTES:
     dance-single:
     :
     Beginner:
     1:
     0.162828,0.188174,0.010753,0.000000,0.000000,106.000000,105.000000,1.000000,0.000000,0.000000,0.000000,0.162828,0.188174,0.010753,0.000000,0.000000,106.000000,105.000000,1.000000,0.000000,0.000000,0.000000:
// measure 0
0000
0000
0000
0000
,  // measure 1
0000
0001
0000
0001
,  // measure 2
0000
0001
0000
0001
,  // measure 3
0000
0001
0001
0000
,  // measure 4
1000
0000
0001
0001
,  // measure 5
0000
1000
0000
0100
,  // measure 6
0000
0001
0000
0100
,  // measure 7
0000
1000
0000
0000
,  // measure 8
0001
0000
1000
1000
,  // measure 9
0000
0001
0000
0100
,  // measure 10
0000
1000
0000
0100
,  // measure 11
0000
0001
0000
0100
,  // measure 12
0100
0000
0010
0000
,  // measure 13
0100
0000
0000
0000
,  // measure 14
0010
0000
0100
0000
,  // measure 15
0010
0000
0000
0000
,  // measure 16
0100
0000
0010
0000
,  // measure 17
0100
0000
0000
0000
,  // measure 18
0010
0000
0100
0000
,  // measure 19
0010
0000
0000
0000
,  // measure 20
1000
0000
0001
0000
,  // measure 21
1000
0000
0000
0000
,  // measure 22
0001
0000
1000
0000
,  // measure 23
0001
0000
0000
0000
,  // measure 24
0100
0000
0010
0000
,  // measure 25
0100
0000
0000
0000
,  // measure 26
0010
0000
0100
0000
,  // measure 27
0010
0000
0000
0000
,  // measure 28
0010
0010
0010
0010
,  // measure 29
0010
0000
0010
0000
,  // measure 30
0100
0000
0010
0000
,  // measure 31
0100
0100
0100
0000
,  // measure 32
0010
0000
0100
0000
,  // measure 33
0010
0010
0010
0000
,  // measure 34
0100
0000
0010
0000
,  // measure 35
0100
0100
0100
0000
,  // measure 36
0010
0000
0100
0000
,  // measure 37
0010
0010
0010
0000
,  // measure 38
1000
0000
0001
0000
,  // measure 39
1000
1000
1000
0000
,  // measure 40
0001
0000
1000
0000
,  // measure 41
0001
0001
0001
0000
,  // measure 42
0100
0000
0010
0000
,  // measure 43
0100
0100
0100
0000
,  // measure 44
0010
0000
0100
0000
,  // measure 45
0010
0010
0010
0000
,  // measure 46
0001
0000
1000
0000
,  // measure 47
0001
0001
0001
0001
,  // measure 48
0001
0000
1000
0000
,  // measure 49
0001
0001
0001
0000
,  // measure 50
1001
0000
0000
0000
;

//---------------dance-single - ----------------
#NOTES:
     dance-single:
     :
     Easy:
     4:
     0.241170,0.301616,0.086022,0.290326,0.000000,157.000000,149.000000,8.000000,27.000000,0.000000,0.000000,0.241170,0.301616,0.086022,0.290326,0.000000,157.000000,149.000000,8.000000,27.000000,0.000000,0.000000:
0000
0000
0000
0000
,
0001
0000
0100
0000
,
1000
0000
0010
0000
,
0100
0000
0100
0100
,
0001
0000
0001
0100
,
0200
0300
0020
0030
,
1000
0000
1000
0100
,
0001
1000
0100
1000
,
0001
0000
1000
0100
,
0200
0300
0020
0030
,
1000
1000
0001
0100
,
0010
0010
0100
0100
,
0010
1000
0001
0000
,
0200
0000
0300
0000
,
2000
3000
0100
0001
,
0001
0000
0100
0000
,
0010
0001
1000
0000
,
0200
0000
0300
0000
,
0002
0003
0100
1000
,
1000
0000
0100
0000
,
0001
0001
2000
3010
,
0020
0000
0130
0000
,
0001
0001
2000
3100
,
0001
0001
0100
0100
,
0100
0001
1000
0000
,
0020
0000
0030
0000
,
0002
0003
0010
1000
,
1000
0000
0010
0000
,
0100
0000
0100
0010
,
0010
1000
0100
0110
,
0220
0000
0330
0000
,
0001
0100
1000
0100
,
2002
0000
3003
0000
,
1000
0100
0001
0010
,
0010
1000
0001
0001
,
0200
0000
0000
0300
,
1000
0100
0100
1000
,
0001
0001
0100
1000
,
0010
0001
1000
1000
,
0200
0000
0000
0300
,
0001
0100
0100
0001
,
1000
1000
0100
0001
,
0010
0010
1000
1001
,
0002
0103
0220
0330
,
0001
0010
1000
0100
,
1000
0100
0010
0001
,
0100
0100
0001
1001
,
2000
3010
0220
0330
,
1000
0100
0001
0010
,
0001
0010
0100
1000
,
0001
1000
2002
0000
,
3003
0000
0000
0000
;

//---------------dance-single - ----------------
#NOTES:
     dance-single:
     :
     Medium:
     6:
     0.331801,0.333068,0.064517,0.397854,0.000000,216.000000,210.000000,6.000000,37.000000,0.000000,0.000000,0.331801,0.333068,0.064517,0.397854,0.000000,216.000000,210.000000,6.000000,37.000000,0.000000,0.000000:
0000
0000
0000
0000
,
1000
1000
0002
0103
,
0100
0020
1030
0100
,
0010
1000
0001
0200
,
0301
0100
1000
0000
0001
0100
0001
0000
,
0100
2000
0100
3100
,
0002
0000
0103
0000
1000
0100
1000
0000
,
0100
0001
0010
1000
,
1000
0100
0001
0000
1000
0100
1000
0000
,
0100
0002
0100
0103
,
2000
0000
3100
0000
0001
0100
0001
0000
,
0100
1000
0010
0001
,
0001
0100
0001
0000
1000
0000
0100
0000
,
0020
0000
0000
0030
,
0002
0000
0203
0000
,
0320
1030
0100
0001
,
1000
0100
1000
0000
0001
0000
0100
0000
,
0020
0000
0000
0030
,
2000
0000
3200
0000
,
0320
0031
0100
1000
,
0001
0010
0001
0000
0100
0000
0010
0000
,
0200
0000
0001
0310
,
1000
0100
1000
0000
0001
0000
1000
0000
,
0010
1000
0100
0001
,
1000
0010
1000
0000
0001
0000
0010
0000
,
0200
0000
0000
0300
,
2000
0000
3020
0000
,
0230
0301
0010
1000
,
0001
0000
1000
0000
,
0010
0000
1000
0000
0100
1000
0010
0100
,
0002
0103
2000
3100
,
0001
0101
1000
1100
,
0020
0130
2000
3001
,
0100
1000
0010
0001
,
0001
0010
0001
0100
0000
0000
0110
0000
,
0200
0010
0001
0310
,
1000
0100
2000
0000
3001
0100
0001
0000
,
0010
1000
0100
0001
,
1000
0100
1000
0010
0000
0000
0110
0000
,
0002
0103
2000
3100
,
0010
0001
0200
0000
0310
0001
1000
0000
,
0200
0010
0301
1000
,
0001
0010
0100
1000
0000
0000
0110
0000
,
0020
0100
1000
0130
,
0001
0010
0002
0000
1003
0010
1000
0000
,
0100
0001
0010
1000
,
1000
0100
0010
0001
0000
0000
0110
0000
,
2000
3010
0002
0013
,
0010
0001
0200
0000
0310
0001
1000
0000
,
0020
0100
1030
0001
,
1000
0100
1000
0200
0000
0000
0000
0300
,
0000
0100
0000
0100
0000
0100
0000
0000
;

//---------------dance-single - ----------------
#NOTES:
     dance-single:
     :
     Hard:
     7:
     0.399390,0.472989,0.107528,0.376348,0.193550,260.000000,250.000000,10.000000,35.000000,0.000000,0.000000,0.399390,0.472989,0.107528,0.376348,0.193550,260.000000,250.000000,10.000000,35.000000,0.000000,0.000000:
0000
0000
0000
0000
,
0001
0000
0000
0001
0100
0000
0000
0000
1000
0000
0010
0000
0100
0000
0000
0000
,
1000
0000
0000
1000
0100
0000
0000
0000
0001
0000
0010
0000
0100
0000
0000
0000
,
0010
0000
1001
0000
0010
1000
0200
0000
,
0310
0001
0100
0010
0000
0000
0110
0000
,
0002
0100
1000
0103
,
1000
0000
0000
1000
0100
0000
0000
0000
0001
0000
0000
0001
0010
0000
0000
0000
,
1000
0100
0001
0010
,
0010
1000
0100
0010
0000
0000
0110
0000
,
2000
0100
0001
3100
,
0001
0000
0000
0001
0100
0000
0000
0000
1000
0000
0000
1000
0010
0000
0000
0000
,
0001
0100
1000
0010
,
0001
0010
0100
0010
0000
0000
0000
0000
,
0020
0000
0200
0030
,
2300
3020
0000
0030
,
2002
3003
0101
1001
,
1000
0010
0100
0010
0000
0000
0000
0000
,
0020
0000
0200
0030
,
0302
0023
0000
0030
,
2002
3003
1100
1001
,
0001
0010
0100
0010
0000
0100
0000
0000
,
0020
0000
0200
0330
,
2000
3002
0203
0300
,
0010
0001
0100
1000
,
0001
0100
0010
0100
0000
0000
0000
0000
,
0200
0000
0020
0300
,
2030
3200
0000
0300
,
0020
0030
0011
0100
,
0010
0000
0000
0000
0010
0000
0000
0000
0001
0000
0000
0000
0100
0000
0000
0100
,
0001
0000
0000
0001
0100
0000
0000
0000
1000
0000
0010
0000
0200
0000
0000
0000
,
0310
0000
0000
0010
1000
0000
0000
1000
0010
0000
0000
0010
0100
0000
0000
0100
,
0001
0000
0000
0001
0100
0000
0000
0100
0001
0000
0000
0001
1000
0000
0000
1000
,
0010
0000
0000
0010
1000
0000
0000
1000
0001
0000
0000
0001
1000
0000
0000
1000
,
0100
0000
0000
0100
0001
0000
0000
0001
0010
0000
0000
0010
1000
0000
0000
1000
,
0001
0100
0010
0200
0000
0000
0000
0000
,
0010
0000
0001
0000
0301
1000
0010
0100
,
0001
0010
0001
0100
0001
1000
0001
0000
,
0010
1000
0100
0000
0010
0001
0100
0000
,
1000
0100
1000
0020
0000
0000
0130
0000
,
0200
0000
0010
0000
0310
0001
0010
0100
,
1000
0010
1000
0100
1000
0001
1000
0000
,
0020
0000
1030
0001
0100
0001
1000
0000
,
0010
0000
0000
0010
1000
0000
0000
1000
0100
0000
0000
0100
0010
0000
0000
0010
,
0001
0000
0000
0001
1000
0000
0000
1000
0010
0000
1000
0000
0100
0000
0000
0000
,
0001
0010
0100
1000
0001
0100
0020
0000
,
0230
0000
0310
0001
,
0010
0000
0000
0010
0001
0000
0000
0001
0010
0000
0000
0010
0100
0000
0000
0100
,
1000
0000
0000
1000
0001
0000
0000
0001
0010
0000
0001
0000
0100
0000
0000
0000
,
1000
0100
0010
0001
1000
0010
0100
0010
,
0200
0000
0000
0000
0301
1000
0010
0001
,
1000
0001
0100
0020
0000
0000
0000
0200
,
0000
0000
0000
0330
;

//---------------dance-double - ----------------
#NOTES:
     dance-double:
     :
     Easy:
     2:
     0.165900,0.241938,0.118281,0.064517,0.000000,108.000000,97.000000,11.000000,6.000000,0.000000,0.000000,0.165900,0.241938,0.118281,0.064517,0.000000,108.000000,97.000000,11.000000,6.000000,0.000000,0.000000:
00000000
00000000
00000000
00000000
,
00000000
00000000
00000000
00000000
,
00000000
00000000
00000000
00000000
,
00000000
00000000
00000000
00000000
,
10010000
00000000
01000000
00000000
,
01000000
00000000
01000000
00000000
,
00010000
00000000
00001000
00000000
,
00010000
00001000
00010000
00000000
,
00022000
00000000
00000000
00033000
,
00000000
00000000
00000000
00000000
,
00000000
00000000
00000010
00001000
,
00000100
00000000
00000100
00000000
,
00001001
00000000
00000001
00000000
,
00000000
00000000
00000000
00000000
,
00000001
00000000
00000000
00000000
,
00000100
00000000
00001000
00000000
,
00011000
00000000
00010000
00000000
,
00000000
00000000
00000000
00000000
,
00010000
00000000
00100000
00000000
,
01000000
00000000
01000000
00000000
,
20010000
00000000
00010000
30000000
,
00000000
00000000
00000000
00000000
,
01000000
00010000
00001000
00000000
,
00010000
00000000
00001000
00000000
,
00022000
00000000
00000000
00033000
,
00000000
00000000
00000000
00000000
,
00001000
00000000
00000100
00000000
,
00000001
00000000
00001000
00001000
,
00000001
00000000
00000001
00000000
,
00000001
00000100
00001000
00010000
,
00011000
00000000
00010000
00000000
,
00010000
01000000
10000000
00000000
,
10000000
00000000
10000000
00000000
,
00010000
00010000
00010000
00000000
,
10010000
10000000
10000000
00000000
,
01000000
00000000
00010000
00000000
,
00001000
00001000
00000100
00000000
,
00000001
00000001
00000010
00000000
,
00000100
00000100
00000100
00000000
,
00001000
00000000
00000001
00000000
,
00000100
00000100
00001000
00000000
,
00001000
00001000
00010000
00000000
,
00011000
00001000
00010000
00000000
,
00010000
00000000
00100000
00000000
,
01000000
01000000
00010000
00010000
,
10000000
10000000
10000000
00000000
,
10010000
00000000
02000000
00000000
,
00000000
03000000
00000000
00000000
,
01000000
00000000
00010000
00000000
,
00001000
00001000
00000010
00000100
,
00001001
00000000
00000000
00000000
;

//---------------dance-double - ----------------
#NOTES:
     dance-double:
     :
     Medium:
     5:
     0.248851,0.300138,0.107528,0.118281,0.000000,162.000000,152.000000,10.000000,11.000000,0.000000,0.000000,0.248851,0.300138,0.107528,0.118281,0.000000,162.000000,152.000000,10.000000,11.000000,0.000000,0.000000:
00000000
00000000
00000000
00000000
,
00000000
00000000
00000000
00000000
,
00000000
00000000
00000000
00000000
,
00000000
00000000
00000000
00000000
,
00002001
00000000
00000100
00003000
,
00000100
00000000
00000100
00000000
,
00000010
00000000
00000001
00000000
,
00000100
00000000
00001000
00001000
,
00020000
00000000
00001000
00030000
,
00001000
00000000
00001000
00000000
,
00010000
00000000
01000000
00000000
,
10000000
00000000
10000000
00010000
,
10020000
00000000
00100000
00030000
,
00100000
00000000
00100000
00000000
,
01000000
00000000
10000000
00000000
,
00100000
00010000
00010000
00000000
,
00002000
00000000
00010000
00003000
,
00010000
00000000
00010000
00000000
,
00001000
00000000
00000010
00000000
,
00000001
00000001
00001000
00001000
,
00000210
00000001
00000001
00000302
,
00001000
00000000
00000100
00000003
,
00001000
00000000
00010000
00000000
,
00010000
01000000
10000000
10000000
,
01020000
00000000
10000000
00030000
,
01000000
00000000
00010000
00000000
,
00001000
00001000
00000100
00000100
,
00000002
00000003
00002000
00003000
,
00000001
00000001
00000001
00000001
,
00001000
00000000
00001000
00000000
00000001
00000100
00001000
00000000
,
00011000
00010000
01000000
10000000
,
00010000
00010000
10000000
10000000
,
00100000
01000000
00010000
10000000
,
10000000
01000000
00010000
00001000
,
00011000
00001000
00000100
00000001
,
00001000
00001000
00000001
00000001
,
00000010
00000100
00001000
00000001
,
00000001
00000000
00000100
00000000
00001000
00010000
00001000
00000000
,
00011000
00010000
01000000
10000000
,
00100000
00100000
01000000
01000000
,
00010000
10000000
01000000
00100000
,
00100000
01000000
10000000
00100000
,
01010000
00001000
00010000
00000100
,
00000010
00000010
00000100
00000100
,
00001000
00000001
00000100
00000010
,
00001000
00000000
00000001
00000000
00000100
00001000
00000100
00000000
,
00010100
00001000
01000000
00100000
,
10000000
10000000
00010000
00010000
,
00100000
01000000
10000000
00010000
,
10000000
00000000
01000000
00000000
00010000
00001000
00010000
00000000
,
00022000
00000000
00000000
00033000
;

//---------------dance-double - ----------------
#NOTES:
     dance-double:
     :
     Hard:
     7:
     0.348698,0.491134,0.086022,0.268820,0.193550,227.000000,219.000000,8.000000,25.000000,0.000000,0.000000,0.348698,0.491134,0.086022,0.268820,0.193550,227.000000,219.000000,8.000000,25.000000,0.000000,0.000000:
00000000
00000000
00000000
00000000
,
00000000
00000000
00000000
00000000
,
00000000
00000000
00000000
00000000
,
00000000
00000000
00000000
00000000
,
00002000
00010000
00000000
00010000
,
00000000
00010000
00000000
00013000
,
00010000
01000000
10000000
10000000
,
00100000
00000000
01000000
00000000
00010000
10000000
00010000
00000000
,
20000000
01000000
00000000
01000000
,
00000000
01000000
00000000
31000000
,
01000000
00010000
00002000
00000000
,
00013000
00000000
00000100
00000000
00000010
00000001
00000010
00000000
,
00002200
00000300
00000002
00003000
,
00000023
00000000
00000230
00000000
,
00002300
00000000
00003002
00000000
,
00000203
00000000
00002300
00003000
,
00011000
00000000
00010000
02000000
00000000
00000000
10000000
00000000
,
00000000
10000000
00000000
13000000
,
00020000
00000000
00230000
00000000
,
02300000
00000000
23000000
30000000
,
00110000
00000000
00001000
00020000
00000000
00001000
00000000
00000000
,
00001000
00000000
00001000
00030000
,
00001000
00000100
00000001
00000001
,
00000020
00000000
00000000
00000030
,
00001100
00000000
00000010
00000200
00000000
00000000
00000001
00000000
,
00000000
00000001
00000000
00000301
,
00000020
00000000
00002030
00000000
,
00020000
00000000
00033000
00000000
01001000
00000000
00100000
01000000
,
00100000
10000000
00010000
00100000
,
01000000
10000000
00100000
01000000
00010000
10000000
01000000
00000000
,
01010000
00000000
00000000
00100000
01000000
00000000
00000000
01000000
10000000
00000000
00000000
10000000
00100000
00000000
00000000
00100000
,
00010000
00000000
00000000
00010000
00001000
00000000
00000000
00001000
00000100
00000000
00000000
00000100
00000001
00000000
00000000
00000001
,
00000010
00000000
00000000
00000100
00001000
00000000
00000000
00000010
00000100
00000000
00000000
00000001
00001000
00000000
00000000
00000010
,
00000100
00000000
00000000
00000001
00000010
00000000
00000000
00000100
00001000
00000000
00000000
00000001
00000100
00000000
00000000
00000100
,
00001000
00000000
00010000
00000000
00001000
00000000
00010000
00000000
00000000
00000000
00000000
00100000
01000000
00000000
00000000
00010000
,
10000000
00000000
00000000
01000000
00100000
00000000
00000000
00010000
01000000
00000000
00000000
00100000
10000000
00000000
00010000
00000000
,
10000000
01000000
00100000
01000000
00000000
00100000
00000000
10010000
,
00000000
00100000
01000000
10000000
00100000
00000000
10000000
00000000
,
01000000
00000000
00010000
00000000
00001000
00000000
00010000
00000000
00000000
00000000
00000000
00000100
00000010
00000000
00000000
00000001
,
00000100
00000000
00000000
00000010
00001000
00000000
00000000
00000100
00000010
00000000
00000000
00000001
00000100
00000000
00001000
00000000
,
00010000
00001000
00010000
01000000
00000000
10000000
00000000
10000000
,
00010000
00100000
01000000
00100000
01000000
00000000
10000000
00000000
,
00100000
00000000
00010000
00000000
00001000
00000000
00010000
00000000
00000000
00000000
00000000
00000100
00000010
00000000
00000000
00000001
,
00001000
00000000
00000000
00000010
00000100
00000000
00000000
00000001
00000010
00000000
00000000
00000100
00001000
00000000
00000001
00000000
,
00001000
00000010
00000100
00000010
00000000
00000100
00000000
00001001
,
00000000
00000100
00000010
00000001
00000100
00000000
00000001
00000000
,
00000100
00000000
00001000
00000000
00010000
00000000
00001000
00000000
00000000
00000000
00000000
00100000
01000000
00000000
00000000
10000000
,
00100000
00000000
00000000
01000000
00010000
00000000
00000000
00100000
01000000
00000000
00000000
10000000
00100000
00000000
00010000
00000000
,
00001000
00010000
00001000
00000100
00000000
00000001
00000000
00000001
,
00001000
00000100
00000010
00000100
00000010
00000000
00000001
00002000
,
00000200
00000000
00000000
00003300
;
