#TITLE:Sweet Dreams (Are Made of This);
#SUBTITLE:;
#ARTIST:Eurythmics;
#TITLETRANSLIT:;
#SUBTITLETRANSLIT:;
#ARTISTTRANSLIT:;
#GENRE:Sweet Dreams (Are Made of This);
#CREDIT:;
#BANNER:Sweet Dreams (Are Made of This)-bn.jpg;
#BACKGROUND:Sweet Dreams (Are Made of This)-bg.jpg;
#LYRICSPATH:;
#CDTITLE:;
#MUSIC:Sweet Dreams (Are Made of This).mp3;
#OFFSET:-0.022006;
#SAMPLESTART:7.702901;
#SAMPLELENGTH:30.675827;
#LASTBEATHINT:243.000000;
#SELECTABLE:YES;
#BPMS:0.000000=125.179993
;
#STOPS:133.250000=0.479000
;
#BGCHANGES:;
#KEYSOUNDS:;
#ATTACKS:;

//---------------dance-single - ----------------
#NOTES:
     dance-single:
     :
     Challenge:
     9:
     0.503917,0.531413,0.230049,0.030673,0.134195,460.000000,430.000000,30.000000,4.000000,0.000000,0.000000,0.503917,0.531413,0.230049,0.030673,0.134195,460.000000,430.000000,30.000000,4.000000,0.000000,0.000000:
0000
0000
0000
0000
,
0000
0000
0000
0000
,
0000
0000
0000
0000
,
0000
0000
0000
0000
,
0200
0000
1300
1000
0001
0010
1000
0010
,
0001
0001
1000
0010
0100
0100
0001
1000
,
0100
0100
1000
1000
0100
0010
0100
1000
,
0001
0001
1000
0010
0100
0100
0001
0010
,
0200
0000
1300
1000
0001
0100
0001
1000
,
0001
0001
0010
0100
1000
1000
0100
0010
,
0001
0001
1000
1000
0010
0001
0010
1000
,
0001
0001
1000
0010
0100
0100
0001
1000
,
1100
0100
1000
1000
0001
0010
0001
1000
,
0010
0010
0001
1000
0100
0100
0001
1000
,
0100
0010
0001
0001
1000
0010
1000
0001
,
0100
0100
1000
0001
0010
0010
1000
0001
,
0020
0000
0031
0001
1000
0010
0001
0010
,
1000
1000
0001
0100
1000
1000
0001
0010
,
1000
1000
0100
0100
0001
1000
0010
0001
,
1000
1000
0100
0010
0001
0001
0010
0100
,
1000
0000
1010
0001
0000
0001
1010
0001
,
0100
0000
0101
1000
0000
1000
0101
1000
,
0100
0000
1100
0001
0100
0001
1100
0001
,
0010
0000
0011
1000
0000
1000
0011
1000
,
0100
0000
0110
0100
0000
0010
1001
0010
,
0100
0000
0110
0010
0100
0100
0010
0000
,
1010
0000
0001
0000
1000
0001
0000
0001
0100
0000
0000
0100
0010
0000
0000
0010
,
1000
0000
0001
0000
0010
0100
0000
0100
1000
0000
0000
1000
0001
0000
0000
0001
,
0100
0000
0010
0000
1000
0010
0000
1000
0100
0000
0000
1000
0001
0000
0000
1000
,
0010
0000
0100
0000
0001
0010
0000
0001
1000
0000
0000
0001
0100
0000
0000
0001
,
0010
0000
0100
0000
1000
0010
0000
0010
0100
0000
0001
0000
1000
0100
0000
0100
,
0010
0000
0001
0000
1000
0010
0000
0010
1000
0000
0001
0000
0100
0001
0000
0001
,
1000
0000
0100
0000
0010
0100
0000
0100
1000
0000
0001
0000
0010
0100
0000
0100
,
0010
0000
0001
0000
1000
0001
1000
0001
0100
0010
1000
0001
1000
0000
0000
0000
,
1100
0100
1000
0010
1000
0001
0100
0100
,
0001
1000
0100
0100
0001
1000
0010
0100
,
0001
0010
1000
0010
0100
0010
0001
0001
,
1000
0100
0010
0010
0100
1000
0001
0001
,
0100
0100
1000
0100
0001
0100
0010
0010
,
1000
0100
0010
0010
0001
1000
0100
0100
,
0010
0010
0001
1000
0001
0010
0100
0100
,
1000
0000
0010
0000
1000
0000
1000
0001
0100
0010
1000
0001
1000
0000
1000
0000
,
1100
1000
0001
1000
1100
1000
0001
0010
,
0110
0010
0001
1000
1001
0001
0100
0010
,
1010
0010
0100
0001
0101
1000
0100
1000
,
0101
1000
0100
1000
0101
1000
0010
1000
,
1100
0100
0010
0001
1001
0001
0100
0010
,
0110
0010
1000
0100
0011
0001
1000
0010
,
1010
1000
0001
1000
1100
1000
0001
0100
,
0101
0100
0010
1000
0001
2000
0000
3000
,
1100
0100
1000
0010
1000
0001
0100
0100
,
0001
0010
0100
0100
1000
0001
0100
0010
,
1000
1000
0001
1000
0100
0010
0001
0001
,
0010
0100
1000
1000
0010
0001
0010
0010
,
0100
0100
0001
1000
0100
0010
0100
0100
,
1000
0010
0001
0001
1000
0100
0001
1000
,
0100
1000
0001
0100
0001
1000
0001
0010
,
0100
1000
0010
0100
0001
0000
0100
0000
;

//---------------dance-single - ----------------
#NOTES:
     dance-single:
     :
     Hard:
     8:
     0.403133,0.398560,0.161034,0.092020,0.088185,368.000000,347.000000,21.000000,12.000000,0.000000,0.000000,0.403133,0.398560,0.161034,0.092020,0.088185,368.000000,347.000000,21.000000,12.000000,0.000000,0.000000:
0000
0000
0000
0000
,
0000
0000
0000
0000
,
0000
0000
0000
0000
,
0000
0000
0000
0000
,
0100
0000
2010
0000
3001
0000
1000
0020
,
0000
0100
0000
1030
0100
0010
0100
0000
,
0011
0001
0100
0020
0000
0130
0001
0000
,
1000
0010
1000
0000
1000
0100
0001
0000
,
1000
0100
0001
0100
0000
0100
0010
0000
,
0001
0100
1000
0100
0000
0100
0010
0000
,
1010
0000
1000
0001
0000
0001
0010
0000
,
0100
1000
0001
0100
0000
0010
1000
0000
,
1010
1000
0001
0000
1001
0001
0100
0000
,
0001
0100
0001
0001
1000
0100
1000
0000
,
0011
0001
1000
0000
1010
1000
0100
0010
,
0001
0100
0010
0000
1000
0100
0001
0000
,
1100
0100
1000
0000
0010
1000
0100
0010
,
0100
1000
0100
0000
0010
0001
0100
0000
,
0101
0100
0010
0000
1000
0001
0100
0010
,
0100
0001
0100
0000
0010
1000
0100
0000
,
1000
0000
1000
0100
0000
0001
0100
1000
,
0100
0000
0001
0100
0000
1000
0010
0001
,
0010
0000
1000
0100
0001
0100
1000
0000
,
0010
0000
1000
0100
0000
0001
0100
1000
,
0100
0000
0010
0100
0000
0010
0001
0010
,
0100
0000
1000
0010
0100
0010
0100
0000
,
0110
0000
0000
0100
0001
0000
0000
0001
1000
0000
0000
1000
0001
0000
0000
0000
,
1001
0000
0000
0001
1000
0000
0000
1000
0100
0000
0000
0100
1000
0000
0000
0000
,
1100
0000
0000
1000
0100
0000
0000
0100
0010
0000
0000
0010
0100
0000
0000
0000
,
0110
0000
0000
0010
0001
0000
0000
0001
1000
0000
0000
1000
0001
0000
0000
0000
,
0101
0000
0000
0100
0010
0000
0000
0010
1000
0000
0000
1000
0100
0000
0000
0100
,
0010
0000
0000
0010
0001
0000
0000
0001
1000
0000
0000
1000
0010
0000
0000
0010
,
0100
0000
0000
0100
0001
0000
0000
0001
1000
0000
0000
1000
0100
0000
0000
0000
,
0110
0000
2002
0000
0000
3003
0000
0000
0000
0000
0000
0000
0100
0000
0001
0000
,
0100
0010
0100
1000
0100
0010
0100
0100
,
0001
0010
0100
0100
1000
0010
1000
0100
,
1000
0001
1000
0010
1000
0001
0100
0100
,
0001
1000
0100
0100
1000
0001
0010
0001
,
0010
0100
0010
1000
0010
0100
0010
0010
,
0001
1000
0010
0010
1000
0001
0100
0001
,
0010
0100
0010
1000
0010
0001
1000
0010
,
0100
0001
1000
0100
0001
0100
1000
0000
,
2010
0000
3002
0000
1003
0000
0010
1000
,
0001
0010
0000
0100
1000
0000
0011
0001
,
0100
0020
0000
0130
0001
0000
1000
0010
,
1000
0000
1000
0100
0001
0000
1000
0100
,
0001
0100
0000
0100
0010
0100
1000
0100
,
0001
0100
0000
0100
0010
0000
0011
0000
,
0001
1000
0000
1000
0010
0000
0100
0001
,
1000
0100
0000
0010
0100
0010
0001
0000
,
0012
0000
2003
0000
3001
0000
0010
0001
,
1000
0010
0000
0100
0001
0100
0010
1000
,
0100
0002
0000
0103
1000
0100
0010
0001
,
0100
0000
0002
1000
1003
0000
0001
0100
,
1000
0100
0000
0100
0010
0100
0001
0100
,
1000
0100
0000
0100
0010
0000
1010
0000
,
1000
0001
0000
0001
0010
0000
0100
1000
,
0001
0100
0000
0010
0100
0010
1000
0000
;

//---------------dance-single - ----------------
#NOTES:
     dance-single:
     :
     Medium:
     6:
     0.280441,0.287849,0.038341,0.161034,0.000000,256.000000,251.000000,5.000000,21.000000,0.000000,0.000000,0.280441,0.287849,0.038341,0.161034,0.000000,256.000000,251.000000,5.000000,21.000000,0.000000,0.000000:
0000
0000
0000
0000
,
0000
0000
0000
0000
,
0000
0000
0000
0000
,
0000
0000
0000
0000
,
0010
0000
1100
0000
0101
0000
0100
0001
,
0000
1000
0000
0001
0000
0200
0000
0000
,
0310
1000
0000
0002
0000
0000
1003
0000
,
0010
0200
0000
0000
0301
0000
0000
1000
,
0100
1000
0001
2000
0000
0000
3010
0100
,
0010
1000
0000
0002
0000
0000
0003
0000
,
0010
0000
0001
1000
0000
0002
0000
0003
,
0100
0001
1000
0100
0000
0020
0000
0030
,
0001
0010
0100
0000
0010
0000
0100
1000
,
0000
0200
0000
0000
0300
0000
0000
0000
,
1000
0001
1000
0000
0010
1000
0010
1000
,
0000
0002
0000
0000
0103
0000
0000
0000
,
0010
0100
0010
0000
1000
0001
1000
0001
,
0000
0020
0000
0000
0030
0000
0000
0000
,
0100
1000
0100
0000
0010
0000
0001
1000
,
0000
0002
0000
0000
0103
0000
0000
0000
,
0020
0000
2030
0000
,
3002
0000
0000
0000
0013
0001
0010
0000
,
0200
0000
1000
2300
,
0002
0000
3003
0000
0100
0001
0100
0000
,
0020
0000
2030
0000
,
3200
0000
0000
0000
0310
0100
0010
0000
,
0021
0001
0001
0031
,
1000
0001
0100
0000
0100
0000
0100
0000
,
1000
0001
1000
0000
1000
0000
1000
0000
,
1000
0001
0100
0000
0100
0000
0100
0000
,
1000
0010
1000
0000
1000
0000
1000
0000
,
0010
0100
0001
0000
0100
0000
0100
0000
,
0001
1000
0100
0000
0001
0001
0001
0000
,
1000
0001
1000
0000
0000
0000
1000
0100
,
1000
0000
0010
0000
0100
0000
0010
1000
,
0010
0000
1000
0001
0010
0000
0100
1000
,
0100
0000
0010
0000
0001
0000
1000
0001
,
0100
0000
0010
0100
0001
0000
1000
0010
,
1000
0000
0001
0000
1000
0000
0100
1000
,
0001
0000
0100
0010
0100
0000
0001
0100
,
1000
0000
0100
0000
0010
0000
1000
0010
,
0001
0000
0010
0100
0010
0000
0001
1000
,
0001
0000
1000
0000
0100
0000
0001
0100
,
0001
0000
1000
0000
0001
0000
0100
1000
,
0100
0000
0010
0000
0100
0000
1000
0010
,
1000
0000
0001
0010
0001
0000
1000
0001
,
0100
0000
0010
0000
0110
0000
0001
1000
,
0100
0010
1001
1000
,
0001
0000
1000
0010
1000
0000
0001
0100
,
0001
0100
0000
0010
1000
0000
0001
0000
,
0010
0000
0100
0000
1000
0000
0001
1000
,
0001
0000
0100
0001
0100
0000
0010
1000
,
0010
1000
0000
0000
0100
0000
0010
0100
,
0010
0000
0001
0010
0001
0000
1000
0001
,
0100
0001
0000
0000
1000
0100
1000
0001
,
0000
0100
0000
0010
0000
0000
1000
0000
,
0010
0100
0000
0001
0000
0000
1000
0010
,
0100
0001
0000
1000
0001
0000
0010
0000
;

//---------------dance-single - ----------------
#NOTES:
     dance-single:
     :
     Easy:
     2:
     0.141316,0.154996,0.007668,0.245386,0.000000,129.000000,128.000000,1.000000,32.000000,0.000000,0.000000,0.141316,0.154996,0.007668,0.245386,0.000000,129.000000,128.000000,1.000000,32.000000,0.000000,0.000000:
// measure 0
0000
0000
0000
0000
,  // measure 1
0000
0000
0000
0000
,  // measure 2
0000
0000
0000
0000
,  // measure 3
0000
0000
0000
0000
,  // measure 4
0000
0010
0010
0010
,  // measure 5
0100
0000
0100
0000
,  // measure 6
0002
0000
1003
0000
,  // measure 7
0100
0100
0010
0000
,  // measure 8
0002
0000
0103
0000
,  // measure 9
0010
0010
1000
0000
,  // measure 10
0002
0000
0103
0000
,  // measure 11
2000
0000
3100
0000
,  // measure 12
1000
1000
0001
0001
,  // measure 13
0200
0000
0300
0000
,  // measure 14
0001
0001
1000
1000
,  // measure 15
0200
0000
0310
0000
,  // measure 16
0000
0001
1000
1000
,  // measure 17
0200
0000
0300
0000
,  // measure 18
1000
1000
0001
0001
,  // measure 19
0200
0000
0310
0000
,  // measure 20
2000
3000
2000
3000
,  // measure 21
2000
3000
0200
0300
,  // measure 22
0002
0003
0002
0003
,  // measure 23
0020
0030
0020
0030
,  // measure 24
0200
0300
0200
0300
,  // measure 25
2000
3000
0002
0003
,  // measure 26
2002
0000
3003
0000
,  // measure 27
0010
0000
1000
0000
,  // measure 28
0001
0000
1000
0000
,  // measure 29
0100
0000
0001
0000
,  // measure 30
0100
0100
0000
0100
,  // measure 31
1000
1000
0000
1000
,  // measure 32
0001
0001
0000
0001
,  // measure 33
0100
0000
0000
0100
,  // measure 34
0100
0000
0100
0000
,  // measure 35
0001
0000
1000
0000
,  // measure 36
0100
0000
0010
0000
,  // measure 37
0100
0000
0010
0001
,  // measure 38
0001
0000
1000
0000
,  // measure 39
0001
0000
1000
0000
,  // measure 40
0010
0000
0100
0000
,  // measure 41
0001
0000
1000
1000
,  // measure 42
0100
0100
0000
0010
,  // measure 43
0000
0100
0000
0010
,  // measure 44
0010
0010
0000
0001
,  // measure 45
1000
0001
0000
0100
,  // measure 46
0100
0100
0000
0010
,  // measure 47
0010
0010
0000
1000
,  // measure 48
0000
0100
0000
0001
,  // measure 49
1000
0001
0000
0000
,  // measure 50
0010
0010
0000
0200
,  // measure 51
0300
0200
0300
1000
,  // measure 52
0001
1000
0000
0020
,  // measure 53
0030
0200
0300
0001
,  // measure 54
0001
0100
0000
0002
,  // measure 55
0003
2000
3000
0200
,  // measure 56
0300
0020
0030
0200
,  // measure 57
0300
0020
0030
0001
;

//---------------dance-single - ----------------
#NOTES:
     dance-single:
     :
     Beginner:
     1:
     0.093115,0.110232,0.015337,0.115024,0.000000,85.000000,83.000000,2.000000,15.000000,0.000000,0.000000,0.093115,0.110232,0.015337,0.115024,0.000000,85.000000,83.000000,2.000000,15.000000,0.000000,0.000000:
// measure 0
0000
0000
0000
0000
,  // measure 1
0000
0000
0000
0000
,  // measure 2
0000
0000
0000
0000
,  // measure 3
0000
0000
0000
0000
,  // measure 4
0010
0000
0000
0000
,  // measure 5
0100
0000
0100
0000
,  // measure 6
0001
0000
0000
0000
,  // measure 7
1000
0000
1000
0000
,  // measure 8
0100
0000
0000
0000
,  // measure 9
0010
0000
0010
0000
,  // measure 10
0001
0000
0000
0000
,  // measure 11
1000
0000
1000
0000
,  // measure 12
0010
0000
0000
0000
,  // measure 13
0100
0000
0000
0000
,  // measure 14
0001
0000
0000
0000
,  // measure 15
1000
0000
0000
0000
,  // measure 16
0100
0000
0000
0000
,  // measure 17
0100
0000
0000
0000
,  // measure 18
0010
0000
0000
0000
,  // measure 19
0010
0000
0000
0000
,  // measure 20
0002
0000
0003
0000
,  // measure 21
0000
0000
0100
0000
,  // measure 22
2000
0000
3000
0010
,  // measure 23
0020
0000
0030
0000
,  // measure 24
0200
0000
0300
0000
,  // measure 25
0002
0000
0003
0000
,  // measure 26
2002
3003
0000
0000
,  // measure 27
2002
3003
0000
0000
,  // measure 28
0020
0030
0000
0000
,  // measure 29
2000
3000
0000
0000
,  // measure 30
0020
0030
0000
0000
,  // measure 31
0002
0003
0000
0000
,  // measure 32
0200
0300
0000
0000
,  // measure 33
0020
0030
0000
0000
,  // measure 34
1000
0000
1000
0000
,  // measure 35
1000
0000
1000
0000
,  // measure 36
0001
0000
0001
0000
,  // measure 37
0001
0000
0001
0000
,  // measure 38
0100
0000
0100
0000
,  // measure 39
0100
0000
0100
0000
,  // measure 40
1000
0000
1000
0000
,  // measure 41
1000
0000
1000
0000
,  // measure 42
0001
0000
0001
0000
,  // measure 43
1000
0000
1000
0000
,  // measure 44
0010
0000
0010
0000
,  // measure 45
1000
0000
1000
0000
,  // measure 46
0001
0000
0001
0000
,  // measure 47
0100
0000
0100
0000
,  // measure 48
0001
0000
0001
0000
,  // measure 49
0010
0000
0010
0000
,  // measure 50
0100
0000
0100
0000
,  // measure 51
1000
0000
1000
0000
,  // measure 52
0001
0000
0001
0000
,  // measure 53
0100
0000
0100
0000
,  // measure 54
0010
0000
0010
0000
,  // measure 55
1000
0000
1000
0000
,  // measure 56
0001
0000
0001
0000
,  // measure 57
0010
0000
0010
0000
;
