#TITLE:Surface Pressure;
#SUBTITLE:;
#ARTIST:Jessica Darrow;
#TITLETRANSLIT:;
#SUBTITLETRANSLIT:;
#ARTISTTRANSLIT:;
#GENRE:Encanto;
#CREDIT:;
#BANNER:Surface Pressure-bn.jpg;
#BACKGROUND:Surface Pressure-bG.jpg;
#LYRICSPATH:;
#CDTITLE:;
#MUSIC:Surface Pressure.mp3;
#OFFSET:-0.022006;
#SAMPLESTART:69.347282;
#SAMPLELENGTH:21.333328;
#LASTBEATHINT:516.995972;
#SELECTABLE:YES;
#BPMS:0.000000=180.000000
,317.000000=90.000000
,349.000000=180.000000
;
#STOPS:15.000000=2.667000,
31.000000=2.667000,
188.000000=1.000000,
439.000000=1.667000,
440.000000=0.667000
;
#BGCHANGES:;
#KEYSOUNDS:;
#ATTACKS:;

//---------------dance-single - ----------------
#NOTES:
     dance-single:
     :
     Challenge:
     9:
     0.562730,0.634786,0.607215,0.233544,0.482658,759.000000,642.000000,117.000000,45.000000,0.000000,0.000000,0.562730,0.634786,0.607215,0.233544,0.482658,759.000000,642.000000,117.000000,45.000000,0.000000,0.000000:
0000
0000
0000
0000
,
0000
0000
0000
0000
,
0000
0000
0000
0000
,
0000
0000
0000
0000
,
0000
0000
0000
0000
,
0000
0000
0000
0000
,
0000
0000
0000
0000
,
0000
0000
0000
0000
,
1010
0000
0001
0100
0010
0000
1000
0000
,
0001
0000
0010
0100
1000
0000
0001
0000
,
1100
0000
0100
1000
0001
0000
0100
0010
,
0110
0000
0100
0001
1000
0000
0100
0000
,
0010
0000
0000
0001
0000
0000
0001
0000
1000
0000
0000
0010
0000
0000
0010
0000
,
0100
0000
0000
0001
0000
0000
1000
0000
0100
0000
0000
0010
0000
0000
0001
0000
,
1000
0000
0000
0010
0000
0000
0100
0000
0001
0000
0000
0010
0000
0000
0100
0000
,
1000
0000
0000
0010
0000
0000
0100
0000
0110
0000
0000
0101
0000
0000
1001
0000
,
0000
0010
1000
0001
0010
0000
0110
0000
,
0000
0001
0100
1000
0100
0000
0110
0000
,
0010
0000
1000
0000
0001
1000
0010
0100
,
0001
1000
0110
1001
,
0000
0001
1000
0100
0001
0000
0110
0000
,
1001
0000
0000
1000
0010
0001
0010
0000
,
0100
0001
1000
0000
1100
0000
0100
1000
,
0010
0001
0010
0000
0110
0000
1010
0000
,
0000
1000
0100
0010
0001
0000
0110
0000
,
0101
0000
0000
0001
1000
0100
0010
0001
,
1100
0000
0100
0010
0001
1000
0010
0100
,
0101
0000
1100
0000
0100
0010
0100
0000
,
0011
0000
1000
0010
0200
0000
0300
0001
,
1100
0000
1000
0001
0020
0000
0030
0100
,
1000
0000
0010
1000
0000
0010
1000
0000
0000
0110
0000
0000
,
0001
0000
0100
0001
0000
0100
0001
0000
0000
1000
0000
0000
,
1100
0000
0100
0010
0000
0100
0010
0000
0000
0011
0000
0000
,
0011
0000
0000
0011
0000
0010
0100
0000
1000
0000
0000
2001
,
0000
0000
0000
0020
0000
0000
3030
0000
0000
0200
0000
1300
,
0002
0020
0033
0110
,
1001
0000
1000
0010
0000
1000
0001
0000
0000
0011
0000
0000
,
1001
0000
0000
0101
0000
0100
0010
0000
1000
0000
0000
1100
,
0000
0000
0000
0000
0000
0000
0000
0000
0000
0010
0000
1000
,
0000
0000
0001
0000
0000
0100
0000
0000
0000
0000
0000
0000
,
0110
0000
0100
0010
0000
1000
0001
0000
0000
0010
0000
0001
,
1000
0000
0010
0000
0000
1010
0000
0000
0101
0000
0000
0000
,
1001
0000
0001
0010
0000
0100
1000
0000
1000
0010
0000
0000
,
1000
0000
0010
0000
0000
0110
0000
0000
1001
0000
0000
0010
,
0000
0000
0001
0000
0000
1000
0000
0000
0100
0000
0000
0010
,
0000
0000
0001
0000
0000
1000
0000
0000
0010
0100
0000
0002
,
0000
0000
0003
0001
0000
2000
0000
0000
0000
3000
0000
0000
,
0000
0000
0000
0110
0000
1000
0100
0000
0001
0010
0000
0000
,
1010
0000
0000
1100
0000
0000
0101
0000
0001
0010
0000
1000
,
0000
0000
0001
0100
0000
0000
0010
0000
0000
0101
0000
0000
,
0001
0000
1000
0100
0000
0000
0010
0000
0000
1100
0000
0000
,
0010
0000
0000
0110
0000
1000
0001
0000
0010
0100
0000
0000
,
1100
0000
0000
1100
0000
0000
1100
0000
0001
0100
0000
0010
,
1000
0000
0001
0010
0000
0000
0100
0000
0000
0110
0000
0000
,
2000
0000
0010
0000
0000
0001
0000
0000
3100
0000
0000
0010
,
0001
0000
0001
1000
0000
1000
0001
0000
0001
0100
0000
0100
,
0010
0000
0010
1000
0000
0100
0010
0000
0001
1000
0000
0010
,
0100
0000
0001
0010
0000
0010
0100
0000
0100
1000
0000
1000
,
0010
0000
0010
0100
0000
0001
0010
0000
0100
1000
0000
0010
,
0100
0000
0001
0010
0000
0100
1000
0000
0001
0100
0000
0010
,
1000
0000
0001
0010
0000
0100
1000
0000
0010
1000
0000
0100
,
0010
0000
0002
0000
0000
0000
0000
0000
0000
1003
0000
0000
,
0010
0220
0330
2002
,
3003
0000
0000
1000
0100
0001
0100
0000
,
0110
0000
0000
1000
1000
0010
0001
0000
,
0010
0000
0100
0000
0001
0000
0000
0000
1000
0000
0100
0000
0010
0000
0000
0001
,
0000
1000
0100
1000
0001
1000
0100
0000
,
0010
0000
0011
1000
0010
0100
0001
0000
,
1100
0000
0101
0000
0000
1000
0001
0000
,
0100
0010
1000
0000
0001
0010
1000
0000
,
0010
0100
0000
1000
0100
0000
1100
0000
,
1001
0000
0000
0010
0001
1000
0010
0000
,
0011
0000
1010
0000
0000
0001
0100
1000
,
0100
0001
1000
0000
0001
0010
0100
1000
,
0010
0100
0002
0000
2003
0000
3000
0000
,
0000
1000
0001
0100
1000
0010
2020
0000
,
3030
1000
0001
0000
0010
0000
0000
0011
,
0000
0000
0000
0010
0000
0000
0001
0000
0000
0000
0100
0000
0001
0000
0000
0000
1000
0000
0100
0000
0000
0000
0010
0000
,
0001
0000
1000
0010
0000
0100
0001
0000
1000
0100
0000
0000
,
0010
0000
0000
0000
0012
0000
0000
1000
0000
0000
0013
0000
0000
0000
0001
0000
,
0100
0000
0010
0000
2010
0000
0000
0001
0000
0000
3010
0000
0000
0000
1000
0000
,
0100
0000
0000
0000
0000
0000
0010
0000
0000
0000
0000
0000
0001
0000
0000
0000
1000
0000
0000
0000
0100
0000
0000
0000
0001
0000
0000
0000
0000
0000
0000
0000
0000
0000
0000
0000
0000
0000
0000
0000
0000
0000
0100
0000
0000
1000
0000
0000
,
0000
0010
0000
0100
0000
0001
0000
1000
0000
0100
0000
0010
0000
0001
0000
1000
,
0000
0010
0000
0100
0001
0000
0000
0102
0000
0000
0010
0000
0003
0000
1000
0000
,
0010
0000
0001
0000
0200
0000
0000
1000
0000
0000
0310
0000
0000
0000
1000
0000
,
0001
0000
0010
0000
0200
0000
0000
1000
0000
0000
0310
0000
0000
0000
0001
0000
,
1000
0000
0010
0000
0200
0000
0000
1000
0000
0000
0301
0000
0020
0000
0000
0100
,
0000
0031
2000
0100
3100
0000
0002
0100
,
0103
0000
1100
0000
0101
0000
1000
0001
,
0100
0000
0002
1000
1003
0000
2000
0100
,
3100
0000
1100
0000
0101
0000
2000
0001
,
3001
0000
0002
0100
0103
0000
2000
0001
,
3001
0000
1100
0000
0101
0000
1000
0001
,
0100
1100
0101
1100
,
0101
1010
0011
1010
,
0011
0000
0000
1001
0000
1000
0001
0000
1000
1100
0000
0000
,
1100
0000
0000
1100
0000
0000
1000
0000
0100
1000
0000
0100
,
0000
0000
0001
0000
0000
0000
0001
0000
0000
0001
0000
0000
,
0001
0000
0000
0000
1000
0000
0010
0000
0000
0000
0000
0000
0010
0000
0000
0000
0000
0000
0010
0000
0000
0001
0000
0000
,
0010
0000
0000
0001
0000
0000
0010
0000
0000
0000
1000
0000
0010
0000
0000
0000
1000
0000
0010
0000
0000
0000
0000
0000
,
0110
0000
0000
0011
0000
0000
1010
0000
1000
0010
0000
0100
,
0000
0000
1001
0000
0000
0000
1000
0000
0000
1000
0000
0000
,
0002
0000
0010
0000
0000
0100
0000
0000
1003
0000
0000
0000
,
0000
0000
0000
0101
0000
0100
0010
0000
1000
0100
0000
0000
,
1000
0000
0001
0100
0000
0010
0000
0000
1000
0000
0000
0001
,
0000
0000
0010
0000
0000
0100
1000
0000
1000
0001
0000
0001
,
0100
0000
0100
0010
0000
1000
0000
0000
0001
0000
0000
0010
,
0000
0000
0000
1100
0000
0010
1000
0000
0100
0000
0000
0100
,
0010
0000
0001
0000
0000
0000
1000
0000
0000
0001
0000
0100
,
0000
0220
0330
2002
,
0000
0000
0000
3003
0000
0000
0000
0000
0000
0000
0000
0000
0000
0000
0000
0000
0000
0000
0000
0000
0000
0000
0000
0000
0000
0000
0000
0000
0000
0000
0000
0000
0000
0000
0000
0000
0000
0000
0000
0000
0000
0000
0000
0000
0000
0000
0000
0000
0000
0000
0000
0000
0000
0000
0000
0000
0000
0000
0000
0000
0000
0000
0000
0000
0000
0000
0000
0000
0000
0000
0000
0000
0000
0000
0000
0000
0000
0000
0000
0000
0000
0000
0000
0000
0000
0000
0000
0000
0000
0000
0000
0000
0000
0000
0000
0000
1001
0000
0000
0000
0000
0000
0000
0000
0000
0000
0000
0000
0000
0000
0000
0000
0000
0000
0000
0000
0000
0000
0000
0000
0000
0000
0000
0000
0000
0000
0000
0000
1000
0000
0000
0000
0000
0000
0000
0000
0000
0000
0000
0000
0000
0000
0000
0000
0010
0000
0000
0000
0000
0000
0000
0000
0000
0000
0000
0000
0000
0000
0000
0000
0000
0000
0000
0000
0000
0000
0000
0000
0000
0000
0000
0000
0000
0000
0000
0000
1000
0000
0000
0000
0000
0000
0000
0000
0000
0000
0000
0000
0000
0000
0000
0000
,
0010
0000
0000
0011
0000
0000
1010
0000
0000
0011
0000
0001
,
0010
0000
1000
0000
0000
0001
0100
0000
0000
0010
0000
0000
,
1000
0000
0000
1100
0000
0010
0100
0000
0000
0001
0000
0000
,
1001
0000
0000
0010
0000
0000
0011
0000
1000
0010
0000
0100
,
1000
0000
0000
1100
0000
0000
0110
0000
0000
1010
0000
0001
,
0010
0000
0100
1000
0000
0220
0000
0000
0000
0330
0000
0000
,
1001
0000
0000
0100
0000
0020
0000
0000
0001
0000
0000
0100
,
0000
0000
0000
1030
0000
0000
1100
0000
0001
1000
0000
0001
,
0100
0000
0000
0010
0000
1000
0001
0000
0010
0000
0000
0100
,
0000
0000
1000
0000
0000
1001
0000
0000
0001
0100
0000
0000
,
0001
0000
1000
0100
0000
0010
0001
0000
1000
0010
0000
0100
,
0000
0000
0001
0000
0000
1100
0000
0000
0010
0000
0000
0100
,
0000
0000
0010
1000
0000
0001
0000
0000
0010
0000
0000
0100
,
0000
0000
1000
0001
0000
0100
0000
0000
0000
0000
0000
0000
,
0201
1300
2100
3010
,
1020
0001
1030
1100
,
1001
0000
0000
0100
0000
0000
0110
0000
0101
0000
0000
1001
,
0000
1010
1002
0103
;

//---------------dance-single - ----------------
#NOTES:
     dance-single:
     :
     Hard:
     7:
     0.458933,0.601376,0.560506,0.373671,0.051899,619.000000,511.000000,108.000000,72.000000,0.000000,0.000000,0.458933,0.601376,0.560506,0.373671,0.051899,619.000000,511.000000,108.000000,72.000000,0.000000,0.000000:
0000
0000
0000
0000
,
0000
0000
0000
0000
,
0000
0000
0000
0000
,
0000
0000
0000
0000
,
0000
0000
0000
0000
,
0000
0000
0000
0000
,
0000
0000
0000
0000
,
0000
0000
0000
0000
,
1001
0000
0010
1000
0100
0000
1000
0000
,
0001
0000
0010
0100
1000
0000
0001
0000
,
0100
0000
0010
1000
0100
0000
0010
0001
,
1000
0000
0010
0100
0001
0000
1000
0000
,
0100
0110
0001
1001
,
0010
0000
1000
0001
0100
0000
0101
0000
,
0001
0000
0010
0100
1000
0000
0001
1000
,
0010
0000
0000
0100
0000
0000
0001
0000
1000
0000
0000
0010
0000
0000
0110
0000
,
0000
0010
1000
0001
0010
0000
0100
0000
,
1000
0001
0100
0001
1000
0000
1001
0000
,
0010
0000
0100
0000
0001
0100
0001
0100
,
0010
1000
0100
1001
,
0000
0001
0010
0100
1000
0000
0001
0000
,
0100
0000
0010
1000
0100
0010
0001
0000
,
1000
0000
0001
0000
0100
0000
0010
1000
,
0001
1000
0010
0000
0100
0000
0001
0000
,
0000
1000
0100
0010
0001
0000
1000
0000
,
0010
0000
0100
0001
0100
0001
1000
0010
,
0100
0000
0010
0000
1000
0001
0100
0010
,
1000
0001
0100
0010
,
1001
0000
1000
0010
0100
0000
0001
0000
,
1000
0000
0100
0010
0002
0000
1003
0000
,
0010
0100
0110
1001
,
0001
1000
0101
1100
,
1002
0100
1000
0100
,
1000
0100
1000
0100
,
2003
0010
0001
0010
,
0001
0010
0001
0010
,
3002
0010
1000
0010
,
1000
0010
1000
0010
,
2003
0100
0001
0100
,
0001
0100
0001
0100
,
3020
0100
1000
0100
,
1000
0100
1000
0100
,
0230
0001
0010
0001
,
0010
0001
0010
0001
,
0320
1000
0230
0001
,
0320
1000
0230
0302
,
2003
0010
3002
0100
,
1003
1100
1001
0101
,
1001
1100
1001
0101
,
1001
0020
0130
0001
,
0010
0200
1300
0010
,
0100
1010
0110
0101
,
0011
0110
1100
1010
,
0110
0102
1003
0001
,
0010
0200
1300
0010
,
0100
1010
0100
1001
,
0100
0011
0100
1001
,
0100
1100
0010
1001
,
0010
0101
0010
1001
,
0010
0002
1000
0010
,
1003
2000
0001
0010
,
3001
2000
3000
0002
,
1003
0220
0330
2002
,
3003
0000
0000
1000
0100
0010
0100
0000
,
1000
0000
0001
0100
0010
1000
0001
0000
,
0010
0000
0100
0000
1000
0001
0100
0000
,
0001
0000
1000
0100
1000
0001
0100
0000
,
0010
0000
1000
0001
0010
0100
0010
0000
,
0001
0000
1000
0000
0010
1000
0010
0000
,
0100
0001
1000
0000
0001
0010
0100
0000
,
1000
0001
0000
1000
0001
0000
0100
0000
,
0010
0000
0000
1000
0001
0010
0100
0000
,
0010
0000
0001
0000
1000
0001
0100
0001
,
1000
0001
1000
0000
0001
0010
0100
1000
,
0100
1000
0200
0000
0320
0000
0030
0000
,
0000
1000
0010
0100
0010
1000
0020
0000
,
0030
0100
0002
0000
0013
0000
0000
0110
,
0000
1000
0001
0000
1000
0000
0011
0000
,
1010
0100
0010
1100
,
0101
0000
0022
0000
0000
0033
0000
0001
,
0100
0010
2020
0000
0000
3030
0000
1000
,
0100
0000
0010
0000
2002
0000
0000
0000
0000
0000
3003
0000
0000
0000
0100
1000
,
0000
0010
0000
0100
0000
0001
0000
1000
0000
0100
0000
0010
0000
0001
0000
1000
,
0000
0010
0000
0100
0000
0000
0000
0202
0000
0000
0303
0000
0000
0000
1000
0000
,
0010
0000
0100
0000
0002
0000
0000
1000
0000
0000
0003
0000
0000
0000
1000
0000
,
0001
0000
0010
0000
0200
0000
0000
1000
0000
0000
0300
0000
0000
0000
1000
0000
,
0010
0000
1000
0000
0002
0000
0000
1000
0000
0000
0003
0000
0000
0000
0000
0100
,
0001
1000
0100
0000
0010
0000
0001
0000
,
1000
0000
0001
0100
0001
0000
1000
0100
,
1000
0000
0001
0000
0010
0000
1000
0100
,
1000
0000
0001
0010
0001
0000
0100
1000
,
0100
0000
0010
0000
0001
0000
1000
0010
,
1000
0000
0100
0001
0100
0000
1000
0001
,
1000
1100
0101
1100
,
0101
1010
0011
1010
,
0011
1001
0110
2002
,
0000
0000
0000
3003
,
0000
0012
0000
0103
,
0000
2010
0000
3100
,
0000
0110
1001
0220
,
0000
0000
0000
0330
,
0000
2100
0000
3010
,
0000
0102
0000
0013
,
0000
0100
0000
1001
,
1001
0000
0000
0000
,
0000
0010
0100
0110
,
0110
0000
0000
0000
,
0000
0001
1000
1001
,
1001
0000
0000
0100
1000
0000
0001
0000
,
0000
1000
0020
0000
0030
0000
2002
0000
,
0000
3003
0000
0000
0000
0000
0000
0000
0000
0000
0000
0000
0000
0000
0000
0000
0000
0000
0000
0000
0000
0000
0000
0000
0000
0000
0000
0000
0000
0000
0000
0000
0110
0000
0000
0000
0000
0000
0000
0000
0000
0000
0000
0000
0000
0000
0000
0000
1001
0000
0000
0000
0000
0000
0000
0000
0000
0000
0000
0000
0000
0000
0000
0000
,
1010
1001
0110
1001
,
0011
1001
0200
0301
,
0010
1000
0002
1003
,
0100
0010
1010
0101
,
0011
1100
0110
1001
,
1010
0101
2000
3010
,
0002
1003
0100
0010
,
1000
0100
2100
3010
,
0102
0013
2001
3010
,
0210
1300
1200
0301
,
0102
0013
1002
0013
,
0120
1030
1100
0110
,
0001
1000
1001
0110
,
0001
0100
2000
3000
,
2002
3003
0220
0330
,
2002
3003
0100
0010
,
2010
0000
0000
3001
0000
0000
0100
0000
0010
0000
0000
1001
,
0000
0010
0100
1001
;

//---------------dance-single - ----------------
#NOTES:
     dance-single:
     :
     Medium:
     5:
     0.344756,0.434327,0.176456,0.114177,0.000000,465.000000,431.000000,34.000000,22.000000,0.000000,0.000000,0.344756,0.434327,0.176456,0.114177,0.000000,465.000000,431.000000,34.000000,22.000000,0.000000,0.000000:
0000
0000
0000
0000
,
0000
0000
0000
0000
,
0000
0000
0000
0000
,
0000
0000
0000
0000
,
0000
0000
0000
0000
,
0000
0000
0000
0000
,
0000
0000
0000
0000
,
0000
0000
0000
0000
,
0001
0000
1000
0001
1000
0000
0010
0000
,
0100
0000
0001
0100
0001
0000
1000
0000
,
0100
0000
0010
0100
0010
0000
0001
0000
,
1000
0001
0100
0010
,
2000
3001
0010
0000
,
0002
1003
0100
0000
,
1000
0001
0100
0010
,
1000
0001
0010
0100
,
0110
0000
1000
0001
1000
0000
0010
0000
,
0100
0000
0001
0100
0001
0000
0010
0000
,
0100
1000
0001
1000
,
0010
0100
0110
0110
,
0000
0000
0001
0100
0001
0000
1000
0000
,
0010
0000
0100
0000
0001
1000
0001
0000
,
0010
0100
1000
0001
,
0100
0010
0110
0110
,
0000
0000
1000
0001
1000
0000
0010
0000
,
0100
0000
0001
0010
,
0100
0000
0100
0000
1000
0001
1000
0000
,
0010
0010
0100
0000
,
0001
1000
0100
0000
,
0100
1000
0010
0000
,
1000
0010
0001
0001
,
0010
0001
0100
0010
,
1001
0100
0000
0001
,
0000
0010
0000
0100
,
1000
0001
0000
0001
,
1000
0010
0000
0010
,
0100
0001
0000
1000
,
0000
0100
0000
0010
,
0001
1000
0000
0010
,
1000
0100
0000
1000
,
0001
0010
0100
1000
,
0000
0000
0000
0000
,
1000
0010
0100
0001
,
0000
1000
0001
0000
,
0010
0100
0010
0000
,
0001
0100
0010
0000
,
1000
0000
0001
0000
,
0100
1001
0100
0001
,
0001
1000
1000
0001
,
0001
0010
0100
0010
,
0001
1000
0100
0001
,
0100
1000
1000
0001
,
0001
0100
0010
0100
,
0001
1000
1000
0001
,
0001
0010
0100
0010
,
0100
0110
0110
1001
,
0100
0100
0100
0100
,
0100
0110
0110
1001
,
0100
0010
0100
0010
,
0100
0001
0100
1000
,
0100
0001
0100
1000
,
0100
0002
0000
2003
,
0000
3200
0000
0320
,
0000
0000
0031
0000
1000
0001
1000
0000
,
0010
0100
0001
0100
,
0010
1000
0100
0010
,
0001
0000
1000
0100
1000
0000
0001
0000
,
0010
0000
0100
0010
0100
0000
1000
0000
,
0001
0100
0010
0100
,
0001
1000
0010
1000
,
0100
0010
0100
1000
,
0001
1000
0100
0010
,
0010
0000
0001
0000
0000
0000
1000
0001
,
1000
0000
0010
0000
0010
0000
0100
0010
,
0100
0001
1000
0001
,
0000
0000
0010
0100
0010
0100
0010
0000
,
0000
0100
1000
0001
,
0000
1000
0010
0001
,
0010
1000
0100
0010
,
0001
0000
2000
0000
0000
3000
0000
0001
,
1000
0001
0200
0000
0000
0300
0000
0010
,
0100
0010
0200
0000
0000
0300
0000
0001
,
0010
0200
1300
0020
,
0130
0000
0002
0000
0000
0003
0000
1000
,
0001
1000
0200
0000
0000
0300
0000
0010
,
0100
0010
0002
0000
0000
0003
0000
1000
,
0010
1000
0020
0000
0000
0030
0200
0000
,
0000
0300
0001
0000
1000
0000
0001
0000
,
1000
0000
0010
1000
0010
0000
1000
0010
,
1000
0001
1000
0001
,
1000
0000
0001
0010
0001
0000
0010
0001
,
0010
0001
1000
0001
,
1000
0000
0001
0100
0001
0000
0100
0001
,
0100
0001
1000
0100
,
0010
0001
1000
0010
,
0100
0101
0100
1001
,
0000
0000
0000
0000
,
0000
0010
0000
1000
,
0000
0100
0000
0010
,
0000
0011
0010
1001
,
0000
0000
0000
0000
,
0000
0001
0000
1000
,
0000
0010
0000
0100
,
0000
1010
0010
0110
,
0000
1000
0000
0000
,
0000
0001
1000
1001
,
0000
0100
0000
0000
,
0000
1100
0100
0110
,
0000
1001
0000
0010
,
0000
0100
0000
2002
,
3003
0000
1001
0100
,
0010
1000
0100
0010
,
0001
1000
1001
0100
,
0010
0001
1000
0100
,
0010
0100
1000
0010
,
0100
0001
1000
0001
,
0010
0100
1000
1000
,
0001
0001
0100
0010
,
1000
0001
1001
0110
,
1001
0100
0001
0001
,
1000
1000
0110
0110
,
1001
0100
0010
0100
,
0010
0100
0001
0010
,
1000
0100
0001
0010
,
1000
0100
0020
0000
,
0032
0000
2003
0000
,
3200
0000
1300
0010
,
0100
0001
0010
0100
,
0010
0100
0110
1001
;

//---------------dance-single - ----------------
#NOTES:
     dance-single:
     :
     Easy:
     3:
     0.220940,0.300688,0.041519,0.124557,0.000000,298.000000,290.000000,8.000000,24.000000,0.000000,0.000000,0.220940,0.300688,0.041519,0.124557,0.000000,298.000000,290.000000,8.000000,24.000000,0.000000,0.000000:
// measure 0
0000
0000
0000
0000
,  // measure 1
0000
0000
0000
0000
,  // measure 2
0000
0000
0000
0000
,  // measure 3
0000
0000
0000
0000
,  // measure 4
0000
0000
0000
0000
,  // measure 5
0000
0000
0000
0000
,  // measure 6
0000
0000
0000
0000
,  // measure 7
0000
0000
0000
0000
,  // measure 8
0001
0100
0001
0000
,  // measure 9
1000
0000
0001
0000
,  // measure 10
1000
0010
1000
0000
,  // measure 11
0010
0100
0010
0000
,  // measure 12
1000
0000
0100
0000
,  // measure 13
0010
0000
0001
0000
,  // measure 14
1000
0000
0001
0000
,  // measure 15
0100
0000
0010
0000
,  // measure 16
1000
0100
0010
0000
,  // measure 17
0001
0000
1000
0000
,  // measure 18
0001
0000
0100
0000
,  // measure 19
0010
1000
0010
0000
,  // measure 20
1000
0000
0001
0000
,  // measure 21
0010
0000
0100
0000
,  // measure 22
1000
0100
0010
0000
,  // measure 23
0001
1000
0001
0000
,  // measure 24
0100
0010
1000
0000
,  // measure 25
0001
0000
0010
0000
,  // measure 26
0100
0000
0010
0001
,  // measure 27
0100
0000
0010
0000
,  // measure 28
1000
0000
0001
0000
,  // measure 29
0100
0000
0010
0000
,  // measure 30
1000
0001
1000
0001
,  // measure 31
1000
0001
1000
0010
,  // measure 32
0200
0000
0301
0000
,  // measure 33
0020
0000
1030
0000
,  // measure 34
0002
0000
1003
0000
,  // measure 35
0200
0000
0310
0000
,  // measure 36
0002
0000
0013
0000
,  // measure 37
0200
0000
1300
0000
,  // measure 38
0020
0000
1030
0000
,  // measure 39
0200
0000
0301
0000
,  // measure 40
1000
0001
1000
0000
,  // measure 41
0020
0000
0130
0000
,  // measure 42
0001
1000
0001
0000
,  // measure 43
0020
0000
0130
0000
,  // measure 44
1000
0100
0001
0000
,  // measure 45
0001
0100
1000
0000
,  // measure 46
0020
0000
0230
0000
,  // measure 47
0301
1001
0000
0010
,  // measure 48
0000
0001
0000
0010
,  // measure 49
0000
2000
0000
3100
,  // measure 50
0000
0002
0000
1003
,  // measure 51
0000
0010
0000
0001
,  // measure 52
0000
0100
0000
0010
,  // measure 53
0000
0200
0000
0301
,  // measure 54
0000
2000
0000
3001
,  // measure 55
0000
0010
0100
0010
,  // measure 56
0000
0100
0000
1000
,  // measure 57
0000
0001
0010
0100
,  // measure 58
0000
1000
0000
0001
,  // measure 59
0000
1000
0010
0100
,  // measure 60
0000
0010
1000
0001
,  // measure 61
0000
0010
0000
0100
,  // measure 62
1000
0001
0000
1000
,  // measure 63
0000
0010
1000
0001
,  // measure 64
0000
0010
0001
0010
,  // measure 65
0000
0100
1000
0001
,  // measure 66
0000
0100
0001
0100
,  // measure 67
0000
0010
1000
0100
,  // measure 68
0000
0010
0001
1000
,  // measure 69
0000
0001
1000
0010
,  // measure 70
0000
0100
0001
0010
,  // measure 71
0000
0100
1000
0010
,  // measure 72
0000
1000
0000
0001
,  // measure 73
1000
0100
0000
0010
,  // measure 74
0001
0100
0000
0010
,  // measure 75
0000
1000
0001
1000
,  // measure 76
0000
0010
1000
0100
,  // measure 77
0000
0010
0100
0010
,  // measure 78
0100
1000
0001
1000
,  // measure 79
0001
0200
0000
0300
,  // measure 80
0010
2000
0000
3000
,  // measure 81
0100
0002
0000
0003
,  // measure 82
1000
0010
0001
0100
,  // measure 83
1000
0020
0000
0030
,  // measure 84
0100
0002
0000
0003
,  // measure 85
1000
0200
0000
0300
,  // measure 86
0010
0002
0000
2003
,  // measure 87
0000
3100
0000
0010
,  // measure 88
0000
0001
1000
0001
,  // measure 89
0000
1000
0000
0010
,  // measure 90
0000
0100
0010
0100
,  // measure 91
0000
0001
0000
0010
,  // measure 92
0000
0100
0010
0100
,  // measure 93
0000
1000
0000
0001
,  // measure 94
0000
0100
0000
0010
,  // measure 95
0000
1000
0000
1001
,  // measure 96
0000
0000
0000
0000
,  // measure 97
0000
0010
0000
0100
,  // measure 98
0000
0010
0000
0100
,  // measure 99
0000
0001
0000
1001
,  // measure 100
0000
0000
0000
0000
,  // measure 101
0000
0010
0000
0001
,  // measure 102
0000
0010
0000
1000
,  // measure 103
0000
0001
0000
1001
,  // measure 104
0000
0000
0000
0000
,  // measure 105
0000
1000
0000
1001
,  // measure 106
0000
0000
0000
0000
,  // measure 107
0000
0100
0000
0110
,  // measure 108
0000
0000
0000
0000
,  // measure 109
0000
0010
0000
0110
,  // measure 110
0000
0000
1000
0000
,  // measure 111
1001
0000
0010
0000
,  // measure 112
0001
1000
0001
0000
,  // measure 113
0100
0000
1000
0000
,  // measure 114
0100
0000
0001
0010
,  // measure 115
0100
0000
1000
0000
,  // measure 116
0001
0000
1000
0000
,  // measure 117
0010
0000
0100
0001
,  // measure 118
1000
0000
0001
0010
,  // measure 119
0001
0000
1000
0100
,  // measure 120
0010
0000
0100
1000
,  // measure 121
0100
0000
1000
0001
,  // measure 122
0100
0000
0010
0100
,  // measure 123
0001
0000
1000
0010
,  // measure 124
0100
0000
0001
0000
,  // measure 125
1000
0000
0010
0000
,  // measure 126
0100
0000
0001
0010
,  // measure 127
0100
1000
0010
0100
,  // measure 128
0001
0010
0100
1000
;

//---------------dance-single - ----------------
#NOTES:
     dance-single:
     :
     Beginner:
     1:
     0.137902,0.300688,0.005190,0.077848,0.000000,186.000000,185.000000,1.000000,15.000000,0.000000,0.000000,0.137902,0.300688,0.005190,0.077848,0.000000,186.000000,185.000000,1.000000,15.000000,0.000000,0.000000:
// measure 0
0000
0000
0000
0000
,  // measure 1
0000
0000
0000
0000
,  // measure 2
0000
0000
0000
0000
,  // measure 3
0000
0000
0000
0000
,  // measure 4
0000
0000
0000
0000
,  // measure 5
0000
0000
0000
0000
,  // measure 6
0000
0000
0000
0000
,  // measure 7
0000
0000
0000
0000
,  // measure 8
0100
0000
0100
0000
,  // measure 9
0100
0000
0000
0000
,  // measure 10
0010
0000
0010
0000
,  // measure 11
0010
0000
0000
0000
,  // measure 12
1000
0000
0000
0000
,  // measure 13
0001
0000
0000
0000
,  // measure 14
0100
0000
0000
0000
,  // measure 15
0010
0000
0000
0000
,  // measure 16
1000
0000
0000
0000
,  // measure 17
1000
0000
0000
0000
,  // measure 18
0001
0000
0000
0000
,  // measure 19
0100
0000
0000
0000
,  // measure 20
0001
0000
0000
0000
,  // measure 21
0001
0000
0000
0000
,  // measure 22
1000
0000
0000
0000
,  // measure 23
0100
0000
0000
0000
,  // measure 24
1000
0000
0000
0000
,  // measure 25
0010
0000
0000
0000
,  // measure 26
0100
0000
0000
0000
,  // measure 27
0001
0000
0000
0000
,  // measure 28
1000
0000
0000
0000
,  // measure 29
0001
0000
0000
0000
,  // measure 30
0010
0000
0000
0000
,  // measure 31
0100
0000
0000
0000
,  // measure 32
1000
0000
1000
0000
,  // measure 33
0000
0000
0000
0000
,  // measure 34
0001
0000
0001
0000
,  // measure 35
0000
0000
0000
0000
,  // measure 36
0100
0000
0100
0000
,  // measure 37
0000
0000
0000
0000
,  // measure 38
0010
0000
0010
0000
,  // measure 39
0000
0000
0000
0000
,  // measure 40
1000
0000
1000
0000
,  // measure 41
1000
0000
0000
0000
,  // measure 42
0001
0000
0001
0000
,  // measure 43
0001
0000
0000
0000
,  // measure 44
0100
0000
0000
0000
,  // measure 45
0010
0000
0000
0000
,  // measure 46
1000
0000
0000
0000
,  // measure 47
0001
0001
0001
0001
,  // measure 48
0000
1000
0000
0001
,  // measure 49
0000
1000
1000
1000
,  // measure 50
0000
0001
0000
1000
,  // measure 51
0000
0010
0010
0010
,  // measure 52
0000
0100
0000
0010
,  // measure 53
0000
0100
0100
0100
,  // measure 54
0000
0010
0000
0100
,  // measure 55
0000
0001
0000
1000
,  // measure 56
0000
0010
0000
0100
,  // measure 57
0000
0001
0000
0010
,  // measure 58
0000
0100
0000
1000
,  // measure 59
0000
0001
0000
1000
,  // measure 60
0000
0001
0000
1000
,  // measure 61
0000
0010
0000
0100
,  // measure 62
0000
0001
0000
1000
,  // measure 63
0000
0100
0000
0000
,  // measure 64
0000
0010
0000
0000
,  // measure 65
0000
0001
0000
0001
,  // measure 66
0000
1000
0000
1000
,  // measure 67
0000
0010
0000
0000
,  // measure 68
0000
0100
0000
0000
,  // measure 69
0000
0001
0000
0001
,  // measure 70
0000
1000
0000
1000
,  // measure 71
0000
0100
0000
0000
,  // measure 72
0000
0010
0000
0000
,  // measure 73
0000
0001
0000
0001
,  // measure 74
0000
1000
0000
1000
,  // measure 75
0000
0010
0000
0000
,  // measure 76
0000
0100
0000
0000
,  // measure 77
0000
0001
0000
0001
,  // measure 78
0000
1000
0000
1000
,  // measure 79
0000
0200
0000
0300
,  // measure 80
0000
0020
0000
0030
,  // measure 81
0000
0002
0000
0003
,  // measure 82
0000
2000
3000
2000
,  // measure 83
3000
2000
0000
3000
,  // measure 84
0000
0020
0000
0030
,  // measure 85
0000
0200
0000
0300
,  // measure 86
0000
0002
0003
0002
,  // measure 87
0003
0002
0000
0000
,  // measure 88
0000
0003
0000
0010
,  // measure 89
0000
0200
0000
0000
,  // measure 90
0000
0300
0000
1000
,  // measure 91
0000
0020
0000
0000
,  // measure 92
0000
0030
0000
0100
,  // measure 93
0000
2000
0000
3000
,  // measure 94
0000
0200
0000
0300
,  // measure 95
0000
1001
0000
0000
,  // measure 96
0000
0000
0000
0000
,  // measure 97
0000
0010
0000
0000
,  // measure 98
0000
0100
0000
0000
,  // measure 99
0000
0010
0000
0000
,  // measure 100
0000
0000
0000
0000
,  // measure 101
0000
0001
0000
0000
,  // measure 102
0000
1000
0000
0000
,  // measure 103
0000
0001
0000
0001
,  // measure 104
0000
0000
0000
0000
,  // measure 105
0000
1000
0000
1000
,  // measure 106
0000
0000
0000
0000
,  // measure 107
0000
0100
0000
0100
,  // measure 108
0000
0000
0000
0000
,  // measure 109
0000
0010
0000
0000
,  // measure 110
0000
0000
0100
0100
,  // measure 111
0100
0000
0100
0000
,  // measure 112
0010
0000
1000
0000
,  // measure 113
1000
0000
0001
0000
,  // measure 114
0001
0000
0010
0010
,  // measure 115
0010
0000
0100
0000
,  // measure 116
1000
0000
0001
0000
,  // measure 117
0000
0000
1000
0000
,  // measure 118
0000
0000
0010
0010
,  // measure 119
0010
0010
0010
0000
,  // measure 120
0100
0000
0001
0001
,  // measure 121
0001
0001
0001
0000
,  // measure 122
1000
0000
0100
0100
,  // measure 123
0100
0000
0010
0010
,  // measure 124
0010
0000
0001
0001
,  // measure 125
0001
0000
1000
1000
,  // measure 126
1000
0000
0100
0100
,  // measure 127
0100
0100
0100
0100
,  // measure 128
0100
0100
0100
0100
;
