#TITLE:Summer;
#SUBTITLE:;
#ARTIST:Calvin Harris;
#TITLETRANSLIT:;
#SUBTITLETRANSLIT:;
#ARTISTTRANSLIT:;
#GENRE:Summer;
#CREDIT:;
#BANNER:Summer-bn.jpg;
#BACKGROUND:Summer-bg.jpg;
#LYRICSPATH:;
#CDTITLE:;
#MUSIC:Summer.mp3;
#OFFSET:-0.031000;
#SAMPLESTART:46.881996;
#SAMPLELENGTH:14.999996;
#LASTBEATHINT:264.000000;
#SELECTABLE:YES;
#BPMS:0.000000=128.000015
;
#STOPS:
;
#BGCHANGES:;
#KEYSOUNDS:;
#ATTACKS:;

//---------------dance-single - ----------------
#NOTES:
     dance-single:
     :
     Hard:
     8:
     0.492769,0.483159,0.117593,0.015679,0.047037,423.000000,15.000000,2.000000,0.000000,0.000000,0.000000,0.492769,0.483159,0.117593,0.015679,0.047037,423.000000,15.000000,2.000000,0.000000,0.000000,0.000000:
// measure 0
0000
0000
0000
0000
,  // measure 1
0001
0001
0010
0010
,  // measure 2
1000
1000
1000
1000
,  // measure 3
0100
0100
0010
0010
,  // measure 4
0001
0001
0001
0001
,  // measure 5
1000
1000
0010
0010
,  // measure 6
0100
0100
0100
0100
,  // measure 7
0001
0001
0010
0010
,  // measure 8
1000
1000
1000
1000
,  // measure 9
1001
0100
0010
0010
,  // measure 10
0001
0001
0001
0001
,  // measure 11
0010
0010
0100
0100
,  // measure 12
1000
1000
1000
1000
,  // measure 13
0010
0010
0100
0100
,  // measure 14
0001
0001
0001
0001
,  // measure 15
1000
1000
0001
0001
,  // measure 16
0100
0100
0100
0100
,  // measure 17
0001
0010
0001
1000
0100
1000
0010
0010
,  // measure 18
0010
0100
0001
0001
0001
1000
0001
0010
,  // measure 19
0100
0010
0100
1000
0001
0100
0010
0010
,  // measure 20
0010
1000
0100
0100
0100
1000
0001
0010
,  // measure 21
0001
0100
0010
1000
0001
0100
0010
0010
,  // measure 22
0010
0100
1000
1000
1000
0100
0010
1000
,  // measure 23
0001
0010
0100
1000
0100
0010
0001
1000
,  // measure 24
0010
0000
0100
0000
0001
0000
1000
0000
0010
0000
1000
0001
1000
0001
1000
0000
,  // measure 25
1001
0001
0001
1000
1000
0010
0010
1000
,  // measure 26
1000
0001
0001
0100
0100
0010
0000
0101
,  // measure 27
0000
0001
0001
1000
1000
0010
0010
1000
,  // measure 28
1000
0100
0100
0010
0010
0001
0000
1100
,  // measure 29
0000
0100
0100
1000
1000
0010
0010
0100
,  // measure 30
0100
0001
0001
0010
0010
0100
0000
1001
,  // measure 31
0000
0001
0001
1000
1000
0010
0010
1000
,  // measure 32
1000
0000
0100
0000
0100
0000
0010
0000
0010
0000
0001
1000
0001
1000
0001
0000
,  // measure 33
0100
0001
0001
1000
1000
0010
0010
1000
,  // measure 34
1000
0001
0001
0100
0100
0010
0000
1001
,  // measure 35
0000
1000
1000
0001
0001
0010
0010
1000
,  // measure 36
1000
0010
0010
0001
0001
0100
0000
1100
,  // measure 37
0000
0100
0100
0001
0001
0010
0010
0100
,  // measure 38
0100
1000
1000
0100
0100
0001
0000
0011
,  // measure 39
0000
0010
0010
1000
1000
0010
0010
0001
,  // measure 40
0001
0100
0100
1000
0100
0001
0100
0010
,  // measure 41
2000
0002
0000
0000
0000
0000
0000
0000
,  // measure 42
0000
0000
0000
3003
,  // measure 43
0001
0100
0010
1000
0001
0010
0100
0100
,  // measure 44
0100
1000
0010
0010
0010
1000
0001
0010
,  // measure 45
0100
1000
0100
0000
1000
0000
1000
0000
0001
1000
0001
0000
1000
0000
0000
0000
,  // measure 46
0001
0100
0001
0000
0100
0000
0100
0000
0010
1000
0010
0000
1000
0000
0000
0000
,  // measure 47
0001
1000
0010
0100
0001
1000
0010
0100
,  // measure 48
0010
0000
1000
0000
0001
0000
0100
0000
0010
0000
1000
0001
1000
0001
1000
0000
,  // measure 49
0010
1000
1000
0100
0100
0010
0010
0001
,  // measure 50
0001
0010
0010
0100
0100
1000
0000
1001
,  // measure 51
0000
0001
0001
0100
0100
0010
0010
1000
,  // measure 52
1000
0010
0010
0100
0100
0001
0100
0101
,  // measure 53
0000
0100
0100
0010
0010
1000
1000
0100
,  // measure 54
0100
0010
0010
0001
0001
0100
0000
1001
,  // measure 55
0000
0001
0001
0010
0010
0100
0100
1000
,  // measure 56
1000
0000
0010
0000
0010
0000
0100
0000
0100
0000
0001
1000
0001
1000
0001
0000
,  // measure 57
1001
0001
0100
1000
0100
0010
1000
0100
,  // measure 58
0010
0001
0010
1000
0010
0001
0010
0011
,  // measure 59
0000
0001
0100
1000
0100
0001
0100
0010
,  // measure 60
0100
1000
0100
0010
0100
0001
1000
1100
,  // measure 61
0000
0100
1000
0001
0100
0010
0001
0010
,  // measure 62
1000
0100
0010
0001
0010
0100
0010
1001
,  // measure 63
0000
0010
0001
0010
1000
0010
0100
0010
,  // measure 64
0001
0100
0001
1000
0100
1000
0000
0100
;

//---------------dance-single - ----------------
#NOTES:
     dance-single:
     :
     Medium:
     5:
     0.312460,0.254294,0.109753,0.000000,0.000000,265.000000,14.000000,0.000000,0.000000,0.000000,0.000000,0.312460,0.254294,0.109753,0.000000,0.000000,265.000000,14.000000,0.000000,0.000000,0.000000,0.000000:
// measure 0
0000
0000
0000
0000
,  // measure 1
1000
1000
0010
0010
,  // measure 2
0100
0100
0100
0100
,  // measure 3
0001
0001
1000
1000
,  // measure 4
0100
0100
0100
0100
,  // measure 5
0010
0010
0001
0001
,  // measure 6
1000
1000
1000
1000
,  // measure 7
0010
0010
0100
0100
,  // measure 8
0001
0001
0001
0001
,  // measure 9
1001
0100
0010
0010
,  // measure 10
1000
1000
1000
1000
,  // measure 11
0100
0100
0010
0010
,  // measure 12
0001
0001
0001
0001
,  // measure 13
0010
0010
0001
0001
,  // measure 14
1000
1000
1000
1000
,  // measure 15
0010
0010
0100
0100
,  // measure 16
0001
0001
0001
0001
,  // measure 17
1000
0010
1000
0000
0100
0000
0010
0000
,  // measure 18
0010
0001
0001
1000
,  // measure 19
0010
1000
0100
0000
0010
0000
0100
0000
,  // measure 20
1000
0001
0001
0100
,  // measure 21
0010
1000
0001
0000
0010
0000
0100
0000
,  // measure 22
1000
0001
0100
0010
,  // measure 23
1000
0010
0100
0000
0001
0000
0010
0000
,  // measure 24
0100
0000
1000
0000
0010
0100
0000
0000
,  // measure 25
0000
0010
0000
0010
0000
1000
0000
0100
,  // measure 26
0000
0010
0000
0001
0000
0010
0000
1001
,  // measure 27
0000
0010
0000
0001
0000
0010
0000
1000
,  // measure 28
0000
0010
0000
0100
0000
0010
0000
1001
,  // measure 29
0000
1000
0000
0001
0000
0010
0000
0100
,  // measure 30
0000
1000
0000
0001
0000
0100
0000
1001
,  // measure 31
0000
0100
0000
0001
0000
1000
0000
0010
,  // measure 32
0000
1000
0000
0100
0010
0100
0010
0000
,  // measure 33
0001
0100
0000
0010
0000
1000
0000
0010
,  // measure 34
0000
0001
0000
0010
0000
0100
0000
1001
,  // measure 35
0000
0100
0000
0010
0000
1000
0000
0100
,  // measure 36
0000
0010
0000
0001
0000
1000
0000
0101
,  // measure 37
0000
0001
0000
1000
0000
0010
0000
1000
,  // measure 38
0000
0100
0000
0010
0000
0001
0000
1010
,  // measure 39
0000
0010
0000
1000
0000
0100
0000
0001
,  // measure 40
0000
0100
0000
1000
0000
0010
0000
0100
,  // measure 41
0001
0000
0100
0000
0001
0100
0010
0000
,  // measure 42
1000
0100
0000
0100
,  // measure 43
0010
0000
0100
0000
1000
0001
0100
0000
,  // measure 44
0010
0100
0000
0100
,  // measure 45
0001
0000
0010
0000
0100
1000
0001
0000
,  // measure 46
0100
0010
0000
1000
,  // measure 47
0100
0000
0010
0000
0001
1000
0010
0000
,  // measure 48
0100
0010
0000
0110
,  // measure 49
1000
0010
0000
0001
0000
0010
0000
0100
,  // measure 50
0000
0010
0000
1000
0000
0010
0000
1001
,  // measure 51
0000
0010
0000
0100
0000
1000
0000
0001
,  // measure 52
0000
0100
0000
0010
0000
0100
0000
0101
,  // measure 53
0000
0001
0000
1000
0000
0010
0000
1000
,  // measure 54
0000
0100
0000
0010
0000
0100
0000
1001
,  // measure 55
0000
0100
0000
0010
0000
0100
0000
0001
,  // measure 56
0000
0010
0000
0100
1000
0100
1000
0000
,  // measure 57
0001
0010
0000
0001
0000
0100
0000
0010
,  // measure 58
0000
0100
0000
0001
0000
1000
0000
1001
,  // measure 59
0000
1000
0000
0001
0000
0010
0000
0100
,  // measure 60
0000
1000
0000
0010
0000
0100
0000
1001
,  // measure 61
0000
0100
0000
0010
0000
1000
0000
0010
,  // measure 62
0000
0100
0000
0001
0000
0010
0000
1001
,  // measure 63
0000
0010
0000
0001
0000
0100
0000
0010
,  // measure 64
0000
0100
0000
0001
0000
0010
0000
0100
;

//---------------dance-single - ----------------
#NOTES:
     dance-single:
     :
     Easy:
     4:
     0.271023,0.228424,0.031358,0.000000,0.000000,238.000000,4.000000,0.000000,0.000000,0.000000,0.000000,0.271023,0.228424,0.031358,0.000000,0.000000,238.000000,4.000000,0.000000,0.000000,0.000000,0.000000:
// measure 0
0000
0000
0000
0000
,  // measure 1
1000
1000
0010
0010
,  // measure 2
0100
0100
0100
0100
,  // measure 3
0001
0001
1000
1000
,  // measure 4
0100
0100
0100
0100
,  // measure 5
0010
0010
0001
0001
,  // measure 6
1000
1000
1000
1000
,  // measure 7
0010
0010
0100
0100
,  // measure 8
0001
0001
0001
0001
,  // measure 9
1001
0100
0010
0010
,  // measure 10
1000
1000
1000
1000
,  // measure 11
0100
0100
0010
0010
,  // measure 12
0001
0001
0001
0001
,  // measure 13
0010
0010
0001
0001
,  // measure 14
1000
1000
1000
1000
,  // measure 15
0010
0010
0100
0100
,  // measure 16
0001
0001
0001
0001
,  // measure 17
0010
0001
0100
0000
,  // measure 18
0010
0100
0010
0000
,  // measure 19
1000
0010
0100
0000
,  // measure 20
0010
1000
0100
0000
,  // measure 21
0010
0100
0001
0010
,  // measure 22
0100
1000
0001
0000
,  // measure 23
1000
0010
1000
0100
,  // measure 24
0010
0001
0100
0000
,  // measure 25
1001
0100
0001
0001
,  // measure 26
1000
1000
0001
0001
,  // measure 27
0010
0001
0010
0010
,  // measure 28
0100
1000
0001
0100
,  // measure 29
0010
0100
0001
0001
,  // measure 30
1000
0010
0100
0001
,  // measure 31
1000
0010
1000
1000
,  // measure 32
0100
0100
0010
0010
,  // measure 33
0001
0010
0001
0010
,  // measure 34
0100
1000
0001
0010
,  // measure 35
0001
1000
0001
1000
,  // measure 36
0010
0100
0001
1000
,  // measure 37
0010
1000
0010
1000
,  // measure 38
0100
0010
0001
1000
,  // measure 39
0010
0100
0010
1000
,  // measure 40
0010
0100
0001
0100
,  // measure 41
0001
0000
0010
0000
,  // measure 42
0100
0000
0000
0000
,  // measure 43
1000
0000
0001
0000
,  // measure 44
0100
0000
0000
0000
,  // measure 45
0010
0010
0100
0100
,  // measure 46
0001
0010
0100
0000
,  // measure 47
1000
1000
0100
0100
,  // measure 48
1000
0001
0100
0000
,  // measure 49
1001
1000
0001
0001
,  // measure 50
1000
1000
0010
0100
,  // measure 51
0001
0001
0010
0010
,  // measure 52
0100
0100
1000
0100
,  // measure 53
1000
1000
0010
0010
,  // measure 54
1000
1000
0001
0100
,  // measure 55
0001
0001
0010
0010
,  // measure 56
0100
0100
1000
0001
,  // measure 57
1001
0001
0010
0001
,  // measure 58
0100
0010
0100
0010
,  // measure 59
1000
0100
0010
0100
,  // measure 60
1000
0010
0100
0001
,  // measure 61
1000
0010
1000
0010
,  // measure 62
0100
0001
0010
0100
,  // measure 63
1000
0001
0100
0010
,  // measure 64
1000
0001
1000
0001
;

//---------------dance-single - ----------------
#NOTES:
     dance-single:
     :
     Beginner:
     1:
     0.143351,0.177663,0.015679,0.039198,0.000000,121.000000,2.000000,5.000000,0.000000,0.000000,0.000000,0.143351,0.177663,0.015679,0.039198,0.000000,121.000000,2.000000,5.000000,0.000000,0.000000,0.000000:
// measure 0
0000
0000
0000
0000
,  // measure 1
1000
0000
0010
0000
,  // measure 2
0100
0000
0000
0000
,  // measure 3
0001
0000
1000
0000
,  // measure 4
0100
0000
0000
0000
,  // measure 5
0010
0000
0001
0000
,  // measure 6
1000
0000
0000
0000
,  // measure 7
0010
0000
0100
0000
,  // measure 8
0001
0000
0000
0000
,  // measure 9
1001
0000
0010
0000
,  // measure 10
1000
0000
0000
0000
,  // measure 11
0100
0000
0010
0000
,  // measure 12
0001
0000
0000
0000
,  // measure 13
0010
0000
0001
0000
,  // measure 14
1000
0000
0000
0000
,  // measure 15
0010
0000
0100
0000
,  // measure 16
0001
0000
0000
0000
,  // measure 17
2002
0000
0000
3003
,  // measure 18
0000
0000
0000
0000
,  // measure 19
0020
0000
0000
0030
,  // measure 20
0000
0000
0000
0000
,  // measure 21
0200
0000
0000
0300
,  // measure 22
0000
0000
0000
0000
,  // measure 23
0002
0000
0000
0003
,  // measure 24
0000
0000
0000
0000
,  // measure 25
0010
0010
0010
0000
,  // measure 26
0100
0000
1000
0000
,  // measure 27
0100
0100
0100
0000
,  // measure 28
0010
0000
0001
0000
,  // measure 29
0010
0010
0010
0000
,  // measure 30
0100
0000
1000
0000
,  // measure 31
0100
0100
0100
0000
,  // measure 32
0010
0000
0001
0000
,  // measure 33
1000
1000
1000
0000
,  // measure 34
0010
0000
0100
0000
,  // measure 35
0001
0001
0001
0000
,  // measure 36
0100
0000
0010
0000
,  // measure 37
1000
1000
1000
0000
,  // measure 38
0010
0000
0100
0000
,  // measure 39
0001
0001
0001
0000
,  // measure 40
0100
0000
0010
0000
,  // measure 41
1000
0000
0000
0001
,  // measure 42
0000
0000
0000
0000
,  // measure 43
0010
0000
0000
0000
,  // measure 44
0000
0000
0000
0000
,  // measure 45
0100
0000
0100
0000
,  // measure 46
0100
0000
0000
0000
,  // measure 47
0010
0000
0010
0000
,  // measure 48
0010
0000
0000
0000
,  // measure 49
1000
0000
1000
0000
,  // measure 50
0100
0000
0100
0000
,  // measure 51
0001
0000
0001
0000
,  // measure 52
0010
0000
0010
0000
,  // measure 53
0100
0000
0100
0000
,  // measure 54
1000
0000
1000
0000
,  // measure 55
0010
0000
0010
0000
,  // measure 56
0100
0000
0100
0000
,  // measure 57
0000
0001
0001
0001
,  // measure 58
0001
0001
0001
0001
,  // measure 59
0000
1000
1000
1000
,  // measure 60
1000
1000
1000
1000
,  // measure 61
0000
0010
0010
0010
,  // measure 62
0010
0010
0010
0010
,  // measure 63
0000
0100
0100
0100
,  // measure 64
0100
0100
0100
0100
;
