#TITLE:Style (Craig Welsh Pop Bootleg Mix);
#SUBTITLE:;
#ARTIST:Taylor Swift;
#TITLETRANSLIT:;
#SUBTITLETRANSLIT:;
#ARTISTTRANSLIT:;
#GENRE:1989;
#CREDIT:;
#BANNER:Style (Craig Welsh Pop Bootleg Mix)-bn.jpg;
#BACKGROUND:Style (Craig Welsh Pop Bootleg Mix)-bg.jpg;
#LYRICSPATH:;
#CDTITLE:;
#MUSIC:Style (Craig Welsh Pop Bootleg Mix).mp3;
#OFFSET:-0.031000;
#SAMPLESTART:83.788017;
#SAMPLELENGTH:15.360001;
#SELECTABLE:YES;
#BPMS:0.000000=124.999992
;
#STOPS:
;
#BGCHANGES:;
#KEYSOUNDS:;
#ATTACKS:;

//---------------dance-single - ----------------
#NOTES:
     dance-single:
     :
     Challenge:
     9:
     0.616574,0.510136,0.073835,0.073835,0.604108,621.000000,11.000000,11.000000,0.000000,0.000000,0.000000,0.616574,0.510136,0.073835,0.073835,0.604108,621.000000,11.000000,11.000000,0.000000,0.000000,0.000000:
// measure 0
0000
0000
0000
0000
,  // measure 1
0000
0000
0000
0000
,  // measure 2
0000
0000
0000
0000
,  // measure 3
0000
0000
0000
0000
,  // measure 4
0100
0000
0010
0001
0000
0000
1000
0000
0010
0000
0100
0010
0000
0010
1000
0010
,  // measure 5
0100
0000
0010
0000
0100
0001
0000
1000
0000
0100
0000
0010
0000
0001
0100
0000
,  // measure 6
0010
0000
1000
0001
0000
0000
0100
0000
0010
0000
0100
0001
0000
1000
0001
0100
,  // measure 7
0000
0000
0010
0000
1000
0000
0100
0010
0000
0001
0000
1000
0000
0010
0100
0010
,  // measure 8
1000
0000
0100
0010
0000
0000
0001
0000
1000
0000
0010
0100
0000
0010
1000
0010
,  // measure 9
1000
0000
0100
0010
0000
0001
0000
1000
0000
0100
0000
0010
0000
0100
1000
0100
,  // measure 10
1000
0000
0010
0100
0000
0000
0001
0000
0010
0000
0100
0010
0000
0001
0100
0001
,  // measure 11
0100
0000
0010
0000
1000
0000
0001
0100
0000
0010
0000
1000
0000
0010
0100
0010
,  // measure 12
0100
0000
0001
1000
0000
0000
0100
0000
0010
0000
0001
1000
0000
0010
0100
0010
,  // measure 13
1000
0100
0000
0010
0000
0001
0000
0100
0000
0010
0000
0100
0000
0001
0000
0000
,  // measure 14
1000
0000
0010
0100
0000
0000
0001
0000
0010
0000
0001
1000
0000
0010
1000
0010
,  // measure 15
1000
0000
0100
0010
0000
0000
0001
0000
0100
0000
0010
0100
0000
0001
1000
0001
,  // measure 16
1000
0000
0100
0000
0010
0000
0001
0000
0100
0000
0010
0100
0000
0001
0100
0001
,  // measure 17
0100
0000
0010
0000
1000
0000
0001
0100
0000
0010
0000
0100
0000
0001
0010
0100
,  // measure 18
1000
0000
0010
0000
1000
0000
0001
0000
0010
0000
0100
0010
0000
0001
1000
0100
,  // measure 19
0000
0000
0010
0100
0010
0000
0001
1000
0000
0100
0000
0010
0000
0001
1000
0001
,  // measure 20
0100
0010
1000
0001
0100
0010
1000
0001
,  // measure 21
0100
0000
0010
0000
0100
0000
0002
0000
0000
0000
0013
0000
0100
1000
0001
0000
,  // measure 22
0100
0010
1000
0100
0010
0001
0100
0010
,  // measure 23
1000
0000
0100
0010
0000
0000
0200
0000
0000
0000
1300
0000
0001
1000
0100
0000
,  // measure 24
0010
0001
0100
0010
0100
0001
1000
0010
,  // measure 25
0100
0000
0010
0000
1000
0000
0200
0000
0000
0000
0310
0000
0001
1000
0100
0000
,  // measure 26
0010
0000
0000
0001
0000
0000
0101
0000
0000
0000
0100
0000
0010
1000
0100
0000
,  // measure 27
1000
0000
0000
0010
0000
0000
0110
0000
0000
0000
0100
0000
0001
0000
1000
0000
,  // measure 28
0010
0000
0100
0010
0000
0000
0001
0000
0100
0000
0010
0100
0000
0100
0001
0100
,  // measure 29
0010
0000
0100
0000
0010
1000
0000
0001
0000
0010
0000
0100
0000
1000
0010
0000
,  // measure 30
0100
0000
0001
1000
0000
0000
0010
0000
0100
0000
0010
1000
0000
0001
1000
0010
,  // measure 31
0000
0000
0100
0000
0001
0000
0010
0100
0000
1000
0000
0001
0000
0100
0010
0100
,  // measure 32
0001
0000
0010
0100
0000
0000
1000
0000
0001
0000
0100
0010
0000
0100
0001
0100
,  // measure 33
0001
0000
0010
0100
0000
1000
0000
0001
0000
0010
0000
0100
0000
0010
0001
0010
,  // measure 34
0001
0000
0100
0010
0000
0000
1000
0000
0100
0000
0010
0100
0000
1000
0010
1000
,  // measure 35
0010
0000
0100
0000
0001
0000
1000
0010
0000
0100
0000
0001
0000
0100
0010
0100
,  // measure 36
0010
0000
1000
0001
0000
0000
0010
0000
0100
0000
1000
0001
0000
0100
0010
0100
,  // measure 37
0001
0010
0000
0100
0000
1000
0001
1000
0000
0000
0000
0010
0000
0100
0000
0000
,  // measure 38
0001
0000
0100
0010
0000
0000
1000
0000
0100
0000
1000
0001
0000
0100
0001
0100
,  // measure 39
0001
0000
0010
0000
0100
0000
1000
0000
0010
0000
0100
0010
0000
1000
0001
1000
,  // measure 40
0001
0000
0010
0000
0100
0000
1000
0000
0010
0000
0100
0010
0000
1000
0010
1000
,  // measure 41
0010
0000
0100
0000
0001
0000
1000
0010
0000
0100
0000
0010
0000
1000
0100
0010
,  // measure 42
0001
0000
0100
0000
0001
0000
1000
0000
0100
0000
0010
0100
0000
1000
0001
0010
,  // measure 43
0000
0000
0100
0010
0100
0000
1000
0001
0000
0010
0000
0100
0000
1000
0001
1000
,  // measure 44
0010
0100
0001
1000
0010
0100
0001
1000
,  // measure 45
0010
0000
0100
0000
0010
0000
2000
0000
0000
0000
3100
0000
0010
0001
1000
0000
,  // measure 46
0010
0100
0001
0010
0100
1000
0010
0100
,  // measure 47
0001
0000
0010
0100
0000
0000
0020
0000
0000
0000
0031
0000
1000
0001
0010
0000
,  // measure 48
0100
1000
0010
0100
0010
1000
0001
0100
,  // measure 49
0010
0000
0100
0000
0001
0000
0020
0000
0000
0000
0130
0000
1000
0001
0010
0000
,  // measure 50
0100
0000
0000
1000
0000
0000
1010
0000
0000
0000
0010
0000
0100
0001
0010
0000
,  // measure 51
0001
0000
0000
0100
0000
0000
0110
0000
0000
0000
0010
0000
1000
0000
0001
0000
,  // measure 52
0010
0100
1000
0010
0100
0001
0010
0100
,  // measure 53
1000
0000
0010
0000
0000
0000
0120
0000
0000
0000
1030
0000
0001
1000
0100
0000
,  // measure 54
0010
0001
0100
0010
1000
0100
0010
0001
,  // measure 55
0100
0000
0010
0100
0000
0000
0001
0000
1000
0000
0100
0000
0010
0001
0100
0000
,  // measure 56
0001
0010
0100
1000
0010
0100
0010
1000
,  // measure 57
0100
0000
0010
0000
0100
0000
2000
0000
0000
0000
3010
0000
1000
0001
0100
0000
,  // measure 58
0010
0000
0000
0100
0000
0000
0101
0000
0000
0000
0001
0000
0010
0000
0100
0000
,  // measure 59
1000
0000
0000
0100
0000
0000
1100
0000
0000
0000
1000
0000
0010
0000
1000
0001
,  // measure 60
0000
0001
0100
0000
0010
0000
1000
0000
0100
0000
0010
0000
0001
0000
0100
0000
,  // measure 61
0010
0000
0100
0000
0001
0000
1000
0000
0100
0000
0010
0000
0100
0000
1000
0001
,  // measure 62
0000
0001
1000
0000
0010
0000
0100
0000
0001
0000
0010
0000
0100
0000
1000
0000
,  // measure 63
0100
0000
0010
0000
0001
0000
1000
0000
0010
0000
0100
0000
0001
0000
1000
0010
,  // measure 64
0000
0010
1000
0000
0100
0000
0010
0000
0001
0000
0100
0000
0010
0000
0100
0000
,  // measure 65
0001
0010
0100
1000
0100
0010
0001
1000
,  // measure 66
0100
0010
0100
1000
0010
0100
0010
1000
,  // measure 67
0001
0000
0000
0010
0000
0000
0110
0000
0000
0000
0100
0000
1000
0000
0001
0000
,  // measure 68
0100
0010
1000
0001
0100
0010
1000
0001
,  // measure 69
0100
0000
0001
0000
0010
0000
0200
0000
0000
0000
1300
0000
0001
1000
0100
0000
,  // measure 70
0010
0001
0100
0010
1000
0100
0010
0001
,  // measure 71
0100
0000
0010
1000
0000
0000
0020
0000
0000
0000
0130
0000
0001
1000
0100
0000
,  // measure 72
0010
0001
0100
0010
1000
0100
0010
0001
,  // measure 73
1000
0000
0100
0000
0010
0000
0200
0000
0000
0000
1300
0000
0001
1000
0100
0000
,  // measure 74
0010
0000
0000
0001
0000
0000
0101
0000
0000
0000
0100
0000
0010
1000
0100
0000
,  // measure 75
1000
0000
0000
0010
0000
0000
0110
0000
0000
0000
0010
0000
1000
0000
0001
0000
,  // measure 76
1001
0000
0000
0000
;

//---------------dance-single - ----------------
#NOTES:
     dance-single:
     :
     Hard:
     6:
     0.372054,0.357095,0.087260,0.167808,0.030205,350.000000,13.000000,25.000000,0.000000,0.000000,0.000000,0.372054,0.357095,0.087260,0.167808,0.030205,350.000000,13.000000,25.000000,0.000000,0.000000,0.000000:
// measure 0
0000
0000
0000
0000
,  // measure 1
0000
0000
0000
0000
,  // measure 2
0000
0000
0000
0000
,  // measure 3
0000
0000
0000
0000
,  // measure 4
1000
0100
0010
0100
,  // measure 5
1000
0000
0010
1000
0100
1000
0010
0000
,  // measure 6
0100
0001
0010
0001
,  // measure 7
0100
0010
1000
0001
,  // measure 8
0010
0100
0010
0001
,  // measure 9
1000
0000
0010
0000
0100
0010
1000
0001
,  // measure 10
0100
0001
0010
0100
,  // measure 11
1000
0010
1000
0100
,  // measure 12
0010
0000
0001
0000
1000
0100
1000
0000
,  // measure 13
0010
0100
0001
1000
,  // measure 14
0001
0010
0100
1000
,  // measure 15
0001
0010
0100
1000
,  // measure 16
0002
0000
1000
1003
,  // measure 17
0200
0000
0010
0310
,  // measure 18
2000
0000
0001
3001
,  // measure 19
0010
0100
0010
0100
,  // measure 20
1001
1000
0001
0001
,  // measure 21
0100
0010
1000
0020
0000
1030
0100
0010
,  // measure 22
0100
0010
0001
1000
,  // measure 23
0010
0100
0010
2000
0000
3100
0010
0100
,  // measure 24
1000
0001
0010
0100
,  // measure 25
0010
0001
0010
0002
0000
1003
0010
1000
,  // measure 26
0010
0000
0000
0100
0000
0000
0101
0000
0000
0000
0001
0000
1000
0000
0000
0000
,  // measure 27
0100
0000
0000
0010
0000
0000
0011
0000
0000
0000
0001
0000
1000
0000
0000
0000
,  // measure 28
0010
0100
0001
1000
,  // measure 29
0100
0000
0010
0000
0001
1000
0010
0100
,  // measure 30
0001
0010
0100
1000
,  // measure 31
0010
0100
0010
1000
,  // measure 32
0100
0010
0100
1000
,  // measure 33
0001
0000
1000
0000
0001
0100
0010
1000
,  // measure 34
0010
0100
0010
1000
,  // measure 35
0100
0010
0100
1000
,  // measure 36
0001
0000
0010
0000
0100
0010
0001
0000
,  // measure 37
1000
0010
0100
0001
,  // measure 38
1000
0001
0100
0010
,  // measure 39
1000
0001
0010
0100
,  // measure 40
2000
0000
0001
3001
,  // measure 41
0020
0000
0100
0130
,  // measure 42
0002
0000
1000
1003
,  // measure 43
0100
0000
0010
0000
0010
0001
0100
0001
,  // measure 44
1001
0010
0100
0001
,  // measure 45
1000
0001
0100
0002
0000
0013
0100
0010
,  // measure 46
0001
1000
0010
0100
,  // measure 47
0001
0100
0010
2000
0000
3010
0100
0010
,  // measure 48
1000
0100
0010
0001
,  // measure 49
1000
0001
0010
0200
0000
0310
0001
1000
,  // measure 50
0100
0000
0000
0010
0000
0000
1001
0000
0000
0000
0010
0000
0100
0000
0010
0000
,  // measure 51
1000
0000
0000
0001
0000
0000
0110
0000
0000
0000
0100
0000
0001
0000
1000
0000
,  // measure 52
0100
1000
0010
0100
,  // measure 53
0001
0010
0100
0020
0000
0031
1000
0001
,  // measure 54
0100
0010
1000
0100
,  // measure 55
0010
0100
0010
0002
0000
1003
0100
0010
,  // measure 56
0001
1000
0010
0100
,  // measure 57
0010
1000
0100
0020
0000
0130
1000
0100
,  // measure 58
0010
0000
0000
0001
0000
0000
0101
0000
0000
0000
0100
0000
0001
0000
1000
0000
,  // measure 59
0100
0000
0000
1000
0000
0000
1010
0000
0000
0000
1000
0000
0010
0000
1000
0000
,  // measure 60
0200
0000
0010
0000
1000
0000
0310
0001
,  // measure 61
0020
0000
0031
0100
0001
0000
1000
0000
,  // measure 62
0020
0000
0100
0000
1000
0000
0130
0001
,  // measure 63
0200
0000
0310
1000
0010
0000
1000
0000
,  // measure 64
0200
0000
1000
0000
0010
0000
1300
0010
,  // measure 65
2000
0000
3001
0100
0001
0000
0010
0000
,  // measure 66
0200
0010
0001
0310
,  // measure 67
0100
0000
0000
0010
0000
0000
0110
0000
0000
0000
1000
0000
0001
0000
1000
0000
,  // measure 68
1001
0010
0100
1000
,  // measure 69
0001
1000
0001
0200
0000
0310
0100
0010
,  // measure 70
1000
0100
0010
0001
,  // measure 71
1000
0100
1000
0002
0000
0013
0001
0010
,  // measure 72
0100
0010
0001
1000
,  // measure 73
0001
0100
0001
2000
0000
3010
1000
0010
,  // measure 74
0100
0000
0000
0010
0000
0000
1010
0000
0000
0000
1000
0000
0001
0000
1000
0000
,  // measure 75
0001
0000
0000
0100
0000
0000
0101
0000
0000
0000
0000
0000
0000
0000
0000
0000
,  // measure 76
1001
0000
0000
0000
;

//---------------dance-single - ----------------
#NOTES:
     dance-single:
     :
     Medium:
     5:
     0.293424,0.255068,0.020137,0.060411,0.026849,294.000000,3.000000,9.000000,0.000000,0.000000,0.000000,0.293424,0.255068,0.020137,0.060411,0.026849,294.000000,3.000000,9.000000,0.000000,0.000000,0.000000:
0000
0000
0000
0000
,
0000
0000
0000
0000
,
0000
0000
0000
0000
,
0000
0000
0000
0000
,
0010
1000
0100
0010
,
0100
0000
1000
0100
1000
0000
0100
0000
,
0010
0001
0100
0001
,
0010
0100
0010
0001
,
1000
0001
0100
0010
,
0100
0000
0001
0100
0001
0000
0010
0000
,
0100
0010
0001
1000
,
0010
0100
0010
1000
,
0100
0010
0100
1000
,
0001
1000
0001
0000
0100
0010
0100
0000
,
0010
1000
0100
0010
,
0100
1000
0001
0010
,
0200
0000
1000
1300
,
0002
0000
0100
0103
,
0020
0000
1000
1030
,
0100
0010
0100
0110
,
1000
0010
1000
0100
,
0010
0000
0100
0000
1000
0000
0001
1000
,
0100
0010
0001
0100
,
0010
0000
0100
0000
0001
0000
1000
0001
,
0100
0010
1000
0100
,
0010
0000
0100
0000
1000
0000
0001
1000
,
0100
0000
0000
0010
0000
0000
0100
0000
0000
0000
0000
0000
0010
0000
0000
0000
,
0001
0000
0000
1000
0000
0000
0001
0000
0000
0000
0000
0000
0100
0000
0000
0000
,
0010
1000
0100
1000
,
0010
0000
0100
0001
0100
0000
0010
0000
,
1000
0100
0010
0100
,
1000
0010
0100
0001
,
0010
0100
0010
0001
,
0100
0000
0010
0100
0010
0000
1000
0000
,
0001
0100
0010
1000
,
0100
0010
0100
1000
,
0001
0010
0100
1000
,
0001
1000
0001
0000
0010
0001
0010
0000
,
0100
1000
0010
0100
,
0010
1000
0100
0010
,
0200
0000
1000
1300
,
0002
0000
0100
0103
,
0020
0000
0100
0130
,
0001
0010
0100
1000
,
0001
1000
0010
0100
,
0010
0000
1000
0000
0001
0000
1000
0001
,
0100
0010
1000
0100
,
0010
0000
0100
0000
1000
0000
0001
1000
,
0100
0010
0100
1000
,
0010
0000
0100
0000
0001
0000
1000
0001
,
0100
0000
0000
0010
0000
0000
0100
0000
0000
0000
0000
0000
0001
0000
0000
0000
,
1000
0000
0000
0010
0000
0000
1000
0000
0000
0000
0000
0000
0100
0000
0000
0000
,
1000
0001
0100
0010
,
1000
0000
0001
0000
0100
0000
0001
1000
,
0100
0010
0001
1000
,
0010
0000
0100
0000
0001
0000
1000
0001
,
0100
0010
1000
0100
,
0010
0000
0100
0000
1000
0000
0001
1000
,
0100
0000
0000
1000
0000
0000
0001
0000
0000
0000
0000
0000
0100
0000
0000
0000
,
0100
0000
0000
0001
0000
0000
1000
0000
0000
0000
0000
0000
0100
0000
0000
0000
,
0020
0000
0000
0000
,
0031
1000
0001
0100
,
0020
0000
0000
0000
,
1030
0001
1000
0100
,
0020
0000
0000
0000
,
0130
1000
0001
0100
,
0010
1000
0100
0010
,
0100
1000
0001
0100
,
1001
0100
0010
1000
,
0001
0000
0010
0000
0100
0000
1000
0001
,
0100
0010
0100
0001
,
0010
0000
0100
0000
1000
0000
0001
1000
,
0100
0010
0100
1000
,
0010
0000
0100
0000
0001
0000
1000
0001
,
0100
0000
0000
0010
0000
0000
0100
0000
0000
0000
0000
0000
0010
0000
0000
0000
,
1000
0000
0000
0001
0000
0000
1000
0000
0000
0000
0000
0000
0010
0000
0000
0000
,
1001
0000
0000
0000
;

//---------------dance-single - ----------------
#NOTES:
     dance-single:
     :
     Easy:
     3:
     0.208082,0.204054,0.067123,0.060411,0.000000,198.000000,10.000000,9.000000,0.000000,0.000000,0.000000,0.208082,0.204054,0.067123,0.060411,0.000000,198.000000,10.000000,9.000000,0.000000,0.000000,0.000000:
0000
0000
0000
0000
,
0000
0000
0000
0000
,
0000
0000
0000
0000
,
0000
0000
0000
0000
,
0010
1000
0100
0000
,
1000
0000
0010
0000
,
0100
0001
0010
0000
,
0001
0000
1000
0000
,
0010
0100
0001
0000
,
1000
0000
0100
0000
,
0010
0100
1000
0000
,
0001
0000
0010
0000
,
0100
1000
0010
0000
,
1000
0001
1000
0000
,
0010
0100
0001
0000
,
1000
0010
0100
0000
,
0020
0000
1000
0030
,
0200
0000
0001
0300
,
0020
0000
0001
0030
,
0100
0100
0100
0100
,
0010
0010
0001
0001
,
0100
0000
0100
0000
,
0010
0010
1000
1000
,
0100
0000
0100
0000
,
1000
1000
0001
0001
,
0100
0000
0010
0000
,
1000
0010
1010
0000
,
0001
0010
0011
0000
,
0001
1000
0010
0000
,
0100
0000
0010
0000
,
1000
0001
0100
0000
,
0010
0000
1000
0000
,
0100
1000
0010
0000
,
0100
0000
0001
0000
,
0010
0001
0100
0000
,
0010
0000
1000
0000
,
0001
1000
0100
0000
,
0010
0100
0010
0000
,
0001
0100
0001
0000
,
1000
0010
1000
0000
,
0200
0000
0010
0300
,
0002
0000
1000
0003
,
0020
0000
0100
0030
,
0100
0100
0100
0100
,
0010
0010
1000
1000
,
0100
0000
0100
0000
,
1000
1000
0010
0010
,
0001
0000
0001
0000
,
0010
0010
0001
0001
,
0100
0000
0100
0000
,
0001
1000
1001
0000
,
0100
0010
0110
0000
,
0010
0010
0100
0100
,
0001
0000
1000
0000
,
0100
0100
0010
0010
,
0001
0000
1000
0000
,
0010
0010
1000
1000
,
0100
0000
0010
0000
,
0001
1000
1100
0000
,
1000
0001
0101
0000
,
0002
0000
0000
0003
,
0010
0100
0010
0000
,
0200
0000
0000
0300
,
1000
0001
1000
0000
,
0020
0000
0000
0030
,
0100
0010
0100
0000
,
0001
0000
1000
0000
,
0100
0010
0110
0000
,
1000
1000
0001
0001
,
0100
0000
0010
0000
,
0100
0100
0010
0010
,
1000
0000
0010
0000
,
0100
0100
0001
0001
,
0010
0000
0100
0000
,
1000
0001
1001
0000
,
0010
0100
0110
0000
,
1001
0000
0000
0000
;

//---------------dance-single - ----------------
#NOTES:
     dance-single:
     :
     Beginner:
     1:
     0.143835,0.127534,0.006712,0.000000,0.000000,149.000000,1.000000,0.000000,0.000000,0.000000,0.000000,0.143835,0.127534,0.006712,0.000000,0.000000,149.000000,1.000000,0.000000,0.000000,0.000000,0.000000:
0000
0000
0000
0000
,
0000
0000
0000
0000
,
0000
0000
0000
0000
,
0000
0000
0000
0000
,
0010
0000
1000
0000
,
0100
0000
0010
0000
,
0001
0000
1000
0000
,
0010
0000
0100
0000
,
0010
0000
1000
0000
,
0100
0000
0010
0000
,
0001
0000
1000
0000
,
0100
0000
0010
0000
,
0100
0000
1000
0000
,
0010
0000
0100
0000
,
0001
0000
0010
0000
,
0100
0000
1000
0000
,
0010
0000
0000
0000
,
0100
0000
0000
0000
,
0010
0000
0000
0000
,
0100
0000
0000
0000
,
0001
0001
0001
0001
,
0001
0000
0000
0000
,
1000
1000
1000
1000
,
1000
0000
0000
0000
,
0010
0010
0010
0010
,
0010
0000
0000
0000
,
0100
0000
0100
0000
,
0010
0000
0010
0000
,
1000
0000
0100
0000
,
0010
0000
0001
0000
,
0001
0000
0010
0000
,
0100
0000
1000
0000
,
1000
0000
0010
0000
,
0100
0000
0001
0000
,
0001
0000
0100
0000
,
0010
0000
1000
0000
,
0100
0000
0010
0000
,
0001
0000
1000
0000
,
0010
0000
0100
0000
,
0010
0000
1000
0000
,
0001
0000
0000
0000
,
0010
0000
0000
0000
,
0100
0000
0000
0000
,
1000
0000
0000
0000
,
0010
0010
0010
0010
,
0010
0000
0000
0000
,
0100
0100
0100
0100
,
0100
0000
0000
0000
,
0001
0001
0001
0001
,
0001
0000
0000
0000
,
1000
0000
1000
0000
,
0100
0000
0100
0000
,
0010
0010
0010
0010
,
0010
0000
0000
0000
,
0100
0100
0100
0100
,
0100
0000
0000
0000
,
1000
1000
1000
1000
,
1000
0000
0000
0000
,
0001
0000
0001
0000
,
0100
0000
0100
0000
,
0010
0000
0010
0000
,
1000
0000
1000
0000
,
0100
0000
0100
0000
,
0001
0000
0001
0000
,
0010
0000
0010
0000
,
1000
0000
1000
0000
,
0100
0000
0100
0000
,
0001
0000
0001
0000
,
0010
0010
0010
0010
,
0010
0000
0000
0000
,
1000
1000
1000
1000
,
1000
0000
0000
0000
,
0001
0001
0001
0001
,
0001
0000
0000
0000
,
0100
0000
0100
0000
,
0010
0000
0010
0000
,
0110
0000
0000
0000
;
