#TITLE:Stranger Things (Felix Cartal's After Dark Remix);
#SUBTITLE:;
#ARTIST:Kyle Dixon & Michael Stein;
#TITLETRANSLIT:;
#SUBTITLETRANSLIT:;
#ARTISTTRANSLIT:;
#GENRE:Stranger Things;
#CREDIT:;
#BANNER:Stranger Things (Felix Cartal's After Dark Remix)-bn.jpg;
#BACKGROUND:Stranger Things (Felix Cartal's After Dark Remix)-bg.jpg;
#LYRICSPATH:;
#CDTITLE:;
#MUSIC:Stranger Things (Felix Cartal's After Dark Remix).mp3;
#OFFSET:-0.013000;
#SAMPLESTART:100.650108;
#SAMPLELENGTH:15.483871;
#SELECTABLE:YES;
#DISPLAYBPM:124.000000;
#BPMS:0.000000=124.000000
;
#STOPS:
;
#BGCHANGES:;
#KEYSOUNDS:;
#ATTACKS:;

//---------------dance-single - ----------------
#NOTES:
     dance-single:
     :
     Challenge:
     10:
     0.708366,0.790271,0.355105,0.077478,0.842568,768.000000,713.000000,55.000000,12.000000,0.000000,0.000000,0.708366,0.790271,0.355105,0.077478,0.842568,768.000000,713.000000,55.000000,12.000000,0.000000,0.000000:
// measure 0
0000
0000
0000
0000
,  // measure 1
0000
0000
0000
0000
,  // measure 2
0000
0000
0000
0000
,  // measure 3
0000
0000
0000
0000
,  // measure 4
1100
0000
1000
0000
0100
0000
0010
0000
0001
0000
0010
0000
0100
1000
0000
1000
,  // measure 5
0001
0000
1000
0000
0100
0000
0010
0000
0001
0000
0010
0000
0100
1000
0100
1000
,  // measure 6
1100
0000
1000
0000
0100
0000
0010
0000
0001
0000
0010
0000
0100
1000
0000
1000
,  // measure 7
0001
0000
1000
0000
0100
0000
0010
0000
0001
0000
0010
0000
0100
1000
0001
0100
,  // measure 8
0101
0000
0100
0000
0010
0000
1000
0000
0001
0000
1000
0000
0010
0100
0000
0100
,  // measure 9
0001
0000
0100
0000
0010
0000
1000
0000
0001
0000
1000
0000
0010
0100
0010
0100
,  // measure 10
0101
0000
0001
0000
1000
0000
0010
0000
0001
0000
0010
0000
1000
0001
0000
0001
,  // measure 11
1000
0000
0010
0000
0001
0000
0010
0000
1000
0000
0001
0000
1000
0100
1000
0100
,  // measure 12
2200
0000
0000
0000
,  // measure 13
0000
0000
0000
0000
,  // measure 14
0000
0000
0000
0000
,  // measure 15
0000
0000
0000
0000
,  // measure 16
3300
0000
0000
0000
,  // measure 17
0000
0000
0000
0000
,  // measure 18
0000
0000
0000
0000
,  // measure 19
0000
0000
0000
0000
,  // measure 20
0001
1000
0100
0010
0001
0010
0100
1000
0001
1000
0100
0010
0001
0010
0100
1000
,  // measure 21
0001
1000
0100
0010
0001
0010
0100
1000
0001
1000
0100
0010
0001
0010
0100
1000
,  // measure 22
0001
1000
0100
0010
0001
0010
0100
1000
0001
1000
0100
0010
0001
0010
0100
1000
,  // measure 23
0001
1000
0100
0010
0001
0010
0100
1000
0001
1000
0100
0010
1001
0000
0000
0000
,  // measure 24
0101
0100
0010
1000
0001
1000
0010
0100
0001
0100
0010
1000
0001
1000
0010
0100
,  // measure 25
0001
0100
0010
1000
0001
1000
0010
0100
0001
0100
0010
1000
0001
1000
0010
0100
,  // measure 26
0001
0100
0010
1000
0001
1000
0010
0100
0001
0100
0010
1000
0001
1000
0010
0100
,  // measure 27
0001
0100
0010
1000
0001
1000
0010
0100
0001
0100
0010
1000
0001
1000
0010
0100
,  // measure 28
0001
0010
0100
1000
0010
0100
0010
1000
0001
0010
0100
1000
0010
0100
0010
1000
,  // measure 29
0001
0010
0100
1000
0010
0100
0010
1000
0001
0010
0100
1000
0010
0100
0010
1000
,  // measure 30
0100
0010
0001
0100
0010
0100
0001
1000
0100
0010
0001
0100
0010
0100
0001
1000
,  // measure 31
0100
0010
0001
0100
0010
0100
0001
1000
0100
0010
0001
0100
0010
0100
0001
1000
,  // measure 32
0100
1000
0001
0100
0010
0100
0001
1000
0100
1000
0001
0100
0010
0100
0001
1000
,  // measure 33
0100
1000
0001
0100
0010
0100
0001
1000
0100
1000
0001
0100
0010
0100
0001
1000
,  // measure 34
0100
0010
0001
1000
0010
0100
0001
1000
0100
0010
0001
1000
0010
0100
0001
1000
,  // measure 35
0100
0010
0001
1000
0010
0100
0001
1000
0100
0010
0001
1000
0010
0100
0001
1000
,  // measure 36
0100
0010
0001
0010
0100
1000
0100
0010
0001
0010
0100
1000
0100
0010
0001
0010
,  // measure 37
0100
1000
0100
0010
0001
0010
0100
1000
0100
0010
0001
0010
0100
1000
0100
0010
,  // measure 38
0001
0100
0010
1000
0010
0100
0001
0100
0010
1000
0010
0100
0001
0100
0010
1000
,  // measure 39
0010
0100
0001
0100
0010
1000
0010
0100
0001
0100
0010
1000
0010
0100
0001
0100
,  // measure 40
0010
1000
0001
0010
1000
0010
0001
1000
0010
1000
0001
0010
1000
0010
0001
1000
,  // measure 41
0010
1000
0001
0010
1000
0010
0001
1000
0010
1000
0001
0010
1000
0010
0001
1000
,  // measure 42
2002
3003
0202
0303
,  // measure 43
0220
0330
2020
3030
,  // measure 44
1001
0100
1001
0100
0011
0100
1001
0100
,  // measure 45
1001
0100
1001
0100
1010
0100
1001
0100
,  // measure 46
1001
0100
1001
0100
0011
0100
1001
0100
,  // measure 47
1001
0100
1001
0100
1010
0100
1001
0100
,  // measure 48
1001
0100
0011
0100
1001
0100
1010
0100
,  // measure 49
1001
0100
0011
0100
1001
0100
1010
0100
,  // measure 50
1001
0100
0011
0100
1001
0100
1010
0100
,  // measure 51
1001
0100
0011
0100
1001
0100
0110
0000
,  // measure 52
1001
0000
0100
0001
0010
0001
0100
0001
0010
0000
0100
1000
0010
0000
1010
0000
,  // measure 53
0000
0000
1010
0000
0010
1000
0100
1000
0010
0000
0100
0001
0010
0001
0100
0001
,  // measure 54
0010
0000
0100
1000
0001
1000
0100
1000
0001
0000
0100
0001
1000
0000
1100
0000
,  // measure 55
0000
0000
1100
0000
0100
1000
0001
1000
0100
0000
1000
0001
0100
0001
1000
0001
,  // measure 56
0100
0000
0010
1000
0100
0010
0001
0100
0010
0000
0100
0001
0010
0000
0110
0000
,  // measure 57
0000
0000
1001
0000
0100
1000
0010
0100
0001
0000
0010
0100
1000
0001
0100
0010
,  // measure 58
1000
0000
0001
0100
0010
1000
0100
0010
0001
0000
1000
0010
0100
0000
0011
0000
,  // measure 59
0000
0000
1010
0000
0100
0001
1000
0100
0010
0000
0001
1000
0010
0000
0100
0000
,  // measure 60
0101
0000
0010
1000
0100
0000
0010
0001
0100
0000
0001
1000
0100
0000
0010
0001
,  // measure 61
1000
0000
0010
1000
0100
0000
0010
0001
0100
0000
0010
1000
0100
0010
0100
1000
,  // measure 62
0010
0000
0100
0001
0010
0000
0100
1000
0001
0000
0010
0001
0100
0000
0010
1000
,  // measure 63
0001
0000
0010
0001
0100
0000
0010
1000
0100
0000
0010
0001
1000
0001
0010
0100
,  // measure 64
1000
0000
0010
1000
0001
0000
0010
0001
1000
0000
0100
1000
0010
0000
0100
0001
,  // measure 65
1000
0000
0100
1000
0010
0000
0100
0001
0010
0000
0100
1000
0010
0100
0001
1000
,  // measure 66
0100
0000
0010
0001
1000
0000
0010
1000
0001
0000
0100
0001
1000
0000
0100
0010
,  // measure 67
0001
0100
0010
1000
0100
0010
0001
0100
0010
1000
0100
0010
0001
0000
0001
0000
,  // measure 68
2100
0010
0001
3010
,  // measure 69
2100
0010
0001
3010
,  // measure 70
0100
1000
0001
1000
0010
0001
1000
0001
,  // measure 71
0100
1000
0001
1000
0010
0001
1000
0001
,  // measure 72
0100
0000
0000
0000
;

//---------------dance-single - ----------------
#NOTES:
     dance-single:
     :
     Hard:
     8:
     0.425204,0.509576,0.122673,0.090390,0.077478,461.000000,442.000000,19.000000,14.000000,0.000000,0.000000,0.425204,0.509576,0.122673,0.090390,0.077478,461.000000,442.000000,19.000000,14.000000,0.000000,0.000000:
// measure 0
0000
0000
0000
0000
,  // measure 1
0000
0000
0000
0000
,  // measure 2
0000
0000
0000
0000
,  // measure 3
0000
0000
0000
0000
,  // measure 4
1000
0000
0101
0000
0100
0010
0100
0001
,  // measure 5
0010
0000
1100
0000
0100
0010
0100
1000
,  // measure 6
0010
0000
0110
0000
1000
0010
0001
0010
,  // measure 7
1000
0000
0110
0000
0001
0100
1000
0100
,  // measure 8
0001
0000
1100
0000
0010
1000
0100
0001
,  // measure 9
0010
0000
0110
0000
0001
0100
1000
0010
,  // measure 10
0001
0000
1001
0000
0010
1000
0100
0001
,  // measure 11
0010
0000
1100
0000
0010
0001
0100
1000
,  // measure 12
0202
0000
0000
0000
,  // measure 13
0000
0000
0000
0000
,  // measure 14
0000
0000
0000
0000
,  // measure 15
0000
0000
0000
0000
,  // measure 16
0303
0000
0000
0000
,  // measure 17
0000
0000
0000
0000
,  // measure 18
0000
0000
0000
0000
,  // measure 19
0000
0000
0000
0000
,  // measure 20
1000
0100
0001
0000
0001
0100
1000
0000
,  // measure 21
1000
0100
0001
0000
0001
0100
1000
0000
,  // measure 22
1000
0100
0001
0000
0001
0100
1000
0000
,  // measure 23
1000
0100
0001
0000
0001
0100
1000
0000
,  // measure 24
1000
0100
0001
0000
0001
0010
1000
0000
,  // measure 25
1000
0100
0001
0000
0001
0010
1000
0000
,  // measure 26
1000
0100
0001
0000
0001
0010
1000
0000
,  // measure 27
1000
0100
0001
0000
0001
0010
1000
0000
,  // measure 28
1000
0100
0001
0010
1000
0100
0001
0010
,  // measure 29
1000
0100
0001
0010
1000
0100
0001
0010
,  // measure 30
0100
1000
0010
0001
0100
1000
0010
0001
,  // measure 31
0100
1000
0010
0001
0100
1000
0010
0001
,  // measure 32
1000
0010
0001
0100
1000
0010
0001
0100
,  // measure 33
1000
0010
0001
0100
1000
0010
0001
0100
,  // measure 34
0010
0001
0100
1000
0010
0001
0100
1000
,  // measure 35
0010
0001
0100
1000
0010
0001
0100
1000
,  // measure 36
0001
0001
0010
0010
1000
1000
0100
0100
,  // measure 37
0001
0001
0010
0010
1000
1000
0100
0100
,  // measure 38
0001
0010
0001
0000
0010
0000
1000
0000
0100
1000
0100
0000
1000
0000
0001
0000
,  // measure 39
0100
0001
0100
0000
1000
0000
0010
0000
0001
0010
0001
0000
0010
0000
0100
0000
,  // measure 40
1000
0100
0001
0000
0010
0000
1000
0000
0100
0001
0010
0000
1000
0000
0100
0000
,  // measure 41
0001
0010
1000
0000
0100
0000
0001
0000
0010
1000
0100
0000
0001
0000
0010
0000
,  // measure 42
2200
3300
0220
0330
,  // measure 43
0022
0033
2002
3003
,  // measure 44
0001
0100
1000
0100
0010
0100
0001
0100
,  // measure 45
1000
0100
0001
0100
0010
0100
1000
0100
,  // measure 46
0001
0010
1000
0010
0100
0010
0001
0010
,  // measure 47
1000
0010
0001
0010
0100
0010
1001
0000
,  // measure 48
0001
0010
1000
0010
0100
1000
0100
0001
,  // measure 49
1000
0010
0001
0010
0100
0001
0100
1000
,  // measure 50
0001
0010
1000
0010
0100
1000
0100
0001
,  // measure 51
1000
0010
0001
0010
0100
0001
0110
0000
,  // measure 52
0001
0100
0001
0000
1000
0000
0100
0000
0010
0000
0100
0000
1000
0000
0100
0000
,  // measure 53
0010
0001
0010
0000
0001
0000
1000
0000
0010
0000
1000
0000
0001
0000
1000
0000
,  // measure 54
0100
1000
0100
0000
1000
0000
0001
0000
0100
0000
0001
0000
1000
0000
0100
0000
,  // measure 55
1000
0001
1000
0000
0010
0000
1000
0000
0001
0000
0010
0000
0100
0000
1000
0000
,  // measure 56
0010
0100
0010
0000
1000
0000
0001
0000
0010
0000
0001
0000
1000
0000
0001
0000
,  // measure 57
0100
0010
0100
0000
0001
0000
1000
0000
0010
0000
0100
0000
0001
0000
1000
0000
,  // measure 58
0100
0010
0100
0000
1000
0000
0001
0000
0010
0000
0001
0000
1000
0000
0010
0000
,  // measure 59
0100
0001
0100
0000
0010
0000
1000
0000
0100
0000
0010
0000
1001
0000
0000
0000
,  // measure 60
0100
0001
0010
0000
0100
0000
1000
0000
0010
0000
1000
0000
0100
0000
0010
0000
,  // measure 61
0001
0100
0010
0000
1000
0000
0100
0000
0010
0000
0100
0000
1000
0000
0001
0000
,  // measure 62
1000
0010
0100
0000
0010
0000
1000
0000
0001
0000
1000
0000
0010
0000
0100
0000
,  // measure 63
0001
0100
0010
0000
1000
0000
0100
0000
0010
0000
0100
0000
1001
0000
0100
0000
,  // measure 64
0001
0100
0010
0000
1000
0000
0100
0000
0010
0000
0100
0000
1000
0000
0100
0000
,  // measure 65
0010
0001
0100
0000
0010
0000
1000
0000
0100
0000
0010
0000
0001
0000
1000
0000
,  // measure 66
0010
1000
0001
0000
1000
0000
0100
0000
0010
0000
0001
0000
0100
0000
0010
0000
,  // measure 67
0100
0001
0010
0000
0100
0000
1000
0000
0010
0000
0100
0000
1001
0000
0100
0000
,  // measure 68
0201
1000
0010
0301
,  // measure 69
0020
1000
0100
0031
,  // measure 70
2000
0100
0001
3010
,  // measure 71
0200
0001
0010
1300
;

//---------------dance-single - ----------------
#NOTES:
     dance-single:
     :
     Medium:
     7:
     0.325590,0.370601,0.071021,0.077478,0.000000,353.000000,342.000000,11.000000,12.000000,0.000000,0.000000,0.325590,0.370601,0.071021,0.077478,0.000000,353.000000,342.000000,11.000000,12.000000,0.000000,0.000000:
// measure 0
0000
0000
0000
0000
,  // measure 1
0000
0000
0000
0000
,  // measure 2
0000
0000
0000
0000
,  // measure 3
0000
0000
0000
0000
,  // measure 4
1000
0000
0001
0000
0010
0100
0010
0000
,  // measure 5
0001
0000
1000
0000
0010
0100
0010
0000
,  // measure 6
1000
0000
0001
0000
0010
0100
0010
0000
,  // measure 7
0001
0000
1000
0000
0010
0100
0010
0000
,  // measure 8
1000
0000
0001
0000
0100
1000
0100
0000
,  // measure 9
1000
0000
0001
0000
0100
1000
0100
0000
,  // measure 10
0001
0000
1000
0000
0100
0001
0100
0000
,  // measure 11
0001
0000
1000
0000
0100
0001
0100
0000
,  // measure 12
2020
0000
0000
0000
,  // measure 13
0000
0000
0000
0000
,  // measure 14
0000
0000
0000
0000
,  // measure 15
0000
0000
0000
0000
,  // measure 16
3030
0000
0000
0000
,  // measure 17
0000
0000
0000
0000
,  // measure 18
0000
0000
0000
0000
,  // measure 19
0000
0000
0000
0000
,  // measure 20
1000
1000
1000
0000
0001
0001
0001
0000
,  // measure 21
1000
1000
1000
0000
0001
0001
0001
0000
,  // measure 22
1000
0100
1000
0000
0001
0100
0001
0000
,  // measure 23
1000
0100
1000
0000
0001
0100
0001
0000
,  // measure 24
0010
0010
0010
0000
0100
0100
0100
0000
,  // measure 25
1000
0010
0001
0000
0001
0010
1000
0000
,  // measure 26
0010
0010
0010
0000
0100
0100
0100
0000
,  // measure 27
0001
0100
1000
0000
1000
0100
0001
0000
,  // measure 28
1000
0100
1000
0000
0001
0010
0001
0000
,  // measure 29
1000
0010
1000
0000
0001
0100
0001
0000
,  // measure 30
1000
0010
0100
0000
0010
1000
0100
0000
,  // measure 31
0010
0001
0100
0000
0010
1000
0001
0000
,  // measure 32
0100
0010
1000
0000
0100
0010
0001
0000
,  // measure 33
1000
0010
0100
0000
0001
0010
0100
0000
,  // measure 34
1000
0001
0100
0000
0010
1000
0001
0000
,  // measure 35
0010
0100
1000
0000
0001
1000
0010
0000
,  // measure 36
0100
0001
0010
0000
0100
1000
0010
0000
,  // measure 37
1000
0010
0100
0000
0001
0010
0100
0000
,  // measure 38
1000
0001
0100
0000
0010
1000
0100
0000
,  // measure 39
0010
0001
0100
0000
0010
1000
0001
0000
,  // measure 40
0010
0100
0010
0000
0001
1000
0001
0000
,  // measure 41
1000
0001
0100
0010
1000
0001
1000
0000
,  // measure 42
2002
3003
0220
0330
,  // measure 43
2002
3003
0220
0330
,  // measure 44
1001
0100
0001
0100
0001
0000
0100
0000
,  // measure 45
1000
0100
1000
0100
1000
0000
0100
0000
,  // measure 46
0001
0100
0001
0100
0001
0000
0100
0000
,  // measure 47
1000
0100
1000
0100
1000
0000
0100
0000
,  // measure 48
0001
0100
0001
0000
1000
0100
1000
0000
,  // measure 49
0001
0100
0001
0000
1000
0100
1000
0000
,  // measure 50
0001
0100
0001
0000
1000
0100
1000
0000
,  // measure 51
0001
0100
0001
0000
1000
0100
1000
0000
,  // measure 52
1000
0001
0010
0000
0010
0100
1000
0000
,  // measure 53
1000
0010
0100
0000
0100
0001
0010
0000
,  // measure 54
0010
0001
0100
0000
0010
1000
0001
0000
,  // measure 55
0010
0100
1000
0000
0010
1000
0100
0000
,  // measure 56
0010
0001
0100
0000
0010
1000
1001
0000
,  // measure 57
1000
0010
0100
0000
0010
0100
1001
0000
,  // measure 58
0100
0001
0010
0000
0100
0010
1001
0000
,  // measure 59
0001
0010
0100
0000
0010
0001
1001
0000
,  // measure 60
0001
0100
0001
0000
1000
0010
0100
0001
,  // measure 61
1000
0001
1000
0000
0001
0100
0010
0000
,  // measure 62
1000
0100
0010
0000
0001
1000
0100
0010
,  // measure 63
0001
1000
0001
0000
1000
0010
1000
0000
,  // measure 64
0001
0100
0010
0000
1000
0100
0010
0001
,  // measure 65
0100
0010
0100
0000
0001
0100
0001
0000
,  // measure 66
1000
0010
0100
0000
0010
1000
0100
0010
,  // measure 67
0001
0100
0001
0000
1000
0010
1000
0000
,  // measure 68
0220
0000
0000
0330
,  // measure 69
0100
0000
0001
0000
0010
1000
0100
0000
,  // measure 70
0001
0000
0100
0000
1000
0010
0001
0000
,  // measure 71
0100
0000
1000
0000
0010
0001
0100
0000
;

//---------------dance-single - ----------------
#NOTES:
     dance-single:
     :
     Easy:
     4:
     0.216753,0.277951,0.109760,0.154955,0.000000,235.000000,218.000000,17.000000,24.000000,0.000000,0.000000,0.216753,0.277951,0.109760,0.154955,0.000000,235.000000,218.000000,17.000000,24.000000,0.000000,0.000000:
// measure 0
0000
0000
0000
0000
,  // measure 1
0000
0000
0000
0000
,  // measure 2
0000
0000
0000
0000
,  // measure 3
0000
0000
0000
0000
,  // measure 4
0100
0001
0010
0001
,  // measure 5
0100
0001
0010
0001
,  // measure 6
0100
1000
0010
1000
,  // measure 7
0100
1000
0010
1000
,  // measure 8
0001
0010
1000
0010
,  // measure 9
0001
0010
1000
0010
,  // measure 10
0100
1000
0100
0001
,  // measure 11
0100
1000
0100
0001
,  // measure 12
0022
0000
0000
0000
,  // measure 13
0000
0000
0000
0000
,  // measure 14
0000
0000
0000
0000
,  // measure 15
0000
0000
0000
0000
,  // measure 16
0033
0000
0000
0000
,  // measure 17
0000
0000
0000
0000
,  // measure 18
0000
0000
0000
0000
,  // measure 19
0000
0000
0000
0000
,  // measure 20
2000
3000
0200
0300
,  // measure 21
0002
0003
0200
0300
,  // measure 22
2000
3000
0200
0300
,  // measure 23
0002
0003
0200
0300
,  // measure 24
2000
3000
0002
0003
,  // measure 25
0020
0030
2000
3000
,  // measure 26
0200
0300
0020
0030
,  // measure 27
2000
3000
0002
0003
,  // measure 28
1001
0010
0001
0010
,  // measure 29
1000
0010
0001
0100
,  // measure 30
1001
0100
0001
0100
,  // measure 31
1000
0100
0001
0100
,  // measure 32
0110
0010
1000
0010
,  // measure 33
0100
0010
1000
0010
,  // measure 34
1010
1000
0001
1000
,  // measure 35
0100
1000
0001
1000
,  // measure 36
0101
0001
1000
0001
,  // measure 37
0100
0001
1000
0001
,  // measure 38
0011
1000
0010
0100
,  // measure 39
0001
0010
0100
1000
,  // measure 40
1001
0100
0010
0100
,  // measure 41
0001
0010
1000
0100
,  // measure 42
0020
0030
0020
0030
,  // measure 43
0020
0030
0020
0030
,  // measure 44
0001
0100
0010
0100
,  // measure 45
1000
0100
0010
0100
,  // measure 46
0001
0100
0010
0100
,  // measure 47
1000
0100
0010
0100
,  // measure 48
0001
0001
0010
0010
,  // measure 49
1000
1000
0010
0010
,  // measure 50
0001
0001
0010
0010
,  // measure 51
1000
1000
0010
0010
,  // measure 52
0001
1000
0001
0100
,  // measure 53
1000
0001
1000
0100
,  // measure 54
0001
0010
0100
1000
,  // measure 55
0001
1000
0010
0100
,  // measure 56
0001
1000
0100
1000
,  // measure 57
0001
0100
0001
1000
,  // measure 58
0010
1000
0100
0010
,  // measure 59
0100
1000
0001
1000
,  // measure 60
0001
0101
1000
0001
,  // measure 61
1000
1100
0001
1000
,  // measure 62
0001
0101
1000
0001
,  // measure 63
1000
1100
0001
1000
,  // measure 64
0010
0110
1000
0001
,  // measure 65
0100
0110
1000
0001
,  // measure 66
0010
0110
0001
1000
,  // measure 67
0100
0110
0001
1000
,  // measure 68
2002
0000
0000
3003
,  // measure 69
0010
0001
0100
1000
,  // measure 70
0010
0001
0100
1000
,  // measure 71
0010
0001
0100
1000
;

//---------------dance-single - ----------------
#NOTES:
     dance-single:
     :
     Beginner:
     2:
     0.140197,0.232433,0.122673,0.064565,0.000000,152.000000,133.000000,19.000000,10.000000,0.000000,0.000000,0.140197,0.232433,0.122673,0.064565,0.000000,152.000000,133.000000,19.000000,10.000000,0.000000,0.000000:
// measure 0
0000
0000
0000
0000
,  // measure 1
0000
0000
0000
0000
,  // measure 2
0000
0000
0000
0000
,  // measure 3
0000
0000
0000
0000
,  // measure 4
0001
0000
0010
0000
,  // measure 5
1000
0000
0010
0000
,  // measure 6
0001
0000
0010
0000
,  // measure 7
0100
0000
1000
0000
,  // measure 8
0001
0000
0100
0000
,  // measure 9
0010
0000
0100
0000
,  // measure 10
0001
0000
1000
0000
,  // measure 11
0100
0000
0010
0000
,  // measure 12
0100
0000
0000
0000
,  // measure 13
0000
0000
0000
0000
,  // measure 14
0000
0000
0000
0000
,  // measure 15
0000
0000
0000
0000
,  // measure 16
0000
0000
0000
0000
,  // measure 17
0000
0000
0000
0000
,  // measure 18
0000
0000
0000
0000
,  // measure 19
0000
0000
0000
0000
,  // measure 20
0001
0000
0001
0000
,  // measure 21
0001
0000
0001
0000
,  // measure 22
0001
0000
0001
0000
,  // measure 23
0001
0000
0001
0000
,  // measure 24
1000
0000
1000
0000
,  // measure 25
1000
0000
1000
0000
,  // measure 26
1000
0000
1000
0000
,  // measure 27
1000
0000
1000
0000
,  // measure 28
1001
0000
0100
0000
,  // measure 29
0010
0000
0100
0000
,  // measure 30
0001
0000
0010
0000
,  // measure 31
1000
0000
0010
0000
,  // measure 32
0001
0000
0100
0000
,  // measure 33
1000
0000
0010
0000
,  // measure 34
0100
0000
0010
0000
,  // measure 35
1000
0000
0001
0000
,  // measure 36
2002
0000
0000
0000
,  // measure 37
0000
3003
0000
0110
,  // measure 38
0220
0000
0000
0000
,  // measure 39
0000
0330
0000
1001
,  // measure 40
2002
0000
0000
0000
,  // measure 41
0000
0000
3003
0000
,  // measure 42
0020
0030
0020
0030
,  // measure 43
0020
0030
0020
0030
,  // measure 44
0001
0001
0001
0001
,  // measure 45
0001
0001
0001
0001
,  // measure 46
0001
0001
0001
0001
,  // measure 47
0001
0001
0001
0000
,  // measure 48
0100
0100
0100
0100
,  // measure 49
0100
0100
0100
0100
,  // measure 50
0100
0100
0100
0100
,  // measure 51
0100
0100
0100
0000
,  // measure 52
0010
0010
0010
0000
,  // measure 53
1000
1000
1000
0000
,  // measure 54
0100
0100
0100
0000
,  // measure 55
0010
0010
0010
0000
,  // measure 56
0001
0001
0001
0000
,  // measure 57
1000
1000
1000
0000
,  // measure 58
0100
0100
0100
0000
,  // measure 59
0010
0010
0010
0000
,  // measure 60
0001
0000
1001
0000
,  // measure 61
0100
0000
1001
0000
,  // measure 62
1000
0000
1001
0000
,  // measure 63
0010
0000
1001
0000
,  // measure 64
0110
0000
1001
0000
,  // measure 65
0110
0000
1001
0000
,  // measure 66
1001
0000
0110
0000
,  // measure 67
1001
0000
0110
0000
,  // measure 68
1001
0000
0000
0000
,  // measure 69
0000
0000
0000
0001
,  // measure 70
0001
0000
0000
0000
,  // measure 71
0000
0000
0000
1000
,  // measure 72
1000
0000
0000
0000
;
