#TITLE:Step In;
#SUBTITLE:;
#ARTIST:Ryan Henwood;
#TITLETRANSLIT:;
#SUBTITLETRANSLIT:;
#ARTISTTRANSLIT:;
#GENRE:Lovers In A Dangerous Spacetime;
#CREDIT:;
#BANNER:Step In-bn.jpg;
#BACKGROUND:Step In-bg.jpg;
#LYRICSPATH:;
#CDTITLE:;
#MUSIC:Step In.mp3;
#OFFSET:-0.004000;
#SAMPLESTART:92.559952;
#SAMPLELENGTH:13.714287;
#LASTBEATHINT:340.119385;
#SELECTABLE:YES;
#BPMS:0.000000=140.000000
;
#STOPS:
;
#BGCHANGES:;
#KEYSOUNDS:;
#ATTACKS:;

//---------------dance-single - ----------------
#NOTES:
     dance-single:
     :
     Hard:
     8:
     0.506548,0.505232,0.529530,0.254710,0.006703,529.000000,450.000000,79.000000,38.000000,0.000000,0.000000,0.506548,0.505232,0.529530,0.254710,0.006703,529.000000,450.000000,79.000000,38.000000,0.000000,0.000000:
// measure 0
0000
0000
0000
0000
,  // measure 1
0000
0000
0000
0000
,  // measure 2
0000
0000
0000
0000
,  // measure 3
0000
0000
0000
0000
,  // measure 4
0001
0100
1000
0100
0110
0000
1001
0000
,  // measure 5
1000
0100
0001
0100
0110
0000
1001
0000
,  // measure 6
0001
0010
1000
0010
0110
0000
1001
0000
,  // measure 7
1000
0010
0001
0010
0110
0000
1001
0000
,  // measure 8
0001
0010
0100
1000
1100
0000
0011
0000
,  // measure 9
1000
0010
0100
0001
0101
0000
1010
0000
,  // measure 10
0001
0010
0100
1000
1100
0000
0011
0000
,  // measure 11
1000
0010
0100
0001
0202
0000
0303
0000
,  // measure 12
2010
0000
0100
0000
3010
1000
0100
0010
,  // measure 13
0000
0010
0001
1000
0000
0001
0100
1000
,  // measure 14
0000
1000
0100
0001
0000
0001
0010
1000
,  // measure 15
0000
1000
0010
0001
0000
0001
1000
0010
,  // measure 16
0200
0000
0001
0000
0310
0100
0010
1000
,  // measure 17
0000
0001
0010
1000
0000
1000
0010
0001
,  // measure 18
0000
0001
0100
1000
0000
1000
0100
0001
,  // measure 19
0000
0001
0010
0100
1000
0010
0001
0010
,  // measure 20
1100
0000
0101
0000
1000
0010
0100
0001
,  // measure 21
1000
0010
0001
0010
0100
1000
0010
0100
,  // measure 22
0001
1000
0100
0010
0001
0100
1000
0100
,  // measure 23
0001
0010
0100
1000
0001
0010
1000
0010
,  // measure 24
0001
0010
0001
0010
1000
0010
1000
0010
,  // measure 25
1000
0100
1000
0100
0001
0100
0001
0100
,  // measure 26
0001
1000
0001
1000
0010
1000
0010
1000
,  // measure 27
0010
0001
0010
0001
1000
0001
1000
0001
,  // measure 28
0200
0000
0010
0000
0301
0100
0001
0000
,  // measure 29
0020
0000
0130
0000
1000
0100
1000
0000
,  // measure 30
1001
0010
0101
0010
,  // measure 31
1001
0000
0010
0000
0001
0100
1000
0100
,  // measure 32
1001
0010
1100
0010
,  // measure 33
1001
0000
0010
0000
1000
0100
0001
0100
,  // measure 34
1001
0010
0101
0010
,  // measure 35
1001
0000
0010
0000
1000
0100
0001
0100
,  // measure 36
1001
0100
1010
0100
,  // measure 37
0011
0000
0100
0000
0010
0001
0010
1000
,  // measure 38
0020
0000
0130
0000
0011
1000
0010
0000
,  // measure 39
1000
0001
0100
0000
1010
0001
0010
0000
,  // measure 40
0001
1000
0100
0000
1100
0001
0100
0000
,  // measure 41
0010
1000
0110
0000
1001
0010
0100
0000
,  // measure 42
0001
0100
0001
0000
1100
0001
0100
0000
,  // measure 43
0010
1000
0001
0000
0011
0100
0010
0000
,  // measure 44
1000
0100
0010
0000
1100
0001
1000
0000
,  // measure 45
0001
0100
0110
0000
0101
1000
0100
0000
,  // measure 46
0010
0000
0001
1000
0110
0000
0101
0000
,  // measure 47
1000
0001
1000
0100
0200
0000
1300
0000
,  // measure 48
0010
0000
0001
1000
0201
0000
0310
0000
,  // measure 49
1000
0001
0100
0010
0200
0000
0301
0000
,  // measure 50
0010
0000
0001
1000
0210
0000
1300
0000
,  // measure 51
0010
1000
0001
0100
0210
0000
1000
0000
,  // measure 52
0301
1010
0022
0033
,  // measure 53
0001
0010
0100
1000
0010
0000
0100
0000
,  // measure 54
0101
0000
1000
0001
0200
0010
0310
0000
,  // measure 55
1000
0001
1000
0100
0110
0000
1100
0000
,  // measure 56
0010
0000
1000
0001
0200
0010
0310
0000
,  // measure 57
1000
0001
0100
0010
0110
0000
0101
0000
,  // measure 58
0010
0000
1000
0001
0100
0000
1001
0000
,  // measure 59
0001
0100
0001
0000
1000
0000
0100
0000
0210
0000
0000
0000
0001
0000
0000
0000
,  // measure 60
1300
0011
2020
3030
,  // measure 61
1000
0010
0001
0100
0010
0000
1001
0000
,  // measure 62
1010
0000
0010
1000
0200
0010
0310
0000
,  // measure 63
0001
0010
0001
1000
1100
0000
1001
0000
,  // measure 64
0100
0000
0010
0001
0200
0010
0310
0000
,  // measure 65
0001
0010
1000
0100
1100
0000
1010
0000
,  // measure 66
0100
0000
0010
0001
2100
0000
3001
0000
,  // measure 67
0100
0001
0100
0000
0001
0000
0010
0000
2100
0000
0000
0000
0001
0000
0000
0000
,  // measure 68
3010
0101
2002
3003
,  // measure 69
0001
0010
1000
0100
0010
0000
1001
0000
,  // measure 70
0201
0000
0301
0100
1000
0100
0020
0000
,  // measure 71
1030
0100
0001
0100
0020
0000
0031
0000
,  // measure 72
0101
0000
1000
0010
0001
0010
0200
0000
,  // measure 73
0301
1000
0010
0100
0020
0000
1030
0000
,  // measure 74
0100
0000
0010
0001
0100
0001
0010
0000
,  // measure 75
0100
0000
1000
0001
2100
0000
3010
1000
,  // measure 76
0100
0000
0010
0001
0100
0010
1000
0000
,  // measure 77
0001
1001
0210
0301
,  // measure 78
0012
1000
0010
0103
,  // measure 79
0201
1000
0310
0101
,  // measure 80
1020
0001
0130
0110
,  // measure 81
1002
0010
1000
0103
,  // measure 82
0202
0000
0000
0000
,  // measure 83
0000
0000
0000
0303
;

//---------------dance-single - ----------------
#NOTES:
     dance-single:
     :
     Medium:
     6:
     0.315037,0.392958,0.180978,0.623370,0.000000,329.000000,302.000000,27.000000,93.000000,0.000000,0.000000,0.315037,0.392958,0.180978,0.623370,0.000000,329.000000,302.000000,27.000000,93.000000,0.000000,0.000000:
0000
0000
0000
0000
,
0000
0000
0000
0000
,
0000
0000
0000
0000
,
0000
0000
0000
0000
,
2000
3000
1001
0110
,
0002
0003
1001
0110
,
2000
3000
1010
0011
,
0002
0003
0011
1010
,
0200
0300
1100
0101
,
0200
0300
0110
1001
,
0020
0030
1010
0101
,
0020
0000
0030
0000
2002
0000
0000
3003
,
0010
0000
1000
0000
0100
0010
0100
0000
,
0010
0001
1000
0001
,
0100
0010
1000
0010
,
0001
0010
1000
0100
,
0010
0000
0001
0000
1000
0001
0100
0000
,
0010
1000
0100
0010
,
0001
0010
0100
1000
,
0001
0010
0100
1000
,
0001
0000
0100
0000
1000
0100
0001
0000
,
0010
0100
0010
0001
,
1000
0100
1000
0000
0010
1000
0010
0000
,
0001
0100
0001
0000
0010
0001
0010
0000
,
2002
0000
0003
0200
,
0300
0020
0000
0000
,
0000
0000
3000
0200
,
0030
0002
0000
0303
,
0010
0200
0310
2000
,
3001
0200
1300
0200
,
0301
1000
0010
0100
,
0001
0000
0010
0000
0100
1000
0100
1000
,
0100
0010
0001
1000
,
0010
0000
0100
0000
0001
0100
0001
0100
,
0001
0010
0100
1000
,
0010
0000
0100
0000
0001
1000
0001
1000
,
0001
0010
1000
0010
,
0001
0000
0100
0000
0010
1000
0100
1000
,
0020
0100
1000
0130
,
0002
0010
1000
0013
,
0200
0001
0010
0301
,
2000
0010
0001
3010
,
0200
1000
0001
1300
,
0020
0100
1000
0130
,
2000
0001
0010
3001
,
0020
0100
0130
0000
,
2000
0000
3010
2000
0100
3000
2000
0000
,
3010
1000
0100
2000
0000
3000
0000
0000
,
0002
0000
0013
0002
0100
0003
0002
0000
,
0013
0001
0100
0002
0000
0003
0000
0000
,
0200
0000
0310
0200
0001
0300
0200
0000
,
0310
0100
0001
0200
0000
0300
0000
0000
,
0010
0110
2002
3003
,
0001
1000
0100
0010
0002
0000
1003
0000
,
0020
0000
0031
0020
1000
0030
0020
0000
,
0031
0010
1000
0020
0000
0030
0000
0000
,
0200
0000
0301
0200
1000
0300
0200
0000
,
0301
0100
1000
0200
0000
0300
0000
0000
,
0002
0000
1003
0002
0100
0003
0002
0000
,
1003
0001
0100
0002
0000
0003
0000
0000
,
1000
1001
0220
0330
,
0100
0010
1000
0001
0200
0000
0310
0000
,
0200
0000
1300
0200
0001
0300
0200
0000
,
1300
0100
0001
0200
0000
0300
0000
0000
,
0020
0000
1030
0020
0001
0030
0020
0000
,
1030
0010
0001
0020
0000
0030
0000
0000
,
2000
0000
3001
2000
0100
3000
2000
0000
,
3001
1000
0100
2000
0000
3000
0000
0000
,
0001
1001
0220
0330
,
0010
0100
0001
1000
0020
0000
0130
0000
,
0002
0100
1000
0200
,
0003
0010
0020
0330
,
2000
0100
0001
0200
,
3000
0010
0020
0330
,
0002
0010
1000
0020
,
0003
0100
0200
0330
,
2000
0100
0001
0200
,
3000
0010
0020
0330
,
0110
1000
0100
1000
,
0220
0000
0000
0330
,
2002
0000
0000
3003
,
2020
0000
0000
3030
,
0202
0000
0000
0000
,
0000
0000
0000
0303
;

//---------------dance-single - ----------------
#NOTES:
     dance-single:
     :
     Easy:
     3:
     0.195342,0.252616,0.006703,0.589856,0.000000,204.000000,203.000000,1.000000,88.000000,0.000000,0.000000,0.195342,0.252616,0.006703,0.589856,0.000000,204.000000,203.000000,1.000000,88.000000,0.000000,0.000000:
0000
0000
0000
0000
,
0000
0000
0000
0000
,
0000
0000
0000
0000
,
0000
0000
0000
0000
,
0010
0000
2000
3002
,
0003
0000
0002
2003
,
3000
0000
0020
0230
,
0300
0000
0200
0320
,
0030
0000
2000
3002
,
0003
0000
0002
2003
,
3000
0000
0002
0023
,
0030
0000
2002
3003
,
0200
0000
0000
0320
,
0000
0000
1030
0100
,
0020
0000
0000
0032
,
0000
1003
0020
0030
,
0200
0000
0000
0302
,
0000
0023
0000
0000
,
0230
0000
0000
2300
,
0000
3020
0000
0000
,
0230
0000
0000
0302
,
0000
0000
0023
0000
,
0230
0300
2000
3000
,
0200
0300
0002
0003
,
0200
0000
0000
0020
,
0300
0002
0000
0030
,
2000
0000
0003
0020
,
3000
0200
0000
0330
,
0002
0003
0020
0030
,
2000
3000
0020
0030
,
0002
0003
0200
0300
,
2000
3000
0100
0001
,
0020
0030
0200
0300
,
2000
3000
0010
0100
,
0002
0003
0020
0030
,
0200
0300
1000
0001
,
0200
0300
0020
0030
,
2000
3000
0100
0010
,
0002
0003
0010
0100
,
2000
3000
0100
0010
,
0002
0003
1000
0010
,
0200
0300
0010
0100
,
0002
0003
1000
0001
,
0200
0300
0001
1000
,
0200
0300
0010
0100
,
1000
0001
2000
3000
,
0010
1000
0100
0100
,
0010
0001
0200
0300
,
0010
0100
0001
0001
,
0100
0010
2000
3000
,
0001
0010
0100
1000
,
0100
0010
0002
0003
,
1000
0010
0200
0300
,
0001
0010
0100
1000
,
0010
0001
0100
0100
,
0010
1000
0200
0300
,
0010
0100
1000
1000
,
0100
0010
0002
0003
,
1000
0010
0100
0001
,
0100
0010
2000
3000
,
0001
0010
0200
0300
,
1000
0010
0100
0001
,
0100
0010
1000
1000
,
0100
0010
0002
0003
,
0010
0100
1000
1000
,
0100
0010
0002
0003
,
0100
0010
1000
0001
,
1000
0100
0020
0030
,
0001
1000
0200
0300
,
0010
0001
1000
0100
,
1000
0100
0001
0200
,
0000
0000
0020
0330
,
0001
0100
1000
0200
,
0000
0000
0020
0330
,
1000
0010
0001
0020
,
0000
0000
0200
0330
,
0001
0100
1000
0200
,
0000
0000
0020
0330
,
1000
0001
0100
0001
,
2000
0000
0000
0000
,
0002
0000
0000
3000
,
0020
0000
0000
0003
,
0200
0000
0000
0000
,
0000
0000
0000
0330
;

//---------------dance-single - ----------------
#NOTES:
     dance-single:
     :
     Beginner:
     1:
     0.139803,0.166902,0.000000,0.241305,0.000000,146.000000,146.000000,0.000000,36.000000,0.000000,0.000000,0.139803,0.166902,0.000000,0.241305,0.000000,146.000000,146.000000,0.000000,36.000000,0.000000,0.000000:
0000
0000
0000
0000
,
0000
0000
0000
0000
,
0000
0000
0000
0000
,
0000
0000
0000
0000
,
0010
0000
1000
1000
,
0000
0000
0001
0001
,
0000
0000
0010
0010
,
0000
0000
0100
0100
,
0000
0000
1000
1000
,
0000
0000
0001
0001
,
0000
0000
0100
0100
,
0000
0000
0020
0030
,
2000
0000
3000
0200
,
0000
0300
0010
0000
,
0002
0000
0003
0020
,
0000
0030
0100
0000
,
2000
0000
3000
0020
,
0030
0200
0000
0300
,
0002
0000
0003
0200
,
0300
0020
0000
0030
,
2000
0000
3000
0200
,
0000
0300
0020
0030
,
0002
0003
2000
3000
,
0020
0030
0200
0300
,
0001
0000
0001
0000
,
1000
0000
0100
0000
,
1000
0000
1000
0000
,
0001
0000
0100
0000
,
0001
0000
0000
0000
,
0010
0000
0000
0000
,
0100
0000
0100
0000
,
0100
0000
1000
0000
,
0001
0000
0001
0000
,
0001
0000
0100
0000
,
0010
0000
0010
0000
,
0010
0000
1000
0000
,
0100
0000
0100
0000
,
0010
0000
0001
0000
,
1000
0000
0010
0000
,
0001
0000
0010
0000
,
1000
0000
0100
0000
,
0001
0000
0100
0000
,
1000
0000
0001
0000
,
1000
0000
0001
0000
,
0100
0000
0010
0000
,
0100
0000
0010
0000
,
1000
0000
0100
0000
,
0010
0000
0001
0000
,
0010
0000
0100
0000
,
1000
0000
0100
0000
,
0010
0000
0001
0000
,
1000
0000
0100
0000
,
0010
0000
0001
0000
,
1000
1000
1000
0000
,
0010
0000
0100
0000
,
0001
0000
0100
0000
,
0010
0000
1000
0000
,
0001
0000
0100
0000
,
0010
0000
1000
0000
,
0001
0000
0100
0000
,
0010
0000
1000
0000
,
0001
0001
0001
0000
,
1000
0000
0100
0000
,
0010
0000
0001
0000
,
1000
0000
0100
0000
,
0010
0000
0001
0000
,
0010
0000
0100
0000
,
1000
0000
0001
0000
,
0010
0000
0100
0000
,
1000
1000
1000
0000
,
0002
0000
0003
0200
,
0000
0300
0020
0030
,
2000
0000
3000
0200
,
0000
0300
0020
0030
,
0002
0000
0003
0200
,
0000
0300
0020
0030
,
2000
3000
0020
0030
,
0200
0300
0002
0003
,
0020
0000
0030
0000
,
0200
0000
0300
0000
,
2000
0000
3000
0000
,
0020
0000
0030
0000
,
0200
0000
0000
0000
,
0300
0000
0000
0000
;

//---------------dance-single - ----------------
#NOTES:
     dance-single:
     :
     Challenge:
     9:
     0.538148,0.561368,0.569747,0.375363,0.026812,562.000000,477.000000,85.000000,56.000000,0.000000,0.000000,0.538148,0.561368,0.569747,0.375363,0.026812,562.000000,477.000000,85.000000,56.000000,0.000000,0.000000:
// measure 0
0000
0000
0000
0000
,  // measure 1
0000
0000
0000
0000
,  // measure 2
0000
0000
0000
0000
,  // measure 3
0000
0000
0000
0000
,  // measure 4
1000
0010
0001
0010
1001
0000
0110
0000
,  // measure 5
0001
0010
1000
0010
1001
0000
0110
0000
,  // measure 6
1000
0100
0001
0100
1001
0000
0110
0000
,  // measure 7
0001
0100
1000
0100
1001
0000
0110
0000
,  // measure 8
1000
0100
0010
0001
1100
0000
0011
0000
,  // measure 9
0001
0100
0010
1000
0101
0000
1010
0000
,  // measure 10
1000
0100
0010
0001
1100
0000
0011
0000
,  // measure 11
0001
0100
0010
1000
0202
0000
0303
0000
,  // measure 12
2010
0000
0100
0000
3010
1000
0100
0010
,  // measure 13
0000
0010
0001
1000
0000
0001
0100
1000
,  // measure 14
0000
1000
0100
0001
0000
0001
0010
1000
,  // measure 15
0000
1000
0010
0001
0000
0001
1000
0010
,  // measure 16
0200
0000
0001
0000
0310
0100
0010
1000
,  // measure 17
0000
0001
0010
1000
0000
1000
0010
0001
,  // measure 18
0000
0001
0100
1000
0000
1000
0100
0001
,  // measure 19
0000
0001
0010
0100
1000
0010
0001
0010
,  // measure 20
1100
0000
0101
0000
1000
0010
0100
0001
,  // measure 21
1000
0010
0001
0010
0100
1000
0010
0100
,  // measure 22
0002
2003
3200
0320
0032
0203
2300
3200
,  // measure 23
0302
0023
0230
2300
3002
0023
2030
3020
,  // measure 24
0031
0010
0001
0010
0100
0001
0100
0001
,  // measure 25
1000
0100
1000
0100
0010
1000
0010
1000
,  // measure 26
0100
1000
0100
1000
0010
0001
0010
0001
,  // measure 27
0010
0100
0010
0100
0001
1000
0001
1000
,  // measure 28
0200
0000
0010
0000
0301
0100
0001
0000
,  // measure 29
0120
0000
0130
0000
1000
0010
0001
0000
,  // measure 30
1001
0000
0010
0010
0101
0000
0010
0010
,  // measure 31
1001
0000
0010
0010
0001
0100
0010
1000
,  // measure 32
1100
0000
0010
0010
1001
0000
0010
0010
,  // measure 33
0101
0000
0010
0010
1000
0100
0010
0100
,  // measure 34
0101
0000
0010
0010
1001
0000
0010
0010
,  // measure 35
1100
0000
0010
0010
0001
0100
0010
0100
,  // measure 36
1001
0100
1010
0100
,  // measure 37
0011
0000
1000
0000
0100
0010
1001
0100
,  // measure 38
0020
0000
0130
0000
0011
1000
0010
0000
,  // measure 39
1000
0001
0100
0000
1010
0001
0010
0000
,  // measure 40
0001
1000
0100
0000
1100
0001
0100
0000
,  // measure 41
0010
1000
0110
0000
1001
0010
0100
0000
,  // measure 42
0001
0100
1000
0100
1001
0001
1000
0000
,  // measure 43
1000
0010
0001
0010
1001
1000
0001
0000
,  // measure 44
1000
0100
0010
0100
1100
0001
1000
0000
,  // measure 45
0001
0100
0110
0000
0101
1000
0100
0000
,  // measure 46
0010
0000
0001
1000
0110
0000
0101
0000
,  // measure 47
1000
0001
1000
0100
0210
0000
1300
0000
,  // measure 48
0010
0000
0001
1000
0201
0000
0310
0000
,  // measure 49
1000
0001
0100
0010
0210
0000
0301
0000
,  // measure 50
0010
0000
0001
1000
0210
0000
1300
0000
,  // measure 51
0010
1000
0001
0100
0210
0000
1000
0000
,  // measure 52
0301
1010
0022
0033
,  // measure 53
0001
0010
1000
0100
0010
0000
1001
0000
,  // measure 54
1100
0000
1000
0001
0120
0100
0100
0130
,  // measure 55
0001
1000
0001
0100
0110
0000
0101
0000
,  // measure 56
0010
0000
1000
0001
1200
1000
1000
1300
,  // measure 57
0001
0000
1000
0000
0100
0000
0010
0000
0001
1000
0100
1000
0001
0000
0001
0000
,  // measure 58
0010
0000
1000
0001
0210
0000
0301
0000
,  // measure 59
0010
0001
1000
0010
0100
0000
0001
0000
0210
0000
0000
0000
1000
0000
0000
0000
,  // measure 60
0301
0011
2020
3030
,  // measure 61
1000
0010
0001
0100
0010
0000
1001
0000
,  // measure 62
1010
0000
0010
1000
0201
0001
0001
0301
,  // measure 63
1000
0010
1000
0001
0101
0000
1001
0000
,  // measure 64
0100
0000
0010
0001
2010
0010
0010
3010
,  // measure 65
0001
0000
0010
0000
1000
0000
0100
0000
0010
1000
0001
1000
0100
0000
0100
0000
,  // measure 66
0010
0000
0001
1000
0102
0000
1003
0000
,  // measure 67
0100
0001
0010
0100
1000
0000
0010
0000
2100
0000
0000
0000
0010
0000
0000
0000
,  // measure 68
3100
0011
0202
0303
,  // measure 69
0010
1000
1000
0001
0010
0000
0110
0000
,  // measure 70
1200
0000
0301
0100
1000
0100
0020
0000
,  // measure 71
1030
0010
0001
0010
0200
0000
1300
0000
,  // measure 72
0101
0000
1000
0100
0001
0100
0020
0000
,  // measure 73
1030
0010
0001
0010
2000
0000
3001
0000
,  // measure 74
0101
0000
0100
1000
0100
0001
0020
0000
,  // measure 75
0130
1000
0001
1000
1200
0000
0310
0001
,  // measure 76
0100
0000
0010
1000
0001
0010
0010
0000
,  // measure 77
0001
1001
0210
0301
,  // measure 78
0012
1000
0010
0103
,  // measure 79
0201
1000
0310
0101
,  // measure 80
1020
0001
0130
0110
,  // measure 81
1002
0010
1000
0103
,  // measure 82
0202
0000
0000
0000
,  // measure 83
0000
0000
0000
0303
;
