#TITLE:Spin Spin Sugar (Armand's Dark Garage Mix);
#SUBTITLE:;
#ARTIST:Sneaker Pimps;
#TITLETRANSLIT:;
#SUBTITLETRANSLIT:;
#ARTISTTRANSLIT:;
#GENRE:DDR Extreme 2;
#CREDIT:;
#BANNER:Spin Spin Sugar (Armand's Dark Garage Mix)-bn.jpg;
#BACKGROUND:Spin Spin Sugar (Armand's Dark Garage Mix)-bg.jpg;
#LYRICSPATH:;
#CDTITLE:;
#MUSIC:Spin Spin Sugar (Armand's Dark Garage Mix).mp3;
#OFFSET:1.259000;
#SAMPLESTART:17.350000;
#SAMPLELENGTH:12.000000;
#LASTBEATHINT:0.475227;
#SELECTABLE:YES;
#DISPLAYBPM:128.000000;
#BPMS:0.000000=128.990005
;
#STOPS:
;
#BGCHANGES:;
#KEYSOUNDS:;
#ATTACKS:;

//---------------dance-single - ----------------
#NOTES:
     dance-single:
     :
     Beginner:
     1:
     0.126046,0.152355,0.000000,0.092336,0.000000,86.000000,86.000000,0.000000,9.000000,0.000000,0.000000,0.126046,0.152355,0.000000,0.092336,0.000000,86.000000,86.000000,0.000000,9.000000,0.000000,0.000000:
0000
0000
0000
0000
,
0000
0000
0000
0000
,
0010
0000
0010
0000
,
0010
0000
0010
0000
,
0001
0000
1000
0000
,
0001
0000
1000
0000
,
0100
0000
0100
0000
,
0100
0000
0100
0000
,
1000
0000
0001
0000
,
1000
0000
0001
0000
,
1000
1000
0000
0000
,
0100
0100
0000
0000
,
0001
0001
0000
0000
,
0010
0010
0010
0000
,
1000
1000
0000
0000
,
0100
0100
0000
0000
,
0001
0001
0000
0000
,
0010
0010
0010
0000
,
0001
0001
0000
0000
,
0100
0100
0000
0000
,
1000
1000
0000
0000
,
0010
0010
0010
0000
,
0001
0001
0000
0000
,
0100
0100
0000
0000
,
1000
1000
0000
0000
,
0010
0010
0010
0000
,
0020
0000
0000
0030
,
0000
0000
0001
0001
,
0002
0000
0000
0003
,
0000
0000
0100
0100
,
0200
0000
0000
0300
,
0000
0000
1000
1000
,
2000
0000
0000
3000
,
0000
0000
0000
0000
,
0020
0000
0000
0030
,
0000
0000
0000
0000
,
2000
0000
3000
0000
,
0002
0000
0003
0000
,
0200
0000
0000
0300
,
0000
0000
0000
0010
,
0020
0000
0000
0030
,
0000
0000
0000
0000
,
1000
1000
0000
0000
,
0100
0100
0000
0000
,
0001
0001
0000
0000
,
0010
0010
0010
0000
,
1000
1000
0000
0000
,
0100
0100
0000
0000
,
0001
0001
0000
0000
,
0010
0010
0010
0000
;

//---------------dance-single - ----------------
#NOTES:
     dance-single:
     :
     Easy:
     4:
     0.184672,0.204165,0.010260,0.348825,0.000000,126.000000,125.000000,1.000000,34.000000,0.000000,0.000000,0.184672,0.204165,0.010260,0.348825,0.000000,126.000000,125.000000,1.000000,34.000000,0.000000,0.000000:
0000
0000
0000
0000
,
0000
0000
0000
0000
,
1000
0000
1000
0000
,
1000
0001
1000
0001
,
0100
0000
0100
0000
,
0100
0010
0100
0010
,
1000
0000
1000
0000
,
1000
0100
1000
0100
,
0010
0000
0010
0000
,
0010
0001
0010
0001
,
1000
0100
1000
0000
,
0001
0100
0001
0000
,
0100
0010
0100
0000
,
0002
2003
3002
0003
,
1000
0010
1000
0000
,
0001
0010
0001
0000
,
1000
0001
1000
0000
,
0020
0230
0320
0030
,
1000
0001
1000
0000
,
0010
0100
0010
0000
,
1000
0100
1000
0000
,
0002
0203
0302
0003
,
1000
0010
0100
0000
,
0001
0010
0100
0000
,
1000
0001
1000
0000
,
0020
0230
0320
0030
,
2000
0002
0000
3000
,
0003
0000
1000
0001
,
0020
0200
0030
0300
,
2000
0000
0000
3000
,
0002
2000
0000
0003
,
3000
0000
0001
0200
,
0020
0000
0000
0000
,
0300
0030
1000
0001
,
2002
0000
0000
3003
,
0000
0000
0001
1000
,
0200
0000
0310
0001
,
2000
0000
3010
0100
,
0002
0000
1003
0100
,
0020
0000
0000
0031
,
2000
0000
0000
0000
,
0000
0000
0000
3000
,
0001
0010
0001
0000
,
1000
0010
1000
0000
,
0010
0100
0010
0000
,
2000
3002
2003
3000
,
0001
0100
0001
0000
,
1000
0100
1000
0000
,
0001
1000
0001
0000
,
0200
0320
0230
0300
;

//---------------dance-single - ----------------
#NOTES:
     dance-single:
     :
     Medium:
     5:
     0.278474,0.280022,0.123115,0.225710,0.000000,190.000000,178.000000,12.000000,22.000000,0.000000,0.000000,0.278474,0.280022,0.123115,0.225710,0.000000,190.000000,178.000000,12.000000,22.000000,0.000000,0.000000:
0000
0000
0000
0000
,
0000
0000
0000
0000
,
2000
3000
0002
0003
,
1000
0100
0001
0100
,
0020
0030
0200
0300
,
1000
0100
0001
0100
,
2000
3000
0002
0003
,
1000
0010
0001
0010
,
0200
0300
0020
0030
,
1000
0010
0001
0010
,
1000
1000
0100
0100
,
0001
0001
0010
0010
,
1000
1000
0100
0100
,
1100
0000
0101
0000
0001
1000
0000
0000
,
0001
0001
0010
0010
,
1000
1000
0100
0100
,
0001
0001
0010
0010
,
0011
0000
1010
0000
1000
0001
0000
0000
,
1000
0100
0001
0100
,
1000
0010
0001
0010
,
1000
0100
0001
0100
,
0110
0000
1001
0000
0100
0010
0000
0000
,
0001
0010
1000
0010
,
0001
0100
1000
0100
,
0001
0010
1000
0010
,
0110
0000
1001
0000
0100
0010
0000
0000
,
0002
1000
0000
0100
,
0000
1000
0003
0100
,
0020
1000
0000
0100
,
2030
0010
0000
3001
,
0010
0000
0010
0000
0100
1000
0100
0000
,
0020
0031
2000
3010
,
0010
0000
0010
0000
0100
0001
0100
0000
,
0020
1030
0002
0013
,
2000
0001
0000
0100
,
0000
0001
3000
0100
,
0020
0001
0000
0100
,
0032
0010
0000
1003
,
0010
0000
0010
0000
0100
0001
0100
0000
,
0020
1030
0002
0013
,
0010
0000
0010
0000
0100
1000
0100
0000
,
0020
0031
2000
3010
,
0001
0001
0010
0010
,
1000
1000
0100
0100
,
0001
0001
0010
0010
,
0011
0000
1010
0000
1000
0001
0000
0000
,
1000
1000
0100
0100
,
0001
0001
0010
0010
,
1000
1000
0100
0100
,
1100
0000
0101
0000
0001
1000
0000
0000
;

//---------------dance-single - ----------------
#NOTES:
     dance-single:
     :
     Hard:
     6:
     0.348825,0.357289,0.369344,0.492459,0.000000,238.000000,202.000000,36.000000,48.000000,0.000000,0.000000,0.348825,0.357289,0.369344,0.492459,0.000000,238.000000,202.000000,36.000000,48.000000,0.000000,0.000000:
// measure 0
0000
0000
0000
0000
,  // measure 1
0000
0000
0000
0000
,  // measure 2
0001
0001
1000
1000
,  // measure 3
0200
0302
0023
2030
,  // measure 4
3001
0001
1000
1000
,  // measure 5
0020
0032
0203
2300
,  // measure 6
3001
0001
1000
1000
,  // measure 7
0100
0002
0000
0013
2000
0000
3010
0000
,  // measure 8
0001
0001
1000
1000
,  // measure 9
0010
0002
0000
0103
2000
0000
3100
0000
,  // measure 10
0001
0101
0100
1100
,  // measure 11
1000
1010
0010
0011
,  // measure 12
0001
0101
0100
1100
,  // measure 13
1000
0100
0001
0010
2000
0200
3300
0000
,  // measure 14
1000
1010
0010
0011
,  // measure 15
0001
0101
0100
1100
,  // measure 16
1000
1010
0010
0011
,  // measure 17
0001
0010
1000
0100
0002
0020
0033
0000
,  // measure 18
0100
1100
0001
0101
,  // measure 19
0010
0011
1000
1010
,  // measure 20
0100
1100
0001
0101
,  // measure 21
1000
0100
0010
1000
0002
0020
0033
0000
,  // measure 22
0010
0011
1000
1010
,  // measure 23
0100
1100
0001
0101
,  // measure 24
0010
0011
1000
1010
,  // measure 25
0001
0010
0100
0001
2000
0200
3300
0000
,  // measure 26
0002
0200
0300
2000
,  // measure 27
3000
0020
0003
0130
,  // measure 28
2000
0200
0300
0002
,  // measure 29
0003
0020
3000
0130
,  // measure 30
0001
0010
0001
1000
0020
0000
0230
0000
,  // measure 31
0010
1000
0010
0301
,  // measure 32
1000
0010
1000
0001
0020
0000
0230
0000
,  // measure 33
0010
0001
0010
1300
,  // measure 34
0002
0020
0030
2000
,  // measure 35
3000
0200
0003
0310
,  // measure 36
2000
0020
0030
0002
,  // measure 37
0003
0200
3000
0310
,  // measure 38
0001
0100
0001
1000
0200
0000
0320
0000
,  // measure 39
0100
1000
0100
0031
,  // measure 40
1000
0100
1000
0001
0200
0000
0320
0000
,  // measure 41
0100
0001
0100
1030
,  // measure 42
0010
0011
0001
1001
,  // measure 43
1000
1010
0010
0110
,  // measure 44
0100
0101
0001
0011
,  // measure 45
1000
0010
0001
1000
0200
0002
0303
0000
,  // measure 46
0100
1100
1000
1001
,  // measure 47
0001
0101
0100
0110
,  // measure 48
0010
1010
1000
1100
,  // measure 49
0001
0100
1000
0001
0020
2000
3030
0000
;

//---------------dance-double - ----------------
#NOTES:
     dance-double:
     :
     Easy:
     4:
     0.186138,0.204165,0.020519,0.359085,0.000000,127.000000,125.000000,2.000000,35.000000,0.000000,0.000000,0.186138,0.204165,0.020519,0.359085,0.000000,127.000000,125.000000,2.000000,35.000000,0.000000,0.000000:
00000000
00000000
00000000
00000000
,
00000000
00000000
00000000
00000000
,
10000000
00000000
10000000
00000000
,
10000000
01000000
10000000
01000000
,
00100000
00000000
00100000
00000000
,
00100000
00001000
00100000
00001000
,
00010000
00000000
00010000
00000000
,
00010000
00001000
00010000
00001000
,
00000100
00000000
00000100
00000000
,
00000100
00000001
00000100
00000001
,
00000010
00000100
00000010
00000000
,
00000100
00001000
00000100
00000000
,
00010000
00001000
00010000
00000000
,
02000000
03020000
02030000
03000000
,
00100000
10000000
00100000
00000000
,
01000000
00010000
01000000
00000000
,
00001000
00010000
00001000
00000000
,
00000200
00002300
00003200
00000300
,
00000010
00000100
00000010
00000000
,
00000001
00001000
00000001
00000000
,
00001000
00000100
00001000
00000000
,
00020000
00032000
00023000
00030000
,
00001000
00100000
00010000
00000000
,
00100000
01000000
10000000
00000000
,
00010000
10000000
00010000
00000000
,
00200000
02300000
03200000
00300000
,
00020000
20000000
00000000
00030000
,
30000000
00000000
00010000
00100000
,
00002000
00020000
00003000
00030000
,
00000200
00000000
00000000
00000300
,
00002000
00000002
00000000
00003000
,
00000003
00000000
00000100
00002000
,
00020000
00000000
00000000
00000000
,
00003000
00030000
00001000
00100000
,
00220000
00000000
00000000
00330000
,
00000000
00000000
00010000
10000000
,
02000000
00000000
03100000
00001000
,
00020000
00000000
00030100
00001000
,
00000200
00000000
00000310
00000001
,
00000020
00000000
00000030
00000001
,
00002002
00000000
00000000
00000000
,
00000000
00000000
00003003
00000000
,
00000010
00000100
00000010
00000000
,
00000100
00001000
00000100
00000000
,
00010000
00001000
00010000
00000000
,
02000000
03020000
02030000
03000000
,
00100000
10000000
00100000
00000000
,
10000000
01000000
10000000
00000000
,
00010000
01000000
00010000
00000000
,
00002000
00023000
00032000
00003000
;

//---------------dance-double - ----------------
#NOTES:
     dance-double:
     :
     Medium:
     5:
     0.278474,0.280022,0.123115,0.225710,0.000000,190.000000,178.000000,12.000000,22.000000,0.000000,0.000000,0.278474,0.280022,0.123115,0.225710,0.000000,190.000000,178.000000,12.000000,22.000000,0.000000,0.000000:
00000000
00000000
00000000
00000000
,
00000000
00000000
00000000
00000000
,
20000000
30000000
00020000
00030000
,
10000000
01000000
00010000
00001000
,
00020000
00030000
00002000
00003000
,
00010000
00001000
00000100
00000001
,
00002000
00003000
00000002
00000003
,
00000010
00001000
00010000
00100000
,
02000000
03000000
00200000
00300000
,
00010000
00001000
00000010
00000001
,
00001000
00001000
00000100
00000100
,
00000001
00000001
00000010
00000010
,
00001000
00001000
00010000
00010000
,
00011000
00000000
00101000
00000000
00010000
00100000
00000000
00000000
,
00010000
00010000
01000000
01000000
,
10000000
10000000
00100000
00100000
,
00010000
00010000
00001000
00001000
,
00011000
00000000
00010010
00000000
00001000
00000010
00000000
00000000
,
00000100
00000001
00000100
00001000
,
00010000
01000000
10000000
01000000
,
00010000
00001000
00000100
00000001
,
00001001
00000000
00000110
00000000
00001000
00000001
00000000
00000000
,
00000010
00000001
00000010
00001000
,
00010000
00100000
10000000
00100000
,
00010000
00001000
00000010
00000001
,
00001001
00000000
00000110
00000000
00000001
00001000
00000000
00000000
,
00000200
00010000
00000000
00001000
,
00000000
00010300
00000000
00001000
,
00200000
00010000
00000000
01300000
,
20000000
00010000
00000000
30100000
,
01000000
00000000
01000000
00000000
10000000
01000000
10000000
00000000
,
00020000
00130000
00002000
00013000
,
00000010
00000000
00000010
00000000
00000100
00000001
00000100
00000000
,
00000020
00000130
00002000
00013000
,
00000200
00010000
00000000
00001000
,
00000000
00010300
00000000
00001000
,
00200000
00010000
00000000
01300000
,
20000000
00010000
00000000
30100000
,
01000000
00000000
01000000
00000000
10000000
01000000
10000000
00000000
,
00020000
00130000
00002000
00013000
,
00000010
00000000
00000010
00000000
00000100
00000001
00000100
00000000
,
00000020
00000130
00002000
00013000
,
00010000
00010000
00100000
00100000
,
10000000
10000000
01000000
01000000
,
00010000
00010000
00001000
00001000
,
00011000
00000000
00010100
00000000
00001000
00000100
00000000
00000000
,
00001000
00001000
00000010
00000010
,
00000001
00000001
00000100
00000100
,
00001000
00001000
00010000
00010000
,
00011000
00000000
01001000
00000000
00010000
01000000
00000000
00000000
;

//---------------dance-double - ----------------
#NOTES:
     dance-double:
     :
     Hard:
     6:
     0.348825,0.357289,0.369344,0.492459,0.000000,238.000000,202.000000,36.000000,48.000000,0.000000,0.000000,0.348825,0.357289,0.369344,0.492459,0.000000,238.000000,202.000000,36.000000,48.000000,0.000000,0.000000:
00000000
00000000
00000000
00000000
,
00000000
00000000
00000000
00000000
,
10000000
10000000
01000000
01000000
,
00020000
00230000
00302000
00023000
,
00031000
00001000
00010000
00010000
,
00002000
00003200
00000302
00000023
,
00000031
00000001
00001000
00001000
,
00000100
00000020
00000000
00001030
00020000
00000000
01030000
00000000
,
10000000
10000000
00010000
00010000
,
00100000
02000000
00000000
03010000
00002000
00000000
00003010
00000000
,
00000001
00000101
00000100
00001100
,
00001000
00011000
00010000
01010000
,
01000000
11000000
10000000
10010000
,
10000000
01000000
00010000
00001000
00000200
00000002
00000303
00000000
,
00000001
00000011
00000010
00001010
,
00001000
00011000
00010000
00110000
,
00100000
10100000
10000000
10010000
,
10000000
00100000
00010000
00001000
00000020
00000002
00000033
00000000
,
00000100
00001100
00001000
00001010
,
00010000
00011000
01000000
01010000
,
00010000
00110000
00001000
00011000
,
00010000
00001000
00000100
00000010
00002000
00000002
00003003
00000000
,
00000010
00001010
00001000
00001100
,
00010000
00011000
00100000
00110000
,
00010000
01010000
00001000
00011000
,
00010000
00001000
00000010
00000100
00002000
00000002
00003003
00000000
,
00002000
00000200
00000300
00000002
,
00000003
00000020
00003000
00000130
,
00020000
02000000
03000000
20000000
,
30000000
00200000
00030000
00310000
,
01000000
00010000
00100000
00001000
00020000
00000000
00032000
00000000
,
00100000
00010000
01000000
00013000
,
00000010
00001000
00000100
00010000
00002000
00000000
00023000
00000000
,
00000100
00001000
00000010
00031000
,
00020000
00200000
00300000
20000000
,
30000000
02000000
00030000
03100000
,
00002000
00000020
00000030
00000002
,
00000003
00000200
00003000
00001300
,
00000010
00001000
00000100
00010000
00002000
00000000
00023000
00000000
,
00000100
00001000
00000010
00031000
,
01000000
00010000
00100000
00001000
00020000
00000000
00032000
00000000
,
00100000
00010000
01000000
00013000
,
00000100
00001100
00001000
00001010
,
00010000
00011000
01000000
01010000
,
00010000
00110000
00001000
00011000
,
00010000
00001000
00000100
00000010
00002000
00000002
00003003
00000000
,
00000010
00001010
00001000
00001100
,
00010000
00011000
00100000
00110000
,
00010000
01010000
00001000
00011000
,
00010000
00001000
00000010
00000100
00002000
00000002
00003003
00000000
;
