#TITLE:Speed The Collapse;
#SUBTITLE:;
#ARTIST:Metric;
#TITLETRANSLIT:;
#SUBTITLETRANSLIT:;
#ARTISTTRANSLIT:;
#GENRE:Synthetica;
#CREDIT:;
#BANNER:Speed The Collapse-bn.jpg;
#BACKGROUND:Speed The Collapse-bg.jpg;
#LYRICSPATH:;
#CDTITLE:m.png;
#MUSIC:Speed The Collapse.mp3;
#OFFSET:-1.764000;
#SAMPLESTART:48.465340;
#SAMPLELENGTH:20.210533;
#LASTBEATHINT:349.000000;
#SELECTABLE:YES;
#BPMS:0.000000=190.000000
;
#STOPS:
;
#BGCHANGES:;
#KEYSOUNDS:;
#ATTACKS:;

//---------------dance-single - ----------------
#NOTES:
     dance-single:
     :
     Hard:
     8:
     0.458985,0.468800,0.424345,0.296368,0.000000,477.000000,414.000000,63.000000,44.000000,0.000000,0.000000,0.458985,0.468800,0.424345,0.296368,0.000000,477.000000,414.000000,63.000000,44.000000,0.000000,0.000000:
0000
0000
0000
0000
,
0000
0000
0000
0000
,
0000
0000
0000
0000
,
0000
0000
0000
0000
,
0000
0000
0000
0000
,
1000
0000
1100
0000
0000
0001
0100
0000
,
0001
0000
0101
0000
0000
1000
0100
0000
,
0010
0000
0011
0000
0000
0001
1000
0000
,
0010
0000
1010
0000
0010
1000
0001
0000
,
0010
0000
0110
0000
0000
0100
1000
0000
,
0001
0000
0101
0000
0000
0100
0010
0000
,
1000
0000
1001
0000
0000
0010
0100
0000
,
0010
0000
0011
0000
0010
0001
1000
0000
,
0010
0000
1001
0000
0100
0001
1000
0000
,
0010
1000
0100
0000
0010
0001
0100
0000
,
0010
0000
0110
0000
0001
1000
0100
0000
,
0010
0100
1000
0000
0010
0100
0001
0000
,
1000
0000
1001
0000
0000
0001
1000
0000
,
0001
0000
1001
0000
0000
1000
0001
0000
,
1000
0000
1001
0000
0000
0001
1000
0000
,
0001
0000
1001
0000
0000
1000
0001
0000
,
0001
0000
0101
0000
0000
1000
0100
0000
,
1000
0000
1100
0000
0000
0001
0100
0000
,
0010
0000
1010
0000
0000
1000
0001
0000
,
0010
0000
0011
0000
0010
0001
1000
0000
,
0010
0000
0110
0000
0000
0100
0001
0000
,
1000
0000
1100
0000
0000
0100
0010
0000
,
0001
0000
1001
0000
0000
0010
0100
0000
,
0010
0000
1010
0000
0010
1000
0001
0000
,
0010
0000
1001
0000
0100
1000
0001
0000
,
0010
0001
0100
0000
0010
1000
0100
0000
,
0010
0000
0110
0000
1000
0001
0100
0000
,
0010
0100
0001
0000
0010
0100
1000
0000
,
0001
0010
0000
0100
0000
1000
0001
0001
,
1000
0000
1001
0000
0000
0001
1000
1000
,
0001
0010
0000
0100
0000
1000
0001
1000
,
0001
1000
0001
1000
0001
1000
0001
1000
,
0002
0000
1000
2000
0000
3003
1001
0000
,
0110
0000
0200
0020
0000
0000
0330
1000
,
0100
2000
0000
3010
1000
0100
0000
0011
,
0000
1100
0000
2020
0000
3030
0001
0000
,
0010
0001
0100
0000
0010
1000
0100
0000
,
0010
0001
0010
0000
1000
0001
0100
0000
,
0010
1000
0010
1000
0100
0010
0100
0000
,
0001
1000
0010
0100
1000
0001
0100
0010
,
2000
0000
0001
0002
0000
0000
3003
0000
,
0110
0000
0200
0020
0000
0000
0330
0000
,
1000
0002
0000
0013
0100
0010
0000
0011
,
0000
2200
0000
0000
0000
0000
3300
0000
,
0010
1000
0100
0000
0010
0001
0100
0000
,
0010
1000
0010
0000
0001
1000
0100
0000
,
0010
0001
0010
0001
0100
0010
0100
0000
,
1000
0001
0010
0100
0001
1000
0100
0010
,
0001
0100
0001
0000
0001
1000
0001
0000
,
0011
1010
0110
1001
,
1000
0010
1000
0000
1000
0001
1000
0000
,
1100
0110
0011
1001
,
0001
0100
0001
0000
0010
1000
0010
0000
,
0101
1010
1100
0110
,
0001
1000
0010
0000
1000
0001
0100
0000
,
0010
1000
0100
0010
0001
0100
0010
1000
,
0100
0010
0001
0000
0010
0100
1000
0000
,
0011
1100
0110
1001
,
0010
1000
0001
0000
0100
0001
1000
0000
,
0101
1010
1100
0110
,
0010
0001
0100
0000
0010
1000
0001
0000
,
1010
0101
0011
1100
,
0010
0100
0001
0000
0010
0100
1000
0000
,
0001
1000
0100
0010
0001
1000
0010
0100
,
0001
0010
0001
0000
0001
1000
0100
0000
,
0210
2300
3002
0203
,
0310
1000
0020
0000
1030
0001
1000
0000
,
2001
3200
0320
0032
,
0013
0100
0020
0000
0031
1000
0010
0000
,
0210
0302
0023
0230
,
0310
0001
0100
0000
0010
1000
0100
0000
,
0001
1000
0010
0100
1000
0001
0010
0100
,
0001
1000
0020
0000
1030
0001
0100
0000
,
1200
0302
2003
3020
,
0031
0100
0020
0000
1030
0010
0100
0000
,
0120
0032
2003
3200
,
0301
1000
0020
0000
0031
1000
0001
0000
,
1200
0302
2003
3020
,
0130
0001
0100
0000
0100
1000
0100
0000
,
0100
0010
0100
0001
0100
1000
0100
0010
,
0200
0000
0000
0000
,
0000
0000
0000
0000
,
0300
0000
0000
0000
;

//---------------dance-single - ----------------
#NOTES:
     dance-single:
     :
     Medium:
     6:
     0.361799,0.410200,0.255954,0.181862,0.000000,376.000000,338.000000,38.000000,27.000000,0.000000,0.000000,0.361799,0.410200,0.255954,0.181862,0.000000,376.000000,338.000000,38.000000,27.000000,0.000000,0.000000:
0000
0000
0000
0000
,
0000
0000
0000
0000
,
0000
0000
0000
0000
,
0000
0000
0000
0000
,
0000
0000
0000
0000
,
1000
0100
0001
0100
,
1000
0010
0100
0001
,
0010
0100
0010
0001
,
1000
0100
0010
0001
,
1000
0001
0100
0010
,
1000
0100
0010
0001
,
0010
0100
0010
0001
,
1000
0001
0100
0010
,
1000
0010
0100
0001
,
0010
0100
0010
0001
,
1000
0100
0010
0001
,
1000
0001
0100
0010
,
1000
0100
0010
0100
,
0010
0001
0100
0001
,
1000
0010
0100
0010
,
1000
0100
0010
0100
,
0010
0001
1000
0001
,
0100
0010
1000
0100
,
0010
0100
1000
0001
,
0010
0100
0010
0001
,
1000
0001
0100
0001
,
1000
0010
1000
0100
,
1000
0001
0010
0001
,
0100
0001
1000
0010
,
1000
0100
0010
0001
,
1000
0001
0100
0010
,
1000
0001
0010
0100
,
1000
0001
0100
0010
,
1000
0001
0010
0100
,
1000
0001
0100
0010
,
1000
0001
0100
0010
,
1000
0001
1000
0001
1000
0001
1000
0001
,
1000
0000
0010
1000
0000
0000
1001
0000
,
0001
0000
0010
0001
0000
0000
1001
0000
,
0100
0010
0100
0000
0010
0000
1000
0000
,
0100
0010
0100
0000
0010
0000
0001
0000
,
1000
0101
0001
0001
,
0010
1100
0100
0100
,
1000
0010
1000
0000
0010
0001
0010
0000
,
0001
0100
0001
0000
0100
1000
0100
0000
,
0010
0000
0001
1000
0000
0000
1001
0000
,
0010
0000
1000
0001
0000
0000
1001
0000
,
0010
1000
0010
0000
0001
1000
0001
0000
,
0100
0001
0100
0000
1000
0000
1001
0000
,
0001
1010
0010
0010
,
1000
0011
0010
0010
,
0001
1100
0001
1100
,
1000
0101
1000
0101
,
0001
0010
0100
1000
,
0020
0230
0320
0230
,
0301
1000
0100
0010
,
0002
2003
3002
2003
,
3010
0100
0001
1000
,
0200
0320
0230
0320
,
0130
1000
0001
0100
,
0010
1000
0100
0010
,
0200
1300
0002
0103
,
0020
1030
0002
0013
,
0200
1300
0002
0103
,
0020
0130
0002
1003
,
0200
0310
0002
1003
,
0020
1030
0200
0301
,
2000
3001
0020
1030
,
0001
0100
0001
0000
1000
0100
1000
0000
,
0001
0100
0010
1000
,
1010
1001
1010
1001
,
0010
0100
0010
0100
,
0110
0101
0110
0101
,
0010
0001
1000
0001
,
0101
1001
0101
1001
,
0010
1000
0100
0010
,
0100
1000
0001
0100
,
0010
1000
0100
0010
,
0110
1001
0110
1001
,
0010
0100
0001
1000
,
1001
0110
1001
0110
,
0001
0100
0010
1000
,
1100
0011
1100
0011
,
1100
0010
0100
0010
,
1000
0001
0100
0000
0001
1000
0010
0000
,
0200
0000
0000
0000
,
0000
0000
0000
0000
,
0300
0000
0000
0000
;

//---------------dance-single - ----------------
#NOTES:
     dance-single:
     :
     Easy:
     4:
     0.204956,0.263700,0.000000,0.107770,0.000000,213.000000,213.000000,0.000000,16.000000,0.000000,0.000000,0.204956,0.263700,0.000000,0.107770,0.000000,213.000000,213.000000,0.000000,16.000000,0.000000,0.000000:
// measure 0
0000
0000
0000
0000
,  // measure 1
0000
0000
0000
0000
,  // measure 2
0000
0000
0000
0000
,  // measure 3
0000
0000
0000
0000
,  // measure 4
0000
0000
0000
0000
,  // measure 5
0000
1000
0000
1000
,  // measure 6
0000
0100
0000
0010
,  // measure 7
0000
0001
0000
1000
,  // measure 8
0000
0010
0000
0100
,  // measure 9
0000
0001
0000
0010
,  // measure 10
0000
0100
0000
1000
,  // measure 11
0000
0010
0000
0100
,  // measure 12
0000
0010
0000
1000
,  // measure 13
0000
0100
0000
0010
,  // measure 14
0000
0001
0000
1000
,  // measure 15
0000
0001
0000
0100
,  // measure 16
0000
0010
0000
1000
,  // measure 17
0000
0100
0000
0010
,  // measure 18
0000
0001
0000
1000
,  // measure 19
0000
0010
0000
0100
,  // measure 20
0000
0001
0000
1000
,  // measure 21
0100
0010
0000
0001
,  // measure 22
0000
1000
0000
0010
,  // measure 23
0000
0100
0000
0001
,  // measure 24
0000
1000
0000
0100
,  // measure 25
0010
0001
0000
1000
,  // measure 26
0000
0010
0000
0100
,  // measure 27
0000
0001
0000
1000
,  // measure 28
0000
0010
0000
0100
,  // measure 29
0001
1000
0000
0100
,  // measure 30
0000
0010
0000
0001
,  // measure 31
1000
0010
0000
0100
,  // measure 32
0000
0001
0000
1000
,  // measure 33
0010
0100
0000
0001
,  // measure 34
0010
0100
0000
1000
,  // measure 35
0010
0100
0001
0010
,  // measure 36
0100
1000
0010
0100
,  // measure 37
0002
0010
0000
1000
,  // measure 38
0000
0010
0000
1003
,  // measure 39
0020
1000
0000
0100
,  // measure 40
0000
1000
0000
0130
,  // measure 41
2000
0100
0000
0001
,  // measure 42
0000
0100
0000
3001
,  // measure 43
0020
0001
0000
0100
,  // measure 44
0000
0001
0000
0130
,  // measure 45
0002
1000
0000
0103
,  // measure 46
0020
1000
0000
0130
,  // measure 47
0002
0010
0000
0013
,  // measure 48
0200
1000
0000
1300
,  // measure 49
0010
1000
0010
0000
,  // measure 50
0001
1000
0001
0000
,  // measure 51
1000
0100
1000
0100
,  // measure 52
0010
0001
0010
0001
,  // measure 53
2000
0000
0000
0000
,  // measure 54
3010
1000
0100
0010
,  // measure 55
0200
0000
0000
0000
,  // measure 56
0310
0001
1000
0001
,  // measure 57
0200
0000
0000
0000
,  // measure 58
0310
1000
0100
0010
,  // measure 59
0002
0000
0000
0000
,  // measure 60
0000
0000
1003
0000
,  // measure 61
0001
0001
0100
0000
,  // measure 62
1000
0010
0100
0001
,  // measure 63
0010
0010
0100
0000
,  // measure 64
0010
0001
1000
0100
,  // measure 65
0010
0010
0100
0000
,  // measure 66
0010
0001
1000
0010
,  // measure 67
0100
0100
0010
0000
,  // measure 68
1000
0100
0010
0001
,  // measure 69
0200
0000
0000
0000
,  // measure 70
0310
1000
0100
0010
,  // measure 71
0002
0000
0000
0000
,  // measure 72
1003
0001
0100
0010
,  // measure 73
2000
0000
0000
0000
,  // measure 74
3100
0010
0001
1000
,  // measure 75
0010
0100
0010
0000
,  // measure 76
1000
0001
1000
0000
,  // measure 77
0010
1000
0100
0000
,  // measure 78
0010
0001
1000
0001
,  // measure 79
0100
0001
0100
0000
,  // measure 80
0010
1000
0001
1000
,  // measure 81
0010
1000
0010
0000
,  // measure 82
1000
0100
0010
0001
,  // measure 83
1000
0000
0100
0000
,  // measure 84
0010
0000
0001
1000
,  // measure 85
0200
0000
0000
0000
,  // measure 86
0000
0000
0000
0000
,  // measure 87
0300
0000
0000
0000
;

//---------------dance-single - ----------------
#NOTES:
     dance-single:
     :
     Beginner:
     2:
     0.142410,0.205100,0.000000,0.006736,0.000000,148.000000,148.000000,0.000000,1.000000,0.000000,0.000000,0.142410,0.205100,0.000000,0.006736,0.000000,148.000000,148.000000,0.000000,1.000000,0.000000,0.000000:
0000
0000
0000
0000
,
0000
0000
0000
0000
,
0000
0000
0000
0000
,
0000
0000
0000
0000
,
0000
0000
0000
0000
,
0010
0000
0000
0000
,
1000
0000
0000
0000
,
0100
0000
0000
0000
,
0010
0000
0001
0000
,
0010
0000
0000
0000
,
0100
0000
0000
0000
,
1000
0000
0000
0000
,
0001
0000
0100
0000
,
0001
0000
0000
0000
,
0010
0000
0000
0000
,
0100
0000
0000
0000
,
1000
0000
0000
0000
,
0001
0000
0000
0000
,
0001
0000
0000
0000
,
1000
0000
0000
0000
,
0100
0000
0000
0000
,
1000
0000
0000
0000
,
0001
0000
0000
0000
,
0100
0000
0000
0000
,
0010
0000
1000
0000
,
0010
0000
0000
0000
,
1000
0000
0000
0000
,
0100
0000
0000
0000
,
0010
0000
0001
0000
,
0010
0000
0000
0000
,
0100
0000
1000
0000
,
0100
0000
0000
0000
,
1000
0000
0001
0000
,
1000
0000
0000
0000
,
0010
0000
0100
0000
,
0010
0000
1000
0000
,
0100
0000
0010
0000
,
0001
0000
1000
0000
,
0001
0000
1000
0000
,
0010
0000
0100
0000
,
0010
0000
0100
0000
,
0001
0000
0010
0000
,
0100
0000
1000
0000
,
0010
0000
1000
0000
,
0100
0000
0010
0000
,
0001
0000
1000
0000
,
0001
0000
0100
0000
,
1000
0000
0001
0000
,
1000
0000
0100
0000
,
0010
0000
0100
0000
,
0010
0000
0001
0000
,
1000
0000
0001
0000
,
0100
0000
0010
0000
,
0100
0000
0000
0000
,
0010
0010
0010
0010
,
0000
0000
0000
0000
,
1000
1000
1000
1000
,
0000
0000
0000
0000
,
0100
0100
0100
0100
,
0000
0000
0000
0000
,
0010
0000
0001
0000
,
0010
0000
0000
0000
,
0001
0001
0001
0001
,
0000
0000
0000
0000
,
1000
1000
1000
1000
,
0000
0000
0000
0000
,
0010
0010
0010
0010
,
0000
0000
0000
0000
,
0100
0000
0010
0000
,
1000
0000
0100
0000
,
0010
0010
0010
0010
,
0010
0000
0001
0000
,
0100
0100
0100
0100
,
0100
0000
0010
0000
,
1000
1000
1000
1000
,
1000
0000
0001
0000
,
0010
0000
0100
0000
,
0010
0000
0001
0000
,
0100
0100
0100
0100
,
0100
0000
0010
0000
,
0001
0001
0001
0001
,
0001
0000
0010
0000
,
1000
1000
1000
1000
,
1000
0000
0100
0000
,
0010
0000
0001
0000
,
0200
0000
0000
0000
,
0000
0000
0000
0000
,
0300
0000
0000
0000
;
