#TITLE:Something Just Like This;
#SUBTITLE:;
#ARTIST:The Chainsmokers & Coldplay;
#TITLETRANSLIT:;
#SUBTITLETRANSLIT:;
#ARTISTTRANSLIT:;
#GENRE:Memories...Do Not Open;
#CREDIT:;
#BANNER:Something Just Like This-bn.jpg;
#BACKGROUND:Something Just Like This-bg.jpg;
#LYRICSPATH:;
#CDTITLE:;
#MUSIC:Something Just Like This.mp3;
#OFFSET:-0.033000;
#SAMPLESTART:44.859303;
#SAMPLELENGTH:20.388344;
#SELECTABLE:YES;
#BPMS:0.000000=103.000000
;
#STOPS:
;
#BGCHANGES:;
#KEYSOUNDS:;
#ATTACKS:;

//---------------dance-single - ----------------
#NOTES:
     dance-single:
     [Ness]:
     Easy:
     4:
     0.183890,0.202837,0.007801,0.093617,0.000000,165.000000,164.000000,1.000000,12.000000,0.000000,0.000000,0.183890,0.202837,0.007801,0.093617,0.000000,165.000000,164.000000,1.000000,12.000000,0.000000,0.000000:
// measure 0
0000
0000
0000
0000
,  // measure 1
0000
0000
0000
0000
,  // measure 2
0000
0000
0000
0000
,  // measure 3
0000
0000
0001
0001
,  // measure 4
0000
0000
1000
0100
,  // measure 5
1000
0000
0010
0010
,  // measure 6
0100
0000
0001
1000
,  // measure 7
0100
0000
0010
0100
,  // measure 8
0010
0000
0001
1000
,  // measure 9
0010
0000
0000
0100
,  // measure 10
0100
0001
1000
0001
,  // measure 11
1000
0100
0100
0010
,  // measure 12
0001
0000
0010
0100
,  // measure 13
1000
1000
0001
0100
,  // measure 14
0002
0003
2000
3000
,  // measure 15
0100
0000
0010
0100
,  // measure 16
0010
0000
0001
1000
,  // measure 17
0001
0000
0100
0100
,  // measure 18
0010
0000
1000
0001
,  // measure 19
1000
0100
0010
0100
,  // measure 20
1001
0100
0100
0001
,  // measure 21
0001
1000
1000
1000
,  // measure 22
1000
0100
0100
0010
,  // measure 23
0010
0001
0001
0001
,  // measure 24
0001
1000
1000
0001
,  // measure 25
0001
0010
0010
0010
,  // measure 26
0010
0100
0100
1000
,  // measure 27
1000
0001
0010
0100
,  // measure 28
2000
0000
0000
3000
,  // measure 29
0020
0000
0030
0100
,  // measure 30
0002
0000
0003
2000
,  // measure 31
3000
0002
0003
1000
,  // measure 32
0200
0000
0300
0020
,  // measure 33
0030
0002
0003
1000
,  // measure 34
2000
0000
3000
0002
,  // measure 35
0003
0100
0010
0100
,  // measure 36
0010
0010
1000
1000
,  // measure 37
0001
0001
1000
0001
,  // measure 38
0100
0100
0001
0001
,  // measure 39
1000
1000
0001
0010
,  // measure 40
0100
1000
1000
0001
,  // measure 41
0001
1000
0100
0010
,  // measure 42
0001
0100
0100
0010
,  // measure 43
0010
1000
0001
0100
,  // measure 44
0010
1000
0010
1000
,  // measure 45
0001
1000
0001
0010
,  // measure 46
0100
0010
0100
1000
,  // measure 47
0100
1000
0100
1000
,  // measure 48
0001
1000
0001
1000
,  // measure 49
0001
0100
0001
0100
,  // measure 50
0010
0010
1000
1000
,  // measure 51
0001
0001
0010
0100
,  // measure 52
1000
0000
0000
0000
;

//---------------dance-single - ----------------
#NOTES:
     dance-single:
     [Ness]:
     Medium:
     6:
     0.285309,0.304255,0.054610,0.031206,0.000000,256.000000,249.000000,7.000000,4.000000,0.000000,0.000000,0.285309,0.304255,0.054610,0.031206,0.000000,256.000000,249.000000,7.000000,4.000000,0.000000,0.000000:
// measure 0
0000
0000
0000
0000
,  // measure 1
0000
0000
0000
0000
,  // measure 2
0000
0000
0000
0000
,  // measure 3
0000
0000
0000
1000
0001
0000
1000
0000
,  // measure 4
0100
0000
0000
0010
0001
0000
1000
0000
,  // measure 5
0010
0000
0000
0100
0001
0000
1000
0000
,  // measure 6
0100
0000
0000
1000
0100
0000
0010
0000
,  // measure 7
0001
0000
0000
0100
0010
0000
0100
0000
,  // measure 8
0001
0000
0000
1000
0100
0000
0010
0000
,  // measure 9
0001
0000
0000
0100
,  // measure 10
0010
0000
1000
0000
0001
1000
0100
0000
,  // measure 11
0010
0000
0001
1000
0100
0000
0010
0000
,  // measure 12
1001
0000
0010
0000
1000
0000
0001
1000
,  // measure 13
0100
0000
1000
0100
1000
0000
0001
0000
,  // measure 14
0010
0000
0100
0000
1000
0000
0010
0100
,  // measure 15
0001
0000
0000
1000
0100
0000
0010
0000
,  // measure 16
0001
0000
0000
0001
0010
0000
0100
0000
,  // measure 17
1000
0000
0000
0010
0100
0000
0001
0000
,  // measure 18
1000
0000
0100
0000
0010
0001
0100
0000
,  // measure 19
0001
0000
1000
0100
1000
0000
0001
0000
,  // measure 20
0101
0000
1000
0001
0100
0000
1000
0001
,  // measure 21
0010
0000
1000
0001
1000
0001
1000
0001
,  // measure 22
0100
0000
1000
0001
0100
0000
1000
0001
,  // measure 23
0010
0000
1000
0001
1000
0001
1000
0001
,  // measure 24
0100
0000
1000
0010
0100
0000
0100
0001
,  // measure 25
0100
0000
0100
0010
0100
0001
0100
0010
,  // measure 26
0100
0000
0001
1000
0001
0000
0010
0001
,  // measure 27
0010
0000
0100
1000
0100
0000
0010
0000
,  // measure 28
0002
0000
0000
1003
,  // measure 29
0200
0000
0000
0310
,  // measure 30
0002
0000
0000
1003
,  // measure 31
0020
0000
0000
0130
,  // measure 32
0001
0000
0001
0000
0001
1000
1000
0000
,  // measure 33
0010
0000
0010
0000
0010
0100
0100
0000
,  // measure 34
0001
0100
0001
0000
1000
0100
1000
0000
,  // measure 35
0001
0000
0100
0010
1000
0000
0001
0000
,  // measure 36
1001
0000
0001
1000
0100
0000
0001
1000
,  // measure 37
0010
0000
0001
1000
0001
1000
0001
1000
,  // measure 38
0100
0000
0001
1000
0100
0000
0001
1000
,  // measure 39
0010
0000
0001
1000
0001
1000
0001
1000
,  // measure 40
0100
0000
0001
1000
0100
0000
0001
1000
,  // measure 41
0010
0000
0001
1000
0001
1000
0001
1000
,  // measure 42
0100
0000
0001
1000
0100
0000
0001
1000
,  // measure 43
0010
0000
0100
0001
1000
0010
0100
0001
,  // measure 44
1000
0000
1000
0000
1000
0001
0100
0000
,  // measure 45
0101
0000
0101
0000
0001
0010
0100
0000
,  // measure 46
0010
0000
0001
1000
1000
0000
0100
0010
,  // measure 47
0001
0000
1000
0100
0010
0100
0010
0000
,  // measure 48
0001
0000
0001
0000
0001
1000
0100
0000
,  // measure 49
0110
0000
0110
0000
0001
1000
0010
0000
,  // measure 50
0100
0000
0100
0001
1000
0000
1000
0010
,  // measure 51
0010
0000
0100
0001
1000
0010
0100
0001
,  // measure 52
1000
0000
0000
0000
;

//---------------dance-single - ----------------
#NOTES:
     dance-single:
     [Ness]:
     Hard:
     7:
     0.365552,0.365984,0.156028,0.273049,0.003901,328.000000,308.000000,20.000000,35.000000,0.000000,0.000000,0.365552,0.365984,0.156028,0.273049,0.003901,328.000000,308.000000,20.000000,35.000000,0.000000,0.000000:
// measure 0
0000
0000
0000
0000
,  // measure 1
0000
0000
0000
0000
,  // measure 2
0000
0000
0000
0000
,  // measure 3
0000
0000
0000
2000
0010
0001
0010
3002
,  // measure 4
0100
0000
0000
1000
0010
1000
0010
2003
,  // measure 5
0100
0000
0000
0001
0100
0001
0100
3010
,  // measure 6
0002
0000
0000
1000
0100
1000
0100
0010
,  // measure 7
2003
0000
0000
0001
0010
0001
0010
3002
,  // measure 8
0010
0000
0000
1000
0010
1000
0010
2003
,  // measure 9
0010
0000
0000
0000
0000
0000
0100
3100
,  // measure 10
0010
0001
1000
0001
0100
0010
0100
0010
,  // measure 11
1000
0000
0001
1000
0010
0100
0010
0100
,  // measure 12
0101
0000
0100
0001
1000
0100
1000
0010
,  // measure 13
0110
0000
0001
1000
0010
0100
0001
0001
,  // measure 14
1000
0001
0100
0010
1000
1000
0001
0001
,  // measure 15
0200
0000
0000
0301
1000
0010
0100
0010
,  // measure 16
1000
0000
0100
1000
0001
1000
0100
0010
,  // measure 17
0001
0000
0100
0010
1000
0001
0100
0010
,  // measure 18
0100
0000
0000
0001
0000
0000
1000
0000
0001
0000
0010
0000
0100
0000
1000
0000
,  // measure 19
0001
0000
1000
0100
0010
0001
1000
0100
,  // measure 20
1100
0000
0002
0010
1003
0000
2000
0010
,  // measure 21
3001
0000
0002
0100
1000
0100
1000
0103
,  // measure 22
0001
0000
2000
0100
3001
0000
0002
0100
,  // measure 23
1003
0000
2000
0100
0001
0100
0001
3100
,  // measure 24
1000
0000
0101
0010
1000
0000
1001
1000
,  // measure 25
0100
0000
1100
0100
0010
0001
1000
0100
,  // measure 26
0010
0000
0001
0100
0101
0000
1000
0010
,  // measure 27
1010
0000
0001
0010
0100
1000
0001
0010
,  // measure 28
0200
0000
0000
0000
0000
2300
0000
0000
,  // measure 29
3002
0000
0000
0000
0000
0000
0103
0001
,  // measure 30
0020
0000
0000
0000
0000
0230
0000
0000
,  // measure 31
0000
2300
0000
3002
0000
2003
0000
0000
,  // measure 32
3100
0100
0100
0100
0100
0010
0010
0010
,  // measure 33
0010
0001
0001
0001
0001
0001
1000
0001
,  // measure 34
0010
0010
0010
0010
0010
0001
0001
0001
,  // measure 35
0001
1000
0100
0010
0001
1000
0100
0010
,  // measure 36
0011
0000
0002
1000
0013
0000
2000
0001
,  // measure 37
3100
0000
0002
0010
1000
0010
0100
1000
,  // measure 38
0103
0000
2000
0010
3100
0000
0002
0100
,  // measure 39
0013
0000
2000
0100
0001
0010
0001
0100
,  // measure 40
3001
0000
0200
1000
0310
0000
0020
0001
,  // measure 41
0130
0000
0200
1000
0010
1000
0010
1000
,  // measure 42
0310
0000
0002
0010
1003
0000
2000
0100
,  // measure 43
3001
0000
0002
0100
1000
0100
1000
0103
,  // measure 44
0001
0000
0101
0010
1000
0000
1010
0001
,  // measure 45
0010
0000
1100
0001
0100
0001
1000
0001
,  // measure 46
0100
0000
1010
0100
0010
0000
0101
0010
,  // measure 47
0100
0000
0010
1000
0001
1000
0100
0010
,  // measure 48
1001
0000
0100
0010
0101
0000
0010
0100
,  // measure 49
1010
0000
0001
1000
0100
0001
0100
1000
,  // measure 50
0110
0000
0001
1000
1010
0000
1000
0001
,  // measure 51
0011
0000
2000
0010
0100
0001
0100
0010
,  // measure 52
0000
3001
0000
0000
0000
0000
0000
0000
;

//---------------dance-single - ----------------
#NOTES:
     dance-single:
     [Ness]:
     Beginner:
     1:
     0.117021,0.141986,0.015603,0.124823,0.000000,105.000000,103.000000,2.000000,16.000000,0.000000,0.000000,0.117021,0.141986,0.015603,0.124823,0.000000,105.000000,103.000000,2.000000,16.000000,0.000000,0.000000:
// measure 0
0000
0000
0000
0000
,  // measure 1
0000
0000
0000
0000
,  // measure 2
0000
0000
0000
0000
,  // measure 3
0000
0000
0000
0000
,  // measure 4
0100
0000
0000
0000
,  // measure 5
0001
0000
0000
0000
,  // measure 6
0100
0000
0000
0000
,  // measure 7
1000
0000
0000
0000
,  // measure 8
0010
0000
0000
0000
,  // measure 9
0001
0000
0000
1000
,  // measure 10
1000
0000
0100
0000
,  // measure 11
0010
0000
0001
0001
,  // measure 12
0001
0000
1000
1000
,  // measure 13
1000
0000
0010
0000
,  // measure 14
0100
0000
0001
0001
,  // measure 15
0001
0000
1000
0000
,  // measure 16
0100
0000
0010
0010
,  // measure 17
0010
0000
0001
0000
,  // measure 18
0100
0000
0010
0000
,  // measure 19
1000
0000
0001
0000
,  // measure 20
1001
0000
0010
0000
,  // measure 21
0001
0000
0010
0000
,  // measure 22
1000
0000
0010
0000
,  // measure 23
0001
0000
0010
0000
,  // measure 24
2000
3000
0020
0030
,  // measure 25
0002
0003
0020
0030
,  // measure 26
2000
3000
0020
0030
,  // measure 27
0002
0003
0020
0030
,  // measure 28
1000
0000
0000
0100
,  // measure 29
0100
0000
0000
0010
,  // measure 30
0010
0000
0000
0001
,  // measure 31
0001
0000
0000
1000
,  // measure 32
1000
0000
0000
0100
,  // measure 33
0100
0000
0000
0010
,  // measure 34
0010
0000
0000
0001
,  // measure 35
0001
0000
1000
0000
,  // measure 36
1001
0000
0100
0000
,  // measure 37
0001
0000
0010
0000
,  // measure 38
0001
0000
0100
0000
,  // measure 39
1000
0000
0010
0000
,  // measure 40
0200
0300
0020
0030
,  // measure 41
2000
3000
0002
0003
,  // measure 42
0200
0300
0020
0030
,  // measure 43
2000
3000
0002
0003
,  // measure 44
0100
0000
0100
0100
,  // measure 45
0100
0000
0100
0100
,  // measure 46
0100
0000
0100
0100
,  // measure 47
0100
0000
0100
0100
,  // measure 48
0100
0000
0010
0010
,  // measure 49
0010
0000
1000
1000
,  // measure 50
1000
0000
0001
0000
,  // measure 51
0100
0000
0010
0010
,  // measure 52
0010
0000
0000
0000
;
