#TITLE:Snowbound;
#SUBTITLE:;
#ARTIST:bLiNd;
#TITLETRANSLIT:;
#SUBTITLETRANSLIT:;
#ARTISTTRANSLIT:;
#GENRE:EarthBound;
#CREDIT:;
#MENUCOLOR:;
#BANNER:Snowbound-bn.jpg;
#BACKGROUND:Snowbound-bg.jpg;
#LYRICSPATH:;
#CDTITLE:;
#MUSIC:Snowbound.mp3;
#OFFSET:-1.404;
#SAMPLESTART:15.100;
#SAMPLELENGTH:12.000;
#SELECTABLE:YES;
#LISTSORT:;
#BPMS:0.000=139.940,160.000=34.985,168.000=69.970,178.000=69.495,180.000=66.505,184.000=68.500,185.750=68.005,187.000=64.525,194.000=64.005,196.000=61.995,200.000=36.245;
#STOPS:;
#TICKCOUNT:0.000=2;
#BGCHANGES:;
#KEYSOUNDS:;
#ATTACKS:;

//---------------dance-single - ----------------
#NOTES:
     dance-single:
     :
     Hard:
     7:
     0.455,0.504,0.202,0.269,0.348:
0000
0000
0000
0000
,
0000
0000
0000
0000
,
0000
0000
0000
0000
,
0000
0000
0000
0000
,
0002
0000
0000
2003
0000
3010
0100
0000
,
0002
0000
0000
2003
0000
3010
0100
0000
,
0002
0000
0000
0013
0000
0100
1000
0000
,
0020
0000
0000
1030
0000
0100
0010
0000
,
0011
0000
0010
0100
0000
0000
1000
0000
0001
0000
0100
0000
0002
0000
0010
0000
,
0013
0000
0001
1000
0000
0000
0001
0000
0100
0000
0010
0000
0200
0000
0001
0000
,
0301
0000
1000
0100
0000
0000
0010
0000
0001
0000
0100
0000
0002
0000
1000
0000
,
1003
0000
0010
0100
0000
0000
0001
0000
0010
0000
0100
0000
0010
0000
0001
0000
,
1000
0000
0000
0100
0010
0000
0001
0000
0010
0000
0100
0000
1000
0000
1000
0000
,
0020
0000
1030
0100
1000
0001
0100
0100
,
0001
0000
0010
0100
1000
0100
1000
1000
,
0010
0000
1000
0001
0100
0010
0100
0100
,
0001
0000
0010
0100
0000
1000
0001
0000
0000
0000
0100
0000
0010
0000
0100
0000
,
0001
0000
1000
0010
0000
0100
0001
0000
0000
0000
0010
0000
0001
0000
0010
0000
,
0100
0000
1000
0100
0000
0100
1000
0000
0000
0000
0001
0000
0100
0000
0010
0000
,
0100
0000
0001
0100
0000
0001
0100
0000
0000
0000
0001
0000
1000
0000
0100
0000
,
1000
0000
0000
1000
0010
0000
0100
0000
0001
0000
1000
0000
0001
0000
0100
0000
,
0010
0000
0000
1000
0001
0000
1000
0000
0100
0000
0010
0000
0100
0000
1000
0000
,
0001
0000
0000
1000
0010
0000
0100
0000
1000
0000
0100
0000
0010
0000
0100
0000
,
0001
0000
0000
0001
0010
0000
0100
0000
0001
0000
0100
0000
0010
0000
0100
0000
,
1000
0210
0310
1002
,
0103
0000
0201
0000
0310
0000
1001
1000
,
0100
1200
0310
0021
,
0130
1000
1001
1000
0010
1000
1001
0001
,
0100
0120
0130
2001
,
3010
1010
0110
0101
,
0001
2001
3100
1200
,
0310
0000
0000
0000
0210
0000
0000
0000
0310
0000
0000
0000
0001
0100
0000
0000
,
0110
0000
0000
0100
0001
0000
1000
0001
0000
1000
0100
0000
,
0010
0000
0000
0001
0100
0000
0001
1000
0000
0001
0100
0000
,
0010
0000
0000
1000
0010
0000
0100
0001
0000
0100
0010
0000
,
1000
0100
0010
0001
0010
0100
1000
0010
,
0100
0000
0100
0101
0000
0000
1000
0000
0100
1100
0000
0000
,
0001
0000
0010
0011
0000
0000
1000
0000
0010
1010
0000
0000
,
0001
0000
1000
0002
0000
0000
0103
0000
0010
0200
0000
0000
,
0310
0000
1000
0200
0000
0000
0310
0000
0001
0100
0000
0000
,
0202
0000
0000
0003
2000
0000
0000
3000
0020
0000
0000
0030
0002
0000
0000
0300
,
2000
0000
0000
3000
0020
0000
0000
0003
0200
0000
0000
0030
0002
0000
0000
0003
,
1300
0000
0000
0100
0000
0000
1000
0000
0000
0010
0000
0000
0100
0000
0000
0000
0001
0000
0000
0100
0000
0000
0001
0000
0000
0010
0000
0000
0100
0000
1000
0000
,
0100
0000
0000
0010
0000
0000
0100
0000
0000
1000
0000
0000
0001
0000
0000
0000
0100
0000
0000
0010
0000
0000
0100
0000
0000
0001
0000
0000
1000
0000
0001
0000
,
0100
0000
0000
0010
0000
1000
0100
0000
0010
0000
0000
0001
0000
1000
0001
0000
,
0100
0000
0000
0010
0000
1000
0010
0000
0100
0000
0000
0001
0000
0100
0010
0000
,
1001
0000
0000
1000
0000
0000
0001
0000
0000
0010
0000
0000
0001
0000
0000
0000
1000
0000
0000
0001
0000
0000
1000
0000
0000
0010
0000
0000
1000
0000
1000
0000
,
0001
0000
0000
0100
0000
0000
0001
0000
0000
1000
0000
0000
0001
0000
0000
0000
0010
0000
0000
0001
0000
0000
1000
0000
0000
0001
0000
0000
0100
0000
0010
0000
,
0100
0000
0000
0100
0000
0001
1000
0000
0100
0000
0000
0100
0000
1000
0001
0000
,
0010
0000
0000
0000
0000
0000
0010
0000
0000
0000
0001
0000
0100
0000
0000
0000
0010
0000
0100
0000
0010
0000
0100
0000
0001
0000
1000
0000
0001
1000
0001
1000
,
0001
0000
0000
0000
;

//---------------dance-single - ----------------
#NOTES:
     dance-single:
     :
     Medium:
     5:
     0.302,0.420,0.193,0.244,0.071:
0000
0000
0000
0000
,
0000
0000
0000
0000
,
0000
0000
0000
0000
,
0000
0000
0000
0000
,
2000
0000
0000
0100
0000
0000
0100
0000
,
3001
0000
0000
0000
,
0002
0000
0000
0100
0000
0000
0100
0000
,
1003
0000
0000
0000
,
1000
0000
0100
0010
0001
0000
1000
0000
,
0001
0000
0100
0010
1000
0000
0001
0000
,
1000
0000
0001
0010
0001
0000
1000
0000
,
0001
0000
1000
0100
1000
0000
0001
0000
,
1001
0000
0000
0000
0000
0000
0100
0010
,
1001
0000
0000
0000
0000
0000
1000
0001
,
1001
0000
0000
0000
0000
0000
0001
0010
,
1001
0000
0100
0010
,
1001
0000
1000
0010
0100
0000
0001
0000
,
1000
0000
0100
0010
0001
0000
1000
0000
,
0001
0000
0010
0100
1000
0000
0001
0000
,
0100
0000
0010
1000
0001
0000
0010
0000
,
1001
0000
0010
0000
0001
0000
1000
0001
,
0100
0000
0010
0000
0100
0000
0001
1000
,
0001
0000
0010
0000
0100
0000
1000
0100
,
0010
0001
1000
1001
,
0200
0000
0310
1001
,
0200
0000
0310
0000
1001
0000
0100
0010
,
0200
0000
0301
0101
,
0200
0000
0301
0000
0101
0000
1000
0100
,
2000
3020
0230
2300
,
3200
0302
0023
0230
,
0302
0203
2300
3002
,
2003
3020
0230
0302
,
2003
0000
3100
1001
,
2000
0000
3100
0000
1001
0000
1000
0100
,
2000
0000
3010
1001
,
1000
0010
1000
0000
0001
0100
0010
0000
,
1000
0000
0100
1000
0000
0000
0001
0000
0010
0001
0000
0000
,
1000
0000
0010
1000
0000
0000
0001
0000
0100
0001
0000
0000
,
1000
0000
0001
1000
0000
0000
0001
0000
1000
0001
0000
0000
,
0100
0010
0100
0010
,
2000
0000
3200
0000
,
0320
0000
0032
0000
,
1003
1000
0001
1000
,
0001
0001
1000
0001
,
0100
0000
0000
1010
0100
0000
0000
0011
,
0100
0000
0000
1000
0101
0000
0000
0001
,
1100
0000
0000
1000
0000
0000
0100
0000
0011
0000
0000
0001
0000
0000
0010
0000
,
1001
0000
0000
1000
0000
0000
0001
0000
1001
0000
0000
1000
0000
0000
0100
0000
,
1100
0000
0000
0100
0000
0010
0100
0000
1000
0000
0000
0001
0000
1000
0001
0000
,
1000
0000
0000
0010
0000
1000
0010
0000
0100
0000
0001
0000
1000
0000
0001
1000
,
1001
0000
0000
0000
;

//---------------dance-single - ----------------
#NOTES:
     dance-single:
     :
     Easy:
     3:
     0.180,0.231,0.034,0.269,0.000:
0000
0000
0000
0000
,
0000
0000
0000
0000
,
0000
0000
0000
0000
,
0000
0000
0000
0000
,
2000
0000
0010
0000
,
3100
0000
0000
0000
,
0002
0000
0100
0000
,
0013
0000
0000
0000
,
1001
0100
0010
0000
,
1000
0100
0010
0000
,
0001
1000
0010
0000
,
1000
0100
0010
0000
,
1001
0000
0000
0200
,
0000
0300
0000
0002
,
0000
0003
0000
2000
,
0000
3000
0000
0010
,
1000
0001
0010
0000
,
0001
0100
0010
0000
,
1000
0100
0010
0000
,
0001
1000
0001
0000
,
0100
0000
0000
0020
,
0000
0030
0000
2000
,
0000
3000
0000
0002
,
0000
0003
0000
1001
,
0200
0000
0320
0000
,
2030
0000
3002
0023
,
0230
0000
2300
0000
,
3001
0100
1000
0100
,
0002
0000
2003
0000
,
3200
0000
0310
0001
,
0200
0000
0320
0000
,
2030
0000
3002
0000
,
0013
0010
0100
0100
,
1000
1000
0001
0100
,
0001
0001
1000
1000
,
0010
0100
0001
1000
,
0200
0000
0320
0000
,
0032
0000
2003
0000
,
3200
0000
0320
0000
,
0230
0000
2300
0000
,
3002
0000
0000
0000
,
2003
0000
0000
0000
,
3001
0000
0100
0000
,
1000
0000
0100
0000
,
0001
0000
0000
1000
1000
0000
0000
0100
,
0100
0000
0000
0010
0010
0000
0000
0001
,
0001
1000
0010
0100
,
0001
0010
0100
1000
,
0001
0000
0000
0100
0100
0000
0000
0010
,
0010
0000
1000
0100
,
1001
0000
0000
0000
;

//---------------dance-single - ----------------
#NOTES:
     dance-single:
     :
     Beginner:
     1:
     0.112,0.210,0.025,0.260,0.000:
0000
0000
0000
0000
,
0000
0000
0000
0000
,
0000
0000
0000
0000
,
0000
0000
0000
0000
,
0000
0000
0000
0000
,
0000
0000
0000
0000
,
0000
0000
0000
0000
,
0000
0000
0000
0000
,
1001
0000
0000
0000
,
1000
0000
0000
0000
,
0001
0000
0000
0000
,
1000
0000
0000
0000
,
0100
0000
0000
0000
,
0100
0000
0000
0000
,
0100
0000
0000
0000
,
0100
0000
0000
0000
,
0010
0000
0000
0000
,
0001
0000
0000
0000
,
0100
0000
0000
0000
,
0010
0000
0000
0000
,
0100
0000
0000
0000
,
0100
0000
0000
0000
,
0100
0000
0000
0000
,
0100
0000
0000
0000
,
0002
0000
0000
0003
,
2000
0000
0000
3000
,
0020
0000
0000
0030
,
0200
0000
0000
0300
,
0002
0003
0020
0030
,
0200
0300
2000
3000
,
0002
0003
0020
0030
,
0200
0300
2000
3000
,
0002
0000
0000
0003
,
0200
0000
0000
0300
,
0020
0000
0000
0030
,
2000
0000
0000
3000
,
0002
0003
0200
0300
,
0020
0030
2000
3000
,
0200
0300
0020
0030
,
0002
0003
2000
3000
,
1001
0000
0000
0000
,
0000
0000
0000
0000
,
1001
0000
1000
0000
,
0001
0000
1000
0000
,
0001
0000
0010
0000
,
0100
0000
1000
0000
,
0020
0030
0200
0300
,
0002
0003
2000
3000
,
0200
0300
0200
0300
,
0200
0300
0010
0010
,
0100
0000
0000
0000
;

//---------------dance-double - ----------------
#NOTES:
     dance-double:
     :
     Easy:
     2:
     0.188,0.189,0.000,0.302,0.000:
00000000
00000000
00000000
00000000
,
00000000
00000000
00000000
00000000
,
00000000
00000000
00000000
00000000
,
00000000
00000000
00000000
00000000
,
10000000
00000000
01000000
00000000
,
00100000
00000000
00001000
00000000
,
00010000
00000000
00000100
00000000
,
00001000
00000000
00000010
00000000
,
00000100
00000001
00000100
00000000
,
00000010
00001000
00000100
00000000
,
00010000
00001000
00010000
00000000
,
00001000
01000000
00010000
00000000
,
20000000
00000000
00000000
30010000
,
02000000
00000000
00000000
03001000
,
00020000
00000000
00000000
00030100
,
00002000
00000000
00000000
00003010
,
00000100
00000001
00000100
00000000
,
00000010
00010000
00001000
00000000
,
01000000
00010000
10000000
00000000
,
01000000
00100000
00001000
00000000
,
00020000
00000000
00000000
00030100
,
00002000
00000000
00000000
00003010
,
00000200
00000000
00000000
00000301
,
00002000
00000000
00000000
00003100
,
00020000
00000000
00032000
00000000
,
02003000
00000000
03010000
10000000
,
00020000
00000000
00230000
00000000
,
01300000
10000000
01000000
10000000
,
02000000
00000000
03200000
00000000
,
00302000
00000000
00023000
00000000
,
00030200
00000000
00002300
00000000
,
00003020
00000000
00000230
00000000
,
00000302
00000000
00000023
00000000
,
00000230
00000000
00010300
00001000
,
00020000
00000000
00032000
00000000
,
01003000
00010000
01000000
00100000
,
20000000
00000000
32000000
00000000
,
03200000
00000000
00302000
00000000
,
00023000
00000000
00030200
00000000
,
00002300
00000000
00003020
00000000
,
00000230
00000000
00000000
00000000
,
00000320
00000000
00000000
00000000
,
00001030
00000010
00000100
00000001
,
00000100
00000010
00001000
00000100
,
00010000
00001000
00100000
00010000
,
01000000
00100000
10000000
00010000
,
10000000
00010000
00100000
01000000
,
10000000
00100000
01000000
00010000
,
00100000
00001000
00010000
00000100
,
00001000
00000010
00000100
00000001
,
00000100
00000000
00000000
00000000
;

//---------------dance-double - ----------------
#NOTES:
     dance-double:
     :
     Medium:
     5:
     0.284,0.378,0.235,0.327,0.097:
00000000
00000000
00000000
00000000
,
00000000
00000000
00000000
00000000
,
00000000
00000000
00000000
00000000
,
00000000
00000000
00000000
00000000
,
20000000
00000000
00000000
00100000
00000000
00000000
00100000
00000000
,
30010000
00000000
00000000
00000000
,
00000002
00000000
00000000
00000100
00000000
00000000
00000100
00000000
,
00001003
00000000
00000000
00000000
,
00011000
00000000
00000000
00100000
00000000
00000000
01000000
00000000
00000000
00000000
00000000
00000000
00000000
10000000
00000000
00000000
,
00100000
00000000
00000000
10000000
00000000
00000000
01000000
00000000
00000000
00000000
00000000
00000000
00000000
00000000
00000000
00000000
,
00100000
00000000
00000000
00001000
00000000
00000000
00010000
00000000
00000000
00000000
00000000
00000000
00000000
00000100
00000000
00000000
,
00001000
00000000
00000000
00000001
00000000
00000000
00000100
00000000
00000000
00000000
00000000
00000000
00000000
00000010
00000000
00000000
,
00000110
00000000
00000000
00000000
00000000
00000000
00000001
00001000
,
00000000
00000000
00000000
00000000
00000000
00000000
00010000
10000000
,
00000000
00000000
00000000
00000000
00000000
00000000
00010000
00001000
,
00000000
00000000
00000000
00011000
,
00100000
00000000
00000000
01000000
00000000
00000000
10000000
00000000
00000000
00000000
00000000
00000000
00000000
00100000
00000000
00000000
,
01000000
00000000
00000000
00001000
00000000
00000000
00010000
00000000
00000000
00000000
00000000
00000000
00000000
00000100
00000000
00000000
,
00001000
00000000
00000000
00000010
00000000
00000000
00000100
00000000
00000000
00000000
00000000
00000000
00000000
00000001
00000000
00000000
,
00000010
00000000
00000000
00000100
00000000
00000000
00001000
00000000
00000000
00000000
00000000
00000000
00000000
00010000
00000000
00000000
,
00011000
00000000
00000000
00000000
00000000
00000000
01000000
00100000
,
00000000
00000000
00000000
00000000
00000000
00000000
00001000
00010000
,
00000000
00000000
00000000
00000000
00000000
00000000
00000010
00000100
,
00000000
00000000
00000000
00001001
,
00000220
00000330
00022000
00033000
,
02200000
00000000
03300000
00000000
10010000
00000000
01000000
00100000
,
20000000
30000000
00220000
00330000
,
00100000
00001000
00010000
00000000
00000100
00000010
00000001
00000000
,
00000220
00000330
00022000
00033000
,
02200000
03300000
11000000
01000000
,
20020000
30030000
00220000
00330000
,
00022000
00033000
00002100
00003010
,
00000110
00000000
00000000
00000100
00000000
00000001
00000100
00000000
00000001
00000100
00000000
00000000
,
00000001
00000000
00000000
00000010
00000000
00000100
00000010
00000000
00000100
00000010
00000000
00000000
,
00000100
00000000
00000000
00010000
00000000
00001000
00010000
00000000
00001000
00010000
00000000
00000000
,
00001000
00000000
00000000
01000000
00000000
00010000
01000000
00000000
00010000
01000000
00000000
00000000
,
00100000
10010000
00100000
10010000
,
01000000
10010000
01000000
10010000
,
00010000
00110000
00100000
00011000
,
00000100
00001100
00000010
00001010
,
00000200
00000000
00002300
00000000
,
00003200
00000000
00000302
00000000
,
00002003
00000000
00003100
00010000
00002000
00000000
01003000
00010000
,
20000000
00000000
30100000
01000000
00020000
00000000
00130000
00001000
,
00020000
00000000
00000000
00031000
00200000
00000000
00000000
00310000
,
02000000
00000000
00000000
13000000
02000000
00000000
00000000
03010000
,
00100000
00100000
00001000
00010000
00000100
00000100
00000010
00000100
,
00001000
00001000
00000010
00001000
00000100
00000100
00010000
00001000
,
02000000
00000000
00000000
03100000
20000000
00000000
00000000
31000000
,
00200000
00000000
00000000
00301000
00010000
00001000
00010000
00001000
,
00011000
00000000
00000000
00000000
;

//---------------dance-double - ----------------
#NOTES:
     dance-double:
     :
     Hard:
     8:
     0.463,0.546,0.050,0.302,0.344:
00000000
00000000
00000000
00000000
,
00000000
00000000
00000000
00000000
,
00000000
00000000
00000000
00000000
,
00000000
00000000
00000000
00000000
,
20000000
00000000
00000000
30200000
00000000
01300000
00010000
00000000
,
00200000
00000000
00000000
00301000
00000000
00010000
00000010
00000000
,
00000200
00000000
00000000
00000301
00000000
00001000
00000100
00000000
,
00020000
00000000
00000000
00031000
00000000
01000000
00100000
00000000
,
10010000
00000000
00000000
10000000
00100000
00000000
01000000
00000000
00010000
00000000
00010000
00000000
10000000
00000000
00010000
00000000
,
00100000
00000000
00000000
00100000
00001000
00000000
00010000
00000000
00000100
00000000
00001000
00000000
00000001
00000000
00000100
00000000
,
00000001
00000000
00000000
00000010
00000100
00000000
00010000
00000000
00001000
00000000
01000000
00000000
00010000
00000000
00100000
00000000
,
01000000
00000000
00000000
10000000
01000000
00000000
00100000
00000000
01000000
00000000
10000000
00000000
00100000
00000000
01000000
00000000
,
00010000
00000000
00000000
00100000
01000000
00000000
00100000
00000000
00001000
00000000
00010000
00000000
00001000
00000000
00010000
00000000
,
00000100
00000000
00000000
00001000
00000010
00000000
00000100
00000000
00000001
00000000
00001000
00000000
00000001
00000000
00001000
00000000
,
00000100
00000000
00000000
00010000
00001000
00000000
01000000
00000000
00010000
00000000
10000000
00000000
00010000
00000000
10000000
00000000
,
00100000
00000000
00000000
01000000
00100000
00000000
01000000
00000000
10000000
00000000
01000000
00000000
00100000
00000000
01000000
00000000
,
00010000
00000000
00100000
00010000
00000000
00010000
00100000
00000000
10000000
00000000
00100000
00000000
00001000
00000000
00010000
00000000
,
00001000
00000000
00000010
00000100
00000000
00000100
00000010
00000000
00001000
00000000
00000001
00000000
00001000
00000000
00000100
00000000
,
00001000
00000000
00000001
00000100
00000000
00000100
00000001
00000000
00001000
00000000
00000100
00000000
00010000
00000000
00001000
00000000
,
01000000
00000000
00010000
00100000
00000000
00100000
01000000
00000000
10000000
00000000
00100000
00000000
00010000
00000000
00100000
00000000
,
10000000
00000000
00000000
00010000
00100000
00000000
00001000
00000000
00010000
00000000
00000100
00000000
00001000
00000000
00000010
00000000
,
00000100
00000000
00000000
00001000
00000100
00000000
00000010
00000000
00001000
00000000
00000100
00000000
00010000
00000000
00001000
00000000
,
00100000
00000000
00000000
00010000
01000000
00000000
10000000
00000000
01000000
00000000
00100000
00000000
01000000
00000000
00001000
00000000
,
00010000
00000000
00000000
00000100
00001000
00000000
00000010
00000000
00000100
00000000
00000100
00000000
00000001
00000000
00001000
00000000
,
00000200
00000000
00000310
00000100
00000002
00000000
00000013
00000100
,
00002000
00000000
00003100
00010000
00002000
00000000
02003000
03020000
,
00230000
00000000
01300000
10000000
00200000
00000000
10300000
01000000
,
00100000
00001000
00010000
00000010
00000100
00001000
00000100
00000001
,
00000200
00000000
00000310
00001000
00000200
00000000
00010300
00001000
,
02000000
00000000
03010000
00100000
02000000
00000000
23000000
00000000
,
30020000
00000000
01030000
00100000
20000000
00000000
31000000
00100000
,
00002000
00000000
00023000
00000000
00030100
00001000
00000010
00000100
,
00000002
00000000
00000013
00000100
00020000
00000000
00031000
00010000
,
00200000
00000000
00310000
00001000
02000000
00000000
13000000
01000000
,
00020000
00000000
00031000
00000100
00000002
00000000
00000103
00000010
,
00000001
00000100
00000010
00001000
00000010
00000100
00000001
00001000
,
00000100
00010000
00001000
00010000
00000000
00000000
00001000
01000000
00010000
01000000
00000000
00000000
,
00100000
10000000
01000000
10000000
00000000
00000000
00100000
01000000
00010000
01000000
00000000
00000000
,
00010000
00100000
01000000
00100000
00000000
00000000
00001000
00010000
00000100
00001000
00000000
00000000
,
00000010
00000100
00000001
00000010
00000000
00000000
00000001
00000100
00000010
00000100
00000000
00000000
,
00000002
00002003
00003200
00020300
,
00032000
00203000
00320000
00230000
,
10300000
00000000
00000000
00100000
00000000
00000000
00001000
00000000
00000000
00010000
00000000
00000000
00001000
00000000
00000000
00000000
00010000
00000000
00000000
00000100
00000000
00000000
00000001
00000000
00000000
00000100
00000000
00000000
00010000
00000000
00001000
00000000
,
00010000
00000000
00000000
01000000
00000000
00000000
10000000
00000000
00000000
01000000
00000000
00000000
00010000
00000000
00000000
00000000
00000100
00000000
00000000
00000001
00000000
00000000
00000100
00000000
00000000
00001000
00000000
00000000
00000100
00000000
00000010
00000000
,
00000100
00000000
00000000
00011000
00000000
01000000
00010000
00000000
10000000
00000000
00000000
01100000
00000000
00001000
00010000
00000000
,
00000100
00000000
00000000
00000010
00000000
00000001
00000100
00000000
00000010
00000000
00000000
00010000
00000000
00001000
00100000
00000000
,
00010000
00000000
00000000
01000000
00000000
00000000
00100000
00000000
00000000
10000000
00000000
00000000
01000000
00000000
00000000
00000000
00100000
00000000
00000000
10000000
00000000
00000000
00100000
00000000
00000000
00001000
00000000
00000000
00010000
00000000
00000000
00000000
,
00000100
00000000
00000000
00000010
00000000
00000000
00000001
00000000
00000000
00000100
00000000
00000000
00000010
00000000
00000000
00000000
00000100
00000000
00000000
00000001
00000000
00000000
00001000
00000000
00000000
00000100
00000000
00000000
00000010
00000000
00000000
00000000
,
00000100
00000000
00000000
00011000
00000000
01000000
00100000
00000000
01000000
00000000
00000000
10010000
00000000
10000000
00010000
00000000
,
00100000
00000000
00000000
00000000
00000000
00000000
00011000
00000000
00000000
00000000
00001000
00000000
00010000
00000000
00000000
00000000
00000100
00000000
00001000
00000000
00000100
00000000
00001000
00000000
00000010
00000000
00000100
00000000
00000010
00000100
00000010
00000100
,
00000010
00000000
00000000
00000000
;
