#TITLE:Slumber Party;
#SUBTITLE:;
#ARTIST:Hellberg;
#TITLETRANSLIT:;
#SUBTITLETRANSLIT:;
#ARTISTTRANSLIT:;
#GENRE:MrSuicideSheep Presents - Taking You Higher;
#CREDIT:;
#BANNER:Slumber Party-bn.jpg;
#BACKGROUND:Slumber Party-bg.jpg;
#LYRICSPATH:;
#CDTITLE:;
#MUSIC:Slumber Party.mp3;
#OFFSET:-0.075000;
#SAMPLESTART:90.053001;
#SAMPLELENGTH:15.000000;
#LASTBEATHINT:231.000000;
#SELECTABLE:YES;
#BPMS:0.000000=128.000000
;
#STOPS:
;
#BGCHANGES:;
#KEYSOUNDS:;
#ATTACKS:;

//---------------dance-single - ----------------
#NOTES:
     dance-single:
     :
     Challenge:
     9:
     0.504233,0.520884,0.193164,0.193164,0.223894,402.000000,380.000000,22.000000,22.000000,0.000000,0.000000,0.504233,0.520884,0.193164,0.193164,0.223894,402.000000,380.000000,22.000000,22.000000,0.000000,0.000000:
0000
0000
0000
0000
,
0000
0000
0000
0000
,
0000
0000
0000
0000
,
0000
0000
0000
0000
,
0000
0000
0000
0000
,
0000
0000
0000
0000
,
0000
0000
0000
0000
,
0000
0000
0000
0000
,
1000
0010
1000
0001
0100
0010
0100
0010
,
2000
3200
0302
0203
,
1300
0010
1000
0001
0100
0010
0100
0010
,
1000
0100
0000
0000
0001
0100
0000
0000
1000
0100
0000
0000
0100
0000
0010
0000
,
0001
0010
0001
1000
0100
1000
0100
1000
,
0002
0203
2300
3200
,
0301
0010
0001
1000
0100
0001
0100
1000
,
0010
1000
0000
0000
0001
1000
0000
0000
0100
1000
0000
0000
0001
0000
1000
0000
,
0010
0100
0010
1000
0001
0100
0001
1000
,
0010
1000
0000
0000
0100
1000
0000
0000
0001
0100
0000
0000
0010
0100
0000
0000
,
0001
0100
0001
1000
0010
1000
0100
0010
,
0001
1000
0000
0000
0010
0100
0000
0000
0010
1000
0000
0000
0100
0000
0001
0000
,
1000
0010
1000
0100
0010
0100
1000
0001
,
1000
0100
0000
0000
0001
1000
0000
0000
0010
0001
0000
0000
1000
0010
0000
0000
,
0100
0001
1000
0010
1000
0100
0010
0001
,
1000
0010
0100
0001
1000
0010
0100
0001
,
2000
0000
0000
0000
3010
0000
1000
0000
0100
0000
0000
1100
0000
0000
1001
0000
,
0010
0000
0000
0000
0001
0000
0100
0000
0010
0000
0000
0101
0000
0000
1001
0000
,
0100
0000
0000
0000
0100
0000
0010
0000
0100
0000
0000
1010
0000
0000
1001
0000
,
0100
0000
0010
0000
1000
0000
0100
0000
0010
0000
0000
0110
0000
0000
0011
0000
,
0002
0000
0000
0000
1003
0000
0010
0000
0100
0000
0000
0110
0000
0000
1010
0000
,
1000
0000
0000
0000
0100
0000
0010
0000
0001
0000
0000
0101
0000
0000
1001
0000
,
0010
0000
0000
0000
0001
0000
1000
0000
0010
0000
0000
1010
0000
0000
1001
0000
,
0100
0000
0010
0000
1000
0000
0100
0000
0010
0000
0000
0011
0000
0000
0110
0000
,
0100
1000
0010
1000
0100
0010
0001
0100
,
0010
0100
0001
1000
0010
0100
0010
1000
,
0001
0100
0010
1000
0100
1000
0010
0100
,
0001
0010
0100
1000
0010
0100
0001
1000
,
0010
0001
0010
1000
0100
0001
0100
1000
,
0010
0001
0010
1000
0010
0100
0010
0001
,
0010
1000
0100
0001
0100
0010
0100
1000
,
0001
0100
0001
0000
1000
0100
1000
0000
0001
0100
0001
0000
0100
0000
0000
0000
,
1000
0010
1000
0001
0100
0010
0100
0001
,
1000
0010
1000
0000
0001
0100
0001
0000
1000
0010
1000
0000
0001
0010
0001
0000
,
1000
0100
0010
0001
1000
0010
0100
0001
,
0010
0001
0010
0000
0001
1000
0001
0000
0100
0001
0100
0000
0010
0000
1000
0000
,
0100
0010
0100
1000
0010
1000
0100
0010
,
0001
1000
0001
0000
0100
0010
0100
0000
0010
1000
0010
0000
1000
0100
1000
0000
,
0001
0010
0100
0010
0001
1000
0010
0100
,
0002
0000
0000
0000
0000
0000
0000
0000
0000
0000
0000
0000
0000
0000
0000
0000
0023
0000
0000
0000
0000
0000
0000
0000
0000
0000
0000
0000
0000
0000
0000
0000
0230
0000
0000
0000
0000
0000
0000
0000
0000
0000
0000
0000
0000
0000
0000
0300
1100
0000
0000
0000
0000
0000
0000
0000
0000
0000
0000
0000
0000
0000
0000
0000
,
1000
0010
1000
0100
0010
0001
0100
0010
,
0100
0001
0100
0000
0001
1000
0001
0000
1000
0100
1000
0000
0100
0010
0100
0000
,
0010
0001
1000
0010
0100
0001
0010
0100
,
1000
0010
1000
0000
0001
0100
0001
0000
0010
0001
0010
0000
0100
1000
0100
0000
,
1000
0001
0100
0010
0100
0001
1000
0010
,
1000
0001
0100
0000
0001
1000
0001
0000
0010
0001
1000
0000
0001
1000
0001
0000
,
1000
0100
0010
0001
0100
0010
0100
0002
,
0003
0202
0303
2002
3003
2200
3300
0110
,
2002
0000
3003
0000
;

//---------------dance-single - ----------------
#NOTES:
     dance-single:
     :
     Hard:
     7:
     0.376293,0.446472,0.079022,0.193164,0.035121,300.000000,291.000000,9.000000,22.000000,0.000000,0.000000,0.376293,0.446472,0.079022,0.193164,0.035121,300.000000,291.000000,9.000000,22.000000,0.000000,0.000000:
0000
0000
0000
0000
,
0000
0000
0000
0000
,
0000
0000
0000
0000
,
0000
0000
0000
0000
,
0000
0000
0000
0000
,
0000
0000
0000
0000
,
0000
0000
0000
0000
,
0000
0000
0000
0000
,
1000
0010
1000
0001
0100
0010
0100
0010
,
2000
3200
0302
0203
,
1300
0010
1000
0001
0100
0010
0100
0010
,
1000
0001
1000
1001
,
0001
0010
0001
1000
0100
1000
0100
1000
,
0002
0203
2300
3200
,
0301
0010
0001
1000
0100
0001
0100
1000
,
0010
0100
0001
1001
,
0010
0100
0010
1000
0001
0100
0001
1000
,
0020
0230
0302
0023
,
0031
0100
0001
1000
0010
1000
0100
0010
,
0001
0010
0100
1001
,
1000
0010
1000
0100
0010
0100
1000
0001
,
2000
3002
0023
0230
,
1300
0001
1000
0010
1000
0100
0010
0001
,
1000
0010
0100
0001
1000
0010
0100
0001
,
2000
0000
0000
0000
3010
0000
1000
0000
0100
0000
0000
1000
0000
0000
0001
0000
,
0000
0000
0000
0000
0010
0000
0001
0000
0100
0000
0000
0010
0000
0000
1000
0000
,
0001
0000
0000
0000
0010
0000
0100
0000
0010
0000
0000
0100
0000
0000
1000
0000
,
0000
0000
0001
0000
0100
0000
0010
0000
1000
0000
0000
0001
0000
0000
0100
0000
,
0010
0000
0000
0000
1000
0000
0010
0000
0100
0000
0000
0001
0000
0000
1000
0000
,
0000
0000
0000
0000
0100
0000
0010
0000
0001
0000
0000
0100
0000
0000
0010
0000
,
1000
0000
0000
0000
0100
0000
1000
0000
0010
0000
0000
0100
0000
0000
0001
0000
,
0000
0000
0010
0000
0100
0000
1000
0000
0010
0000
0000
0100
0000
0000
0001
0000
,
1000
0100
0001
0010
,
0100
1000
0010
0100
,
0001
1000
0100
0010
,
0100
1000
0001
1000
,
0010
1000
0010
1000
0001
0100
0001
0100
,
0010
0100
0010
0100
0001
1000
0001
1000
,
0100
0010
0001
1000
0001
0100
0010
1000
,
0001
0100
0001
1000
0010
1000
0200
0000
,
1300
0010
1000
0001
0100
0010
0100
0001
,
0010
0100
0010
0100
,
1000
0100
0010
0001
1000
0010
0100
0001
,
1000
0000
0010
0000
0001
0000
0010
1000
,
0100
0010
0100
1000
0010
1000
0100
0010
,
0001
1000
0010
0100
,
0001
0010
0100
0010
0001
1000
0010
0100
,
0002
0023
0130
1100
,
1000
0010
1000
0100
0010
0001
0100
0010
,
1000
0001
0100
0001
,
0010
0001
1000
0010
0100
0001
0010
0100
,
0010
0001
1000
0010
,
1000
0001
0100
0010
0100
0001
1000
0010
,
0100
0001
1000
0010
,
1000
0100
0010
0001
0100
0010
0100
0001
,
0000
0101
0000
1001
0000
1100
0000
0110
,
2002
0000
3003
0000
;

//---------------dance-single - ----------------
#NOTES:
     dance-single:
     :
     Medium:
     5:
     0.267168,0.347256,0.043901,0.184384,0.000000,213.000000,208.000000,5.000000,21.000000,0.000000,0.000000,0.267168,0.347256,0.043901,0.184384,0.000000,213.000000,208.000000,5.000000,21.000000,0.000000,0.000000:
0000
0000
0000
0000
,
0000
0000
0000
0000
,
0000
0000
0000
0000
,
0000
0000
0000
0000
,
0000
0000
0000
0000
,
0000
0000
0000
0000
,
0000
0000
0000
0000
,
0000
0000
0000
0000
,
1000
0100
0001
0010
,
0200
1000
1000
1300
,
0001
0100
1000
0010
,
0200
0001
0001
0301
,
1000
0010
0001
0100
,
0020
1000
1000
1030
,
0100
0010
1000
0100
,
0002
0010
0010
0013
,
0001
1000
0010
0100
,
0020
0100
0100
0130
,
0010
1000
0001
1000
,
0200
0010
0010
0310
,
0001
1000
0010
0100
,
0002
0010
0010
0013
,
1000
0010
0100
0001
,
2000
0100
0001
3010
,
1001
0000
0001
1000
0001
0000
0100
0000
,
0020
0100
0100
0130
,
0001
0000
0010
0100
0010
0000
0001
0000
,
2000
0100
0100
3100
,
0010
0000
0100
0001
1000
0000
0010
0000
,
0200
0010
0010
0310
,
1000
0000
0001
0010
0100
0000
0010
0000
,
0002
1000
1000
1003
,
0010
1000
0100
0010
,
0001
0100
0010
1000
,
0100
0010
0001
0100
,
0010
1000
0100
0010
,
0001
0001
1000
1000
,
0001
1000
0100
0100
,
1000
1000
1000
0000
0001
0001
0001
0000
,
0010
0100
0010
0000
0100
0000
0110
0000
,
1001
0000
1000
0000
0010
1000
0010
0000
,
0200
0001
0001
0301
,
0010
0000
0100
0000
0010
0001
0010
0000
,
0002
1000
0100
1003
,
0010
0000
0100
0000
0010
1000
0010
0000
,
0200
0001
0001
0301
,
1000
0000
0010
0000
0100
0010
1000
0000
,
0100
0010
0100
1001
,
0010
0000
0100
0000
0010
1000
0100
0000
,
0020
0100
0100
0130
,
0001
0000
1000
0000
0100
0010
0100
0000
,
0020
0001
0100
0031
,
1000
0000
0010
0000
0100
0001
1000
0000
,
0020
0100
0100
0130
,
0001
0000
1000
0000
0010
1000
0100
0000
,
0020
0100
1000
0130
,
2002
0000
3003
0000
;

//---------------dance-single - ----------------
#NOTES:
     dance-single:
     :
     Easy:
     4:
     0.188147,0.248040,0.008780,0.289746,0.000000,150.000000,149.000000,1.000000,33.000000,0.000000,0.000000,0.188147,0.248040,0.008780,0.289746,0.000000,150.000000,149.000000,1.000000,33.000000,0.000000,0.000000:
// measure 0
0000
0000
0000
0000
,  // measure 1
0000
0000
0000
0000
,  // measure 2
0000
0000
0000
0000
,  // measure 3
0000
0000
0000
0000
,  // measure 4
0000
0000
0000
0000
,  // measure 5
0000
0000
0000
0000
,  // measure 6
0000
0000
0000
0000
,  // measure 7
0000
0000
0000
0000
,  // measure 8
1000
0100
2000
3000
,  // measure 9
0020
0000
0000
0030
,  // measure 10
0100
0001
0200
0300
,  // measure 11
0020
0000
0000
0030
,  // measure 12
1000
0001
0100
0000
,  // measure 13
0020
0000
0000
0030
,  // measure 14
1000
0100
0020
0030
,  // measure 15
0002
0000
0000
0003
,  // measure 16
1000
0010
0200
0300
,  // measure 17
0020
0030
0200
0300
,  // measure 18
0001
0010
0200
0300
,  // measure 19
2000
3000
0002
0003
,  // measure 20
0100
0010
2000
3000
,  // measure 21
0020
0030
0200
0300
,  // measure 22
0001
0010
0200
0300
,  // measure 23
2000
3000
0002
0003
,  // measure 24
0010
0001
0100
0010
,  // measure 25
2000
0000
0001
3000
,  // measure 26
0100
0010
0001
1000
,  // measure 27
0020
0000
0100
0030
,  // measure 28
0100
0001
1000
0010
,  // measure 29
2000
0000
0001
3000
,  // measure 30
0100
0010
0001
1000
,  // measure 31
0020
0000
0100
0030
,  // measure 32
1000
0100
0010
0001
,  // measure 33
1000
0001
2000
3000
,  // measure 34
0001
0100
0010
1000
,  // measure 35
0001
1000
0002
0003
,  // measure 36
0010
0010
0100
0100
,  // measure 37
1000
1000
0001
0001
,  // measure 38
0100
0010
0100
0010
,  // measure 39
1000
0001
1000
0001
,  // measure 40
0010
0100
0010
0001
,  // measure 41
0020
0000
0230
0000
,  // measure 42
1300
0100
0010
0001
,  // measure 43
2000
0000
3002
0000
,  // measure 44
0103
0010
1000
0100
,  // measure 45
0020
0000
0230
0000
,  // measure 46
1300
0001
0100
0010
,  // measure 47
1000
0010
0100
0001
,  // measure 48
0010
0100
1000
0001
,  // measure 49
0100
0010
1000
0001
,  // measure 50
0010
0100
1000
0001
,  // measure 51
0100
0010
1000
0001
,  // measure 52
0010
0001
0100
1000
,  // measure 53
0100
0001
1000
0010
,  // measure 54
0100
0001
0010
1000
,  // measure 55
0010
0001
0100
0010
,  // measure 56
2002
0000
3003
0000
;

//---------------dance-single - ----------------
#NOTES:
     dance-single:
     :
     Beginner:
     2:
     0.126685,0.198432,0.017560,0.149263,0.000000,101.000000,99.000000,2.000000,17.000000,0.000000,0.000000,0.126685,0.198432,0.017560,0.149263,0.000000,101.000000,99.000000,2.000000,17.000000,0.000000,0.000000:
// measure 0
0000
0000
0000
0000
,  // measure 1
0000
0000
0000
0000
,  // measure 2
0000
0000
0000
0000
,  // measure 3
0000
0000
0000
0000
,  // measure 4
0000
0000
0000
0000
,  // measure 5
0000
0000
0000
0000
,  // measure 6
0000
0000
0000
0000
,  // measure 7
0000
0000
0000
0000
,  // measure 8
0010
0000
1000
0000
,  // measure 9
0100
0000
0000
0000
,  // measure 10
0001
0000
1000
0000
,  // measure 11
0100
0000
0000
0000
,  // measure 12
0010
0000
0001
0000
,  // measure 13
0100
0000
0000
0000
,  // measure 14
0010
0000
1000
0000
,  // measure 15
0100
0000
0000
0000
,  // measure 16
0010
0000
0001
0000
,  // measure 17
1000
0000
0000
0000
,  // measure 18
0010
0000
1000
0000
,  // measure 19
0001
0000
0000
0000
,  // measure 20
0010
0000
0100
0000
,  // measure 21
1000
0000
0000
0000
,  // measure 22
0100
0000
0010
0000
,  // measure 23
0100
0000
0000
0000
,  // measure 24
1001
0000
0010
0000
,  // measure 25
2000
0000
3000
0000
,  // measure 26
0001
0000
0010
0000
,  // measure 27
0002
0000
0003
0000
,  // measure 28
1000
0000
0100
0000
,  // measure 29
0002
0000
0003
0000
,  // measure 30
0001
0000
0010
0000
,  // measure 31
2000
0000
3000
0000
,  // measure 32
0001
0000
0010
0000
,  // measure 33
0100
0000
1000
0000
,  // measure 34
0010
0000
0100
0000
,  // measure 35
0001
0000
1000
0000
,  // measure 36
0100
0000
0010
0000
,  // measure 37
0001
0000
1000
0000
,  // measure 38
0010
0000
0100
0000
,  // measure 39
0001
0000
1000
0000
,  // measure 40
0100
0100
0100
0100
,  // measure 41
0200
0000
0300
0000
,  // measure 42
0010
0010
0010
0010
,  // measure 43
0020
0000
0030
0000
,  // measure 44
0001
0001
0001
0001
,  // measure 45
0002
0000
0003
0000
,  // measure 46
1000
1000
1000
1000
,  // measure 47
1000
1000
1000
0000
,  // measure 48
0010
0010
0010
0010
,  // measure 49
0020
0030
0020
0030
,  // measure 50
0100
0100
0100
0100
,  // measure 51
0200
0300
0200
0300
,  // measure 52
0001
0001
0001
0001
,  // measure 53
0002
0003
2000
3000
,  // measure 54
0100
0100
0100
0100
,  // measure 55
0200
0300
0020
0030
,  // measure 56
2002
0000
3003
0000
;
