#TITLE:Singularity;
#SUBTITLE:;
#ARTIST:Jon Hopkins;
#TITLETRANSLIT:;
#SUBTITLETRANSLIT:;
#ARTISTTRANSLIT:;
#GENRE:Singularity;
#CREDIT:;
#BANNER:Singularity-bn.jpg;
#BACKGROUND:Singularity-bg.jpg;
#LYRICSPATH:;
#CDTITLE:;
#MUSIC:Singularity.mp3;
#OFFSET:-0.023000;
#SAMPLESTART:54.115978;
#SAMPLELENGTH:21.654140;
#LASTBEATHINT:236.000000;
#SELECTABLE:YES;
#BPMS:0.000000=133.000000
;
#STOPS:
;
#BGCHANGES:;
#KEYSOUNDS:;
#ATTACKS:;

//---------------dance-single - ----------------
#NOTES:
     dance-single:
     :
     Hard:
     7:
     0.338715,0.373841,0.182385,0.106391,0.102591,312.000000,288.000000,24.000000,14.000000,0.000000,0.000000,0.338715,0.373841,0.182385,0.106391,0.102591,312.000000,288.000000,24.000000,14.000000,0.000000,0.000000:
0000
0000
0000
0000
,
0000
0000
0000
0000
,
0000
0000
0000
0000
,
0000
0000
0000
0000
,
0020
0030
2000
3000
,
0200
0300
0020
0030
,
0002
0003
2000
3000
,
0020
0030
0200
0300
,
0020
0030
2000
3000
,
0002
0003
0200
0300
,
1000
0100
0010
0001
1000
0100
0010
0001
,
1000
0100
0010
0001
1000
0100
0010
0001
,
0100
0001
1000
0010
0100
0001
1000
0010
,
0100
0001
1000
0010
0100
0001
1000
0010
,
1000
0001
0100
0010
1000
0001
0100
0010
,
1000
0001
0100
0010
1000
0001
0100
0010
,
0001
0010
0100
1000
0001
0010
0100
1000
,
0001
0010
0100
1000
0001
0010
0100
1000
,
0001
0010
0100
1000
0001
0010
0100
1000
,
0001
0010
0100
1000
0001
0010
0100
1000
,
0001
0000
0000
0001
0100
0000
0000
0000
0010
0000
0000
0000
1010
0000
0000
0000
,
1000
0000
0000
0001
0100
0000
0000
0000
0010
0000
0000
0000
0110
0000
0000
0000
,
0001
0000
0000
1000
0100
0000
0000
0000
0010
0000
0000
0000
0011
0000
0000
0000
,
0100
0000
0000
0100
0010
0000
0000
0000
1000
0000
0000
0000
1001
0000
0000
0000
,
1000
0000
0000
0010
1000
0000
0000
0000
0100
0000
0000
0000
1001
0000
0000
0000
,
0001
0000
0000
0010
0001
0000
0000
0000
0100
0000
0000
0000
1001
0000
0000
0000
,
0100
0000
0000
0001
1000
0000
0000
0000
0010
0000
0000
0000
0110
0000
0000
0000
,
0010
0000
0000
1000
0100
0000
0000
0000
0001
0000
0000
0000
0101
0000
0000
0000
,
0100
0000
0000
0001
1000
0000
0000
0000
0100
0000
0000
0000
0011
0000
0000
0000
,
0100
0000
0000
0010
1000
0000
0000
0000
0001
0000
0000
0000
0101
0000
0000
0000
,
1000
0000
0000
1000
0010
0000
0001
0000
0010
0000
0000
0000
1000
0000
0010
0000
,
1000
0000
0100
1000
0100
0000
0001
0100
,
0001
0000
0010
0001
0010
0000
1000
0010
,
1000
0000
0100
1000
0100
0000
0001
0100
,
0001
0000
0100
1000
0100
0000
1000
0010
,
1000
0000
0010
0001
0010
0000
0001
0100
,
0001
0000
0100
1000
0100
0000
1000
0010
,
1000
0000
0010
0001
0010
0000
0001
0100
,
0001
0000
0100
1000
0100
0000
1000
0010
,
1000
0000
0010
0001
0010
0000
0001
0100
,
0001
0000
0100
1000
0100
0000
1000
0010
,
1000
0000
0010
0001
0010
0000
1000
0010
,
1000
0000
0010
0001
0010
0000
1000
0010
,
1000
0000
0010
0001
0010
0100
2002
0000
,
0000
0000
0000
0000
,
0000
0000
3003
0000
,
0010
0000
0000
0001
0100
0000
0000
0000
0010
0000
0000
0000
0010
0000
0000
0000
,
0010
0000
0000
0001
0100
0000
0000
0000
0010
0000
0000
0000
0010
0000
0000
0000
,
0010
0000
0000
0001
0100
0000
0000
0000
0010
0000
0000
0000
0010
0000
0000
0000
,
0010
0000
0000
0001
0100
0000
0000
0000
0010
0000
0000
0000
0010
0000
0000
0000
,
0010
0000
1000
0000
0100
0000
0000
0000
1000
0000
0000
0101
0000
0000
0000
0000
,
0010
0000
0001
0000
0100
0000
0000
0000
0001
0000
0000
1010
0000
0000
0000
0000
,
0100
0000
0001
0000
0010
0000
0000
0000
0100
0000
0000
1001
0000
0000
0000
0000
,
0100
0000
1000
0000
0010
0000
0000
0000
1000
0000
0000
0110
0000
0000
0000
0000
,
0000
0000
1000
0001
1000
0000
0000
0000
0110
0000
0000
1001
0000
0000
0000
0000
,
0000
0000
0010
0100
0010
0000
0000
0000
1001
0000
0000
0101
0000
0000
0000
0000
,
0000
0000
0001
0100
0001
0000
0000
0000
1100
0000
0000
1001
0000
0000
0000
0000
,
0000
0000
1000
0100
0010
0000
0000
0000
0110
0000
0000
1001
0000
0000
0110
0000
;

//---------------dance-single - ----------------
#NOTES:
     dance-single:
     :
     Medium:
     4:
     0.235580,0.308534,0.197584,0.098792,0.000000,217.000000,191.000000,26.000000,13.000000,0.000000,0.000000,0.235580,0.308534,0.197584,0.098792,0.000000,217.000000,191.000000,26.000000,13.000000,0.000000,0.000000:
0000
0000
0000
0000
,
0000
0000
0000
0000
,
0000
0000
0000
0000
,
0000
0000
0000
0000
,
2000
3000
0200
0300
,
0002
0003
0200
0300
,
0020
0030
0002
0003
,
2000
3000
0020
0030
,
0200
0300
0002
0003
,
2000
3000
0200
0300
,
0010
0000
0001
0001
,
1000
0000
0010
0001
,
0010
0000
1000
0100
,
0010
0000
0001
0100
,
1000
0100
0001
0000
,
1000
0100
1000
0000
,
0001
0010
0100
1000
,
0010
1000
0100
0000
,
1000
0100
0001
0100
,
1000
0100
1000
0000
,
0001
1000
0010
0100
,
0001
0010
0100
1000
,
0001
1000
0010
0010
,
0100
0001
0100
0100
,
0010
1000
0010
0010
,
1000
0100
0001
0001
,
0100
1000
0010
0010
,
0100
0001
0010
0010
,
0100
1000
0001
0001
,
0010
0001
1000
1000
,
0010
1000
0100
1001
,
1000
1100
0001
0101
,
1000
0010
0100
1001
,
0001
0011
1000
1010
,
0001
0010
0100
1000
,
0010
0110
0100
1001
,
0010
1000
0001
0100
,
0010
1000
0010
1001
,
1000
0001
1000
0100
,
0010
0001
0010
1001
,
0010
0001
0100
0010
,
0100
0001
1000
1001
,
0001
0100
0001
1000
,
0100
1000
0001
1001
,
0020
0000
0000
0030
,
0100
0100
0100
0000
,
1000
1000
0010
0001
,
0010
1000
0100
0100
,
0001
0001
0100
1000
,
0100
0001
0010
0010
,
1100
0000
1100
1100
,
0001
0001
0010
0100
,
0011
0000
0011
0011
,
1000
0010
0100
0001
,
1000
0010
1010
1001
,
0001
0010
0011
1001
,
1000
0100
0101
1001
,
0001
0100
1100
1001
,
0100
0000
0000
0000
;

//---------------dance-single - ----------------
#NOTES:
     dance-single:
     :
     Easy:
     3:
     0.151987,0.175545,0.000000,0.091192,0.000000,140.000000,140.000000,0.000000,12.000000,0.000000,0.000000,0.151987,0.175545,0.000000,0.091192,0.000000,140.000000,140.000000,0.000000,12.000000,0.000000,0.000000:
// measure 0
0000
0000
0000
0000
,  // measure 1
0000
0000
0000
0000
,  // measure 2
0000
0000
0000
0000
,  // measure 3
0000
0000
0000
0000
,  // measure 4
0020
0030
2000
3000
,  // measure 5
0020
0030
0002
0003
,  // measure 6
2000
3000
0200
0300
,  // measure 7
2000
3000
0200
0300
,  // measure 8
0002
0003
0200
0300
,  // measure 9
0002
0003
0200
0300
,  // measure 10
1000
1000
0000
0010
,  // measure 11
0000
0001
0000
0010
,  // measure 12
0000
1000
0000
1000
,  // measure 13
0000
0001
0000
0001
,  // measure 14
0000
0100
0000
0010
,  // measure 15
0000
1000
0000
0100
,  // measure 16
0000
0001
0000
0100
,  // measure 17
0000
1000
0000
0100
,  // measure 18
0000
0010
0000
0001
,  // measure 19
0000
0010
0000
0100
,  // measure 20
0100
0000
1000
0000
,  // measure 21
0001
0000
0010
0000
,  // measure 22
0001
0001
1000
0000
,  // measure 23
0010
0000
0010
0100
,  // measure 24
0010
0000
1000
0000
,  // measure 25
0100
0100
0010
0000
,  // measure 26
0001
0000
1000
0000
,  // measure 27
0010
0010
1000
0000
,  // measure 28
0001
0001
0100
0000
,  // measure 29
0001
0000
0010
0000
,  // measure 30
0100
1000
0001
0000
,  // measure 31
0100
0100
0100
0000
,  // measure 32
0100
0001
1000
0000
,  // measure 33
0010
0010
0010
0000
,  // measure 34
1000
0100
0010
0000
,  // measure 35
0001
0100
0001
0000
,  // measure 36
0001
0010
0100
0000
,  // measure 37
1000
0100
1000
0000
,  // measure 38
0001
0001
1000
1000
,  // measure 39
0010
0010
0100
0000
,  // measure 40
0001
0001
0010
0000
,  // measure 41
1000
1000
0100
0000
,  // measure 42
0010
0100
0010
0000
,  // measure 43
0100
1000
0100
0000
,  // measure 44
0001
0000
0100
0000
,  // measure 45
1000
0000
0010
0000
,  // measure 46
0100
0000
0001
0000
,  // measure 47
0010
0000
0100
0000
,  // measure 48
1000
0000
0100
0000
,  // measure 49
0001
0000
0100
0000
,  // measure 50
1000
1000
0010
0001
,  // measure 51
0000
0001
0010
0100
,  // measure 52
0000
1000
0100
1000
,  // measure 53
0000
0001
0100
0001
,  // measure 54
0000
1000
0010
0001
,  // measure 55
0001
0001
0010
1000
,  // measure 56
0000
1000
0100
0001
,  // measure 57
0001
0001
0100
1000
;

//---------------dance-single - ----------------
#NOTES:
     dance-single:
     :
     Beginner:
     1:
     0.116162,0.152937,0.007599,0.000000,0.000000,107.000000,106.000000,1.000000,0.000000,0.000000,0.000000,0.116162,0.152937,0.007599,0.000000,0.000000,107.000000,106.000000,1.000000,0.000000,0.000000,0.000000:
// measure 0
0000
0000
0000
0000
,  // measure 1
0000
0000
0000
0000
,  // measure 2
0000
0000
0000
0000
,  // measure 3
0000
0000
0000
0000
,  // measure 4
1000
0000
1000
0000
,  // measure 5
1000
0000
1000
0000
,  // measure 6
0100
0000
0100
0000
,  // measure 7
0100
0000
0100
0000
,  // measure 8
0100
0000
0100
0000
,  // measure 9
0100
0000
0100
0000
,  // measure 10
0010
0000
0001
0000
,  // measure 11
0100
0000
0010
0000
,  // measure 12
1000
0000
0001
0000
,  // measure 13
1000
0000
0100
0000
,  // measure 14
0010
0000
0100
0000
,  // measure 15
0010
0000
0100
0000
,  // measure 16
1000
0000
0001
0000
,  // measure 17
1000
0000
0001
0000
,  // measure 18
0100
0000
0001
0000
,  // measure 19
0100
0000
0001
0000
,  // measure 20
0100
0000
0010
0000
,  // measure 21
0100
0000
0010
0000
,  // measure 22
1000
0000
0010
0000
,  // measure 23
1000
0000
0010
0000
,  // measure 24
1000
0000
0100
0000
,  // measure 25
0001
0000
0100
0000
,  // measure 26
1000
0000
0010
0000
,  // measure 27
0001
0000
0010
0000
,  // measure 28
0100
0000
1000
0000
,  // measure 29
0100
0000
0001
0000
,  // measure 30
0100
0000
0010
0000
,  // measure 31
0001
0000
0100
0000
,  // measure 32
1000
0000
0010
0000
,  // measure 33
0100
0000
0001
0000
,  // measure 34
0010
0000
1000
0000
,  // measure 35
0100
0000
0001
0000
,  // measure 36
0100
0000
0010
0000
,  // measure 37
1000
0000
0001
0000
,  // measure 38
0010
0000
0100
0000
,  // measure 39
0010
0000
0100
0000
,  // measure 40
1000
0000
0001
0000
,  // measure 41
1000
0000
0001
0000
,  // measure 42
0100
0000
0010
0000
,  // measure 43
0100
0000
0010
0000
,  // measure 44
1001
0000
0000
0000
,  // measure 45
0001
0000
0000
0000
,  // measure 46
0010
0000
0000
0000
,  // measure 47
1000
0000
0000
0000
,  // measure 48
0100
0100
0100
0000
,  // measure 49
0100
0100
0100
0000
,  // measure 50
0010
0000
0001
0000
,  // measure 51
1000
0000
0001
0000
,  // measure 52
0100
0000
0001
0000
,  // measure 53
1000
0000
0010
0000
,  // measure 54
0100
0000
0010
0000
,  // measure 55
1000
0000
0001
0000
,  // measure 56
1000
0000
0100
0000
,  // measure 57
1000
0000
0001
0000
;
