#TITLE:Set Fire to the Rain (Gabe Flaherty Remix);
#SUBTITLE:;
#ARTIST:Adele;
#TITLETRANSLIT:;
#SUBTITLETRANSLIT:;
#ARTISTTRANSLIT:;
#GENRE:21;
#CREDIT:;
#BANNER:Set Fire to the Rain (Gabe Flaherty Remix)-bn.jpg;
#BACKGROUND:Set Fire to the Rain (Gabe Flaherty Remix)-bg.jpg;
#LYRICSPATH:;
#CDTITLE:;
#MUSIC:Set Fire to the Rain (Gabe Flaherty Remix).mp3;
#OFFSET:-3.767999;
#SAMPLESTART:94.452576;
#SAMPLELENGTH:15.118111;
#SELECTABLE:YES;
#DISPLAYBPM:64.000000:127.000000;
#BPMS:0.000000=63.499996
,50.020832=126.999992
,82.000000=63.499996
,112.000000=126.999992
,176.000000=63.499996
,176.500000=190.500000
,178.000000=63.499996
;
#STOPS:
;
#BGCHANGES:;
#KEYSOUNDS:;
#ATTACKS:;

//---------------dance-single - ----------------
#NOTES:
     dance-single:
     [Ness]:
     Challenge:
     9:
     0.566982,0.554086,0.420233,0.038911,0.591440,451.000000,54.000000,5.000000,0.000000,0.000000,0.000000,0.566982,0.554086,0.420233,0.038911,0.591440,451.000000,54.000000,5.000000,0.000000,0.000000,0.000000:
0000
0000
0000
0000
0000
0000
0000
0000
0000
0000
0000
0000
0000
0000
0000
0000
0000
0000
0000
0000
0000
0000
0000
0000
0000
0000
0000
0000
0000
0010
0100
0000
,
1001
0000
0000
0000
0010
0000
0100
0001
0100
0000
0000
0000
0000
0000
1001
0000
0010
0000
0000
0000
0001
0000
1000
0100
0010
0000
0100
0000
0010
0000
0001
0000
,
0100
0000
0100
0000
0000
0000
0010
0000
0001
0000
1000
0000
1100
0000
0000
0000
0110
0000
0000
0000
0010
0000
0001
0100
0010
0000
1000
0000
0000
0000
1000
0000
,
0100
0000
0110
0000
0000
0000
0001
0000
1000
0000
0000
0001
0100
0000
0010
0000
0100
0000
0001
0000
0000
0000
1000
0100
1000
0000
0001
0000
0000
0000
0010
0000
,
1000
0000
1001
0000
0000
0000
1000
0000
0001
0000
0000
0000
1100
0000
0000
0000
0110
0000
0000
0000
0010
0000
0001
0100
0001
0000
1000
0000
0000
0000
1000
0000
,
0010
0000
0000
0000
1000
0000
0000
0000
1100
0000
0000
0000
0000
0000
1001
0000
0100
0000
0001
0000
0000
0000
1000
0010
0100
0000
0001
0000
0000
0000
0010
0000
,
1100
0000
0100
0000
0000
0000
0000
0000
0001
0000
1000
0000
0110
0000
0000
0000
1001
0000
0000
0000
0010
0000
1000
0001
0100
0000
0010
0000
0000
0000
1000
0000
,
0001
0000
0011
0000
0000
0000
0010
0100
1000
0000
0000
0000
0000
0000
1010
0000
0001
0000
0000
0000
0000
0100
0010
1000
0100
0000
0010
0000
0000
0000
0000
0000
,
0011
0100
0000
0000
1000
0001
0100
0110
0101
0000
1000
0001
1100
0000
0101
0000
,
2001
0000
0000
3001
1000
0000
0100
1000
0010
0001
1000
0100
0001
1000
0001
0010
,
0100
0000
0010
0001
1000
0000
0001
0100
1000
0001
0010
1000
0001
1000
0100
0010
,
0001
0000
0010
0100
1000
0000
0010
0001
1000
0100
0001
1000
0100
0001
1000
0010
,
0001
0000
0010
0100
1001
0000
1100
0000
0101
0000
0000
0000
0001
1000
0010
0100
,
0001
0000
0000
0000
0011
0000
0010
0100
1000
0000
0000
0000
0010
0000
1000
0000
,
0001
0000
0100
0000
0101
0000
0100
0010
1000
0000
0100
0000
1000
0000
0001
0000
,
1000
0000
0010
0000
1000
0000
0010
0100
0001
0000
0000
0100
0010
0000
1000
0000
,
0100
0000
0010
0000
0001
0000
0010
0000
0100
0000
0000
0000
1000
0001
0100
0010
,
1000
0000
0001
0000
1000
0001
0100
0010
1000
0000
0000
1000
0000
0000
0100
0000
,
0010
0001
0100
0010
1001
0000
0010
1000
,
1001
0000
0000
0000
0010
0000
0001
0000
1001
0000
0001
0000
1000
0001
1000
0010
,
0100
0000
0001
0000
1000
0000
0010
0000
1000
0000
0100
0000
0010
0000
0001
0000
1000
0000
0010
0000
1000
0000
0100
0000
1100
0000
0000
0000
0100
0000
0010
0001
,
1000
0000
0000
0001
0101
0000
1000
0001
0100
0000
0000
0010
1100
0000
0000
1001
,
0010
0000
0001
0000
0000
0000
1000
0000
0010
0000
0110
0000
0000
0000
1000
0001
0100
0000
0000
0000
0000
0000
1000
0000
1100
0000
0000
0000
0000
0000
0011
0000
,
0010
0000
0100
0000
0000
0000
1000
0100
0010
0000
0000
0000
1001
0000
0000
0000
0101
0000
0000
0000
0000
0000
0001
0000
1000
0000
0010
0000
0100
0000
0001
0000
,
1000
0110
0101
0001
1000
1100
0000
1000
0002
0000
0003
0010
0110
0000
0100
1000
,
0001
0010
1000
0001
0100
1000
0001
0010
0200
0000
0000
1300
0110
0000
0010
0001
,
1000
0010
0001
1000
0100
0001
1000
0100
0002
0000
0000
0103
0110
0000
0010
0001
,
1000
0001
0100
1000
0001
0010
1000
0001
1000
0000
0100
0010
0011
0000
1100
0000
,
1001
0000
0000
0000
0001
1000
0010
0100
0001
0000
0000
0000
0011
0000
0010
0001
,
1000
0000
0000
0000
0010
0000
0100
0000
0001
0000
1000
0000
1001
0000
1000
0001
,
0010
0000
0100
0000
1000
0000
0010
0000
0100
0000
0010
0000
0001
0000
0010
0100
,
0001
0000
0000
1000
0010
0000
1000
0000
0100
0000
0001
0000
1000
0000
0010
0000
,
0001
0000
0000
0000
1000
0010
0100
0010
1000
0000
0100
0000
1000
0010
0100
0010
,
1000
0000
0000
0001
0000
0000
0100
0000
1001
0000
0100
0000
0010
0000
1000
0000
,
0101
0000
0010
1000
0101
0000
0010
0001
,
1100
0000
0100
0000
0010
0001
1000
0010
0100
0010
1000
0100
0010
0001
1000
0100
,
0010
0001
1000
0001
0100
0001
1000
0001
,
0010
0100
1000
0100
0010
0100
0001
0100
,
0010
0001
0100
0010
0100
1000
0100
0010
,
0100
0001
1000
0001
0010
0100
1000
0010
,
1000
0100
0100
0001
1000
0010
0010
0001
,
1000
0010
0010
0001
1000
0100
0100
0001
,
1000
0100
0001
0100
1000
0100
0001
0100
,
1000
0010
0001
0010
1000
0100
0010
0001
,
2000
3010
0100
0010
1001
0000
0000
0000
;

//---------------dance-single - ----------------
#NOTES:
     dance-single:
     [Ness]:
     Hard:
     7:
     0.381323,0.380934,0.116732,0.124514,0.233463,312.000000,15.000000,16.000000,0.000000,0.000000,0.000000,0.381323,0.380934,0.116732,0.124514,0.233463,312.000000,15.000000,16.000000,0.000000,0.000000,0.000000:
0000
0000
0000
0000
,
0010
0000
0000
0000
1001
0000
0000
0100
0010
0000
0000
0000
1000
0000
0000
0100
,
0010
0001
0100
0000
0001
0000
0010
0000
0100
0000
0000
1000
1000
0000
0010
0000
,
0100
0110
0000
0000
0001
0000
1000
0001
0100
0000
0010
0000
0110
0000
0000
0010
,
1000
0100
0010
0000
0001
0000
0000
0000
1000
0000
0001
0000
0100
0000
0010
0000
,
1000
0000
0000
0000
1001
0000
0000
1000
0001
0000
0000
0000
1000
0000
0000
0001
,
0010
1000
0100
0000
1000
0000
0010
0000
0100
0000
0000
0100
0001
0000
1000
0000
,
0010
0110
0000
0000
0001
0000
1000
0001
0100
0000
0010
0000
1001
0000
0000
0010
,
1000
0100
0000
1000
0001
0000
0000
0000
0010
0100
1000
0000
0001
0000
1000
0000
,
1010
0000
0000
0010
0100
0000
0001
0000
1000
0100
0000
1000
0100
0000
0010
0000
,
0011
0000
0000
0010
0100
0000
1000
0000
0001
0100
0000
0001
0100
0000
0010
0000
,
1100
0000
0000
0100
0010
0000
0001
0000
1000
0100
0000
1000
0100
0000
0010
0000
,
0001
0000
1000
0010
0100
0000
0001
0000
1002
0000
0000
0000
1003
0000
0000
0000
,
0001
0000
1000
0001
0010
0000
0100
1000
,
0001
1000
0010
0100
0001
0000
0100
0000
,
0010
0000
1000
0001
1000
0000
0100
0010
,
0100
0000
0010
0000
0001
0000
1000
0000
0100
0000
0000
1000
0000
0000
0001
0000
,
0000
0100
0001
1000
0000
0100
1000
0001
,
0000
0010
0001
0100
0010
0000
1001
0000
,
0100
0000
0001
1000
0001
0010
0001
0010
,
0100
0000
1000
0000
0001
0000
0100
0000
1000
0000
0000
0100
0110
0000
0000
0010
,
1000
0001
0000
1000
0100
0000
0010
0001
1000
0000
0000
0010
0100
0000
0000
0001
,
1000
0100
0000
0100
0000
0010
0001
1000
0100
0000
0000
0100
0010
0000
0001
0100
,
0000
0010
0000
0000
1000
0100
1000
0100
1000
0000
0001
0000
0100
0010
0100
0010
,
0100
0000
0000
0000
0001
0000
1000
0001
1000
0000
0000
1000
0100
0000
0010
0000
,
0001
1000
0000
0001
1000
0000
0010
0000
0100
0000
0000
0100
0001
0000
1000
0000
,
0001
1000
0000
0001
1000
0000
0100
0000
0010
0000
0000
0010
0100
0000
0010
0000
,
0001
1000
0000
0001
1000
0000
0010
0000
0100
0000
0001
1000
0001
0000
0010
0000
,
0210
0000
0310
0000
0001
0000
1000
0001
,
1000
0000
0010
1000
0100
0010
0001
1000
,
0001
0000
1000
0000
0010
0000
0100
0001
,
0100
0000
0010
1000
0001
1000
0001
1000
,
0100
0000
0000
0010
0000
0000
0001
0000
0000
0000
0010
0000
0001
0000
1000
0000
,
0000
0010
1000
0001
0000
0010
0001
0100
,
0001
0000
0110
0000
1000
0000
0010
0100
,
0001
1000
0001
1000
0010
1000
0001
0100
,
0002
0000
0000
0000
0023
0000
0000
0000
0230
0000
0000
0000
1300
0000
0001
0100
,
0002
0000
2003
0000
3020
0000
0130
0001
,
2000
0000
3200
0000
0320
0000
0031
1000
,
0000
0010
0100
0000
0001
1000
0001
1000
,
0010
0000
1000
0100
0000
1000
0100
0010
,
0000
0001
0100
0010
0000
0100
0001
0100
,
0002
0000
0003
1000
0020
0000
0030
1000
,
0200
0000
0300
0010
0001
0000
1000
0000
,
2001
0020
3000
0030
0100
0000
0000
0000
;

//---------------dance-single - ----------------
#NOTES:
     dance-single:
     [Ness]:
     Medium:
     6:
     0.263480,0.259728,0.031128,0.000000,0.112840,233.000000,4.000000,0.000000,0.000000,0.000000,0.000000,0.263480,0.259728,0.031128,0.000000,0.112840,233.000000,4.000000,0.000000,0.000000,0.000000,0.000000:
0000
0000
0000
0000
,
0010
0000
0000
0000
0100
0000
0000
0001
1000
0000
0000
0000
0010
0000
0000
0000
,
1000
0000
0100
0000
0010
0000
0001
0100
,
0010
0000
0000
0000
1000
0000
0000
0010
0100
0000
0000
0000
0001
0000
0000
0000
,
1000
0000
0100
0000
0010
0000
0001
1000
,
0100
0000
0000
0000
0010
0000
0000
0001
0100
0000
0000
0000
0010
0000
0000
0000
,
1000
0000
0100
0010
0100
0000
1000
0000
,
0001
0000
0000
0000
0100
0000
0000
0010
1000
0000
0000
0000
0100
0000
0000
0000
,
0010
0000
0001
1000
0010
0000
0100
0001
,
1000
0000
0000
0010
1000
0000
0000
0010
0100
0000
0000
0100
0000
0000
0100
0000
,
0100
0000
0000
0001
0100
0000
0000
0001
0010
0000
0000
0010
0000
0000
0010
0000
,
0100
0000
0000
1000
0100
0000
0000
1000
0010
0000
0000
0010
0000
0000
0000
0000
,
0100
0000
0000
0010
0010
0000
0010
0000
1001
0000
0000
0000
0010
0000
0000
0000
,
0001
0000
0100
0001
1000
0000
0010
0000
,
1000
0100
0010
0100
,
1000
0001
0100
0000
0010
0000
0100
0000
,
0001
0000
1000
0000
0010
0000
0000
0000
0100
0000
0000
0100
0000
0000
0010
0000
,
0000
0100
0000
0010
0000
1000
0000
0100
,
0000
0001
0000
0010
0100
0000
0010
0000
,
0001
0000
0100
0010
1000
0000
0010
1000
,
0001
0000
0000
0000
0010
0000
0000
0000
0100
0000
0000
0000
1000
0000
0000
0010
,
0100
0000
0000
0000
0001
0000
1000
0000
0100
0000
0000
0010
0100
0000
0000
0000
,
1000
0000
0001
0000
1000
0000
0000
0000
0010
0000
0000
0100
0001
0000
0000
0000
,
1000
0000
0001
0000
0010
0000
0000
0000
0100
0000
0000
1000
0001
0000
0000
0000
,
0100
0000
0010
0000
0100
0000
0000
0010
1000
0000
0000
0010
1000
0000
0100
0000
,
0010
0000
0000
0010
0000
0000
0010
0000
0010
0000
0000
0001
0010
0000
0000
0001
,
0100
0000
0000
0100
0000
0000
0100
0000
0010
0000
0000
0100
0010
0000
0000
0100
,
0010
0000
0000
0010
0000
0000
0010
0000
1000
0000
0100
0000
0010
0000
0001
0000
,
1000
0000
0001
0000
0100
0000
0010
0100
,
0001
0000
1000
0000
0001
1000
0010
0100
,
0001
0010
0100
1000
,
0001
0000
0010
0000
0001
0100
0010
0000
,
1000
0000
0000
1000
0000
0000
0001
0000
0000
0000
0100
0000
0000
0000
1000
0000
,
0000
0010
0000
0001
0000
0100
0000
0010
,
0100
0000
0001
0000
1000
0000
0010
1000
,
0100
0000
0010
0000
0001
1000
0100
0000
,
1001
0000
0010
0000
1000
0000
0010
0001
,
1000
0000
0010
0000
0100
0001
1000
0000
,
0010
1000
0100
0001
,
0100
0000
1000
0000
0001
0010
0100
1000
,
0001
0000
1000
0000
0010
0100
0001
0000
,
0010
0100
1000
0000
0010
0100
0001
0000
,
1000
0001
1000
0001
,
1000
0001
0010
0100
,
0110
0000
1001
0000
;

//---------------dance-single - ----------------
#NOTES:
     dance-single:
     [Ness]:
     Easy:
     4:
     0.210117,0.207782,0.023346,0.093385,0.000000,174.000000,3.000000,12.000000,0.000000,0.000000,0.000000,0.210117,0.207782,0.023346,0.093385,0.000000,174.000000,3.000000,12.000000,0.000000,0.000000,0.000000:
// measure 0
0000
0000
0000
0000
,  // measure 1
0010
0010
1000
0001
,  // measure 2
0100
0100
0010
0100
,  // measure 3
0001
0001
1000
0001
,  // measure 4
0010
0010
0100
1000
,  // measure 5
0001
0100
0010
1000
,  // measure 6
0100
0010
0001
1000
,  // measure 7
0010
0100
0010
1000
,  // measure 8
0001
0100
1000
0100
,  // measure 9
0001
0000
1000
0000
0010
0100
0010
0100
,  // measure 10
0001
0000
1000
0000
0010
0100
0010
0100
,  // measure 11
0001
0000
1000
0000
0001
1000
0001
1000
,  // measure 12
0100
0010
1001
1000
,  // measure 13
0001
1000
0001
0010
,  // measure 14
0100
1000
0001
1000
,  // measure 15
0001
1000
0010
0100
,  // measure 16
0001
1000
0100
0100
,  // measure 17
0010
0010
0100
0100
,  // measure 18
0010
0010
0002
0003
,  // measure 19
0200
0300
0020
0030
,  // measure 20
2000
3000
0001
0100
,  // measure 21
1000
0100
0001
0010
,  // measure 22
0100
1000
0001
0010
,  // measure 23
1000
0010
0001
0100
,  // measure 24
0010
1000
0001
0010
,  // measure 25
0100
1000
0100
1000
0100
0000
0010
0000
,  // measure 26
0001
0010
0001
0010
0001
0000
0100
0000
,  // measure 27
0010
1000
0010
1000
0001
0000
1000
0000
,  // measure 28
1001
1000
0001
1000
,  // measure 29
0100
0010
0001
1000
,  // measure 30
0001
1000
0001
1000
,  // measure 31
0010
0100
0001
1000
,  // measure 32
0001
0010
0001
0010
,  // measure 33
0100
1000
0100
1000
,  // measure 34
0002
0003
2000
3000
,  // measure 35
0020
0030
0200
0300
,  // measure 36
0001
0001
0100
0100
,  // measure 37
0001
0001
0100
0100
,  // measure 38
0001
0100
0001
0100
,  // measure 39
1000
0100
0001
0100
,  // measure 40
0010
0010
1000
1000
,  // measure 41
0010
0010
1000
1000
,  // measure 42
0200
0300
0020
0030
,  // measure 43
0002
0003
2000
3000
,  // measure 44
0010
0000
1001
0000
;

//---------------dance-single - ----------------
#NOTES:
     dance-single:
     [Ness]:
     Beginner:
     1:
     0.102279,0.102724,0.007782,0.000000,0.000000,91.000000,1.000000,0.000000,0.000000,0.000000,0.000000,0.102279,0.102724,0.007782,0.000000,0.000000,91.000000,1.000000,0.000000,0.000000,0.000000,0.000000:
0000
0000
0000
0000
,
0010
0000
1000
0000
,
0100
0000
0001
0000
,
0010
0000
0001
0000
,
0100
0000
1000
0000
,
0010
0000
0100
0000
,
0001
0000
1000
0000
,
0100
0000
0010
0000
,
0001
0000
1000
0000
,
0001
0000
1000
1000
,
1000
0000
0010
0010
,
0010
0000
0100
0100
,
0100
0000
1001
0000
,
0010
0000
1000
0000
,
0010
0000
0100
0000
,
0010
0000
1000
0000
,
0001
0000
0010
0000
,
0010
0000
0100
0000
,
0100
0000
1000
0000
,
1000
0000
0001
0000
,
0001
0000
0100
0000
,
0010
0000
0010
0000
,
1000
0000
0001
0000
,
0010
0000
0100
0000
,
1000
0000
0001
0000
,
0100
0100
0100
0000
,
0010
0010
0010
0000
,
1000
1000
0000
0001
,
0001
0000
0100
0000
,
1000
0000
0100
0000
,
0001
0000
0001
0000
,
1000
0000
1000
0000
,
0010
0000
0010
0000
,
0100
0000
0100
0000
,
0001
0000
0010
0000
,
0100
0000
1000
0000
,
0001
0000
0001
0000
,
0100
0000
0100
0000
,
1000
0000
0100
0000
,
0001
0000
0100
0000
,
1000
0000
1000
0000
,
0001
0000
0001
0000
,
0010
0000
0000
0000
,
0100
0000
0000
0000
,
0010
0000
0000
0000
;

//---------------dance-double - ----------------
#NOTES:
     dance-double:
     [Ness]:
     Challenge:
     9:
     0.575875,0.571401,0.420233,0.054475,0.614786,457.000000,54.000000,7.000000,0.000000,0.000000,0.000000,0.575875,0.571401,0.420233,0.054475,0.614786,457.000000,54.000000,7.000000,0.000000,0.000000,0.000000:
00000000
00000000
00000000
00000000
00000000
00000000
00000000
00000000
00000000
00000000
00000000
00000000
00000000
00000000
00000000
00000000
00000000
00000000
00000000
00000000
00000000
00000000
00000000
00000000
00000000
00000000
00000000
00000000
00000000
00000010
00000100
00000000
,
00001001
00000000
00000000
00000000
00011000
00000000
00000000
00000000
10010000
00000000
00000000
00000000
00000000
00000000
10000000
00000000
00010000
00000000
00000000
00000000
00000000
00000000
00100000
00010000
01000000
00000000
00100000
00000000
00000000
00000000
10000000
00000000
,
01000000
00000000
01100000
00000000
00000000
00000000
00100000
00000000
00010000
00000000
10000000
00000000
01000000
00000000
00000000
00000000
00100000
00000000
00010000
00000000
00000000
00000000
10000000
00010000
01000000
00000000
00010000
00000000
00000000
00000000
10000000
00100000
,
10000000
00000000
00000000
00000000
00011000
00000000
00000000
00000000
00001001
00000000
00000000
00000000
00000001
00001000
00000001
00000000
00000010
00000000
00000001
00000000
00000100
00000000
00000000
00000010
00000100
00000000
00000001
00000000
00000000
00000000
00001000
00000000
,
00000100
00000000
00000010
00000000
00000010
00000000
00000001
00000000
00000100
00000000
00000010
00000000
00001000
00000000
00000100
00000000
00000000
00000000
00000010
00000000
00000100
00010000
00001000
00010000
00001000
00000000
00011000
00000000
00000000
00000000
00100000
00000000
,
01000000
00000000
00000000
00000000
10100000
00000000
00000000
00000000
00110000
00000000
00000000
00000000
00000000
00000000
10010000
00000000
01000000
00000000
00001000
00000000
00000000
00000000
00000100
00000010
00000100
00000000
00001001
00000000
00000000
00000000
00000011
00000000
,
00001100
00000000
00000100
00000000
00000000
00000000
00010000
00000000
00001000
00000000
01000000
00000000
00100000
00000000
00000000
00000000
10000000
00000000
00000000
00000000
01000000
00000000
00000000
00100000
01000000
00000000
10000000
00000000
00010000
00000000
01000000
00000000
,
00001000
00000000
00001000
00000000
00000000
00000000
00000100
00000000
00000110
00000000
00000010
00000000
00000100
00000000
00001010
00000000
00000110
00000000
00000000
00000000
00001000
00000001
00000010
00000001
00000010
00000000
00000100
00000000
00001000
00000000
00000010
00000000
,
00001000
00001100
00000000
00000100
00010000
00001000
00100000
00000000
00110000
00000000
00100000
01000000
10000000
00100000
01000000
00010000
,
00011000
00000000
00000000
00000100
00011000
00000000
00001000
00010000
01000000
10000000
00100000
00010000
00001000
00000100
00000001
00000010
,
00001000
00000000
00000000
01000000
00011000
00000000
00010000
00001000
00000100
00000001
00000010
00001000
00010000
01000000
10000000
00100000
,
00010000
00000000
00000000
00000010
00011000
00000000
00001000
00100000
00010000
00000010
00001000
00010000
01000000
00001000
00010000
00000000
,
00100000
00000000
01000000
10000000
10010000
00000000
01010000
00000000
00011000
00000000
00000000
00000000
00000100
00001000
00000010
00000100
,
00000002
00000000
00000000
00000000
00000013
00000000
00000010
00000100
00001000
00000000
00000100
00000000
00000010
00000000
00001100
00000000
,
00000000
00000000
00000100
00000000
00010000
00000000
00001000
00000000
01100000
00000000
00000000
00000000
00100000
10000000
01000000
00100000
,
00010000
00000000
10000000
00000000
00010000
00000000
01000000
00000000
01100000
00000000
00000000
00100000
10000000
00000000
00010000
00000000
,
00000000
00000000
00100000
00000000
00001000
00000000
00010000
00000000
00011000
00000000
00000100
00000000
00000010
00000100
00010000
00001000
,
00010000
00000000
01000000
00000000
00100000
01000000
00001000
00010000
00001000
00000000
00000100
00000000
00000000
00000000
00000010
00000000
,
00000000
00000001
00000100
00000010
00002100
00000000
00003010
00010000
,
01020000
00000000
00000000
00000000
00130000
00000000
00001000
00000000
00010000
00000000
00001000
00000000
01000000
00001000
00010000
00000100
,
00010000
00001000
00100000
00001000
00010000
00000010
00010000
00001000
00010000
00000000
00000000
00000100
00000110
00000000
00000000
00000011
,
00001000
00000000
00000001
00000000
00000000
00000000
00000100
00000010
00000100
00000000
00000001
00000000
00001000
00000000
00000100
00000000
00000010
00000000
00000000
00000000
00000100
00000000
00010000
00000000
00010000
00000000
00001000
00000000
01000000
00000000
01100000
00000000
,
00000000
00000000
10010000
00000000
00000000
00000000
00110000
00000000
00100000
00000000
01000000
00000000
10000000
00000000
00010000
01000000
01010000
00000000
00000000
00000000
00000000
00000000
10010000
00000000
00100000
00000000
00000000
00000000
10000000
00000000
00100000
00000000
,
00001000
00000000
00010000
00000000
00000000
00000000
00000000
00001000
00010000
00000000
00000000
00000000
00001100
00000000
00000000
00000000
00001001
00000000
00000000
00000000
00001000
00000000
00000010
00000000
00000100
00000000
00000100
00000000
00000001
00000000
00000010
00000000
,
00000100
00010000
00011000
00000000
00000000
01000000
00100000
10000000
00020000
00000000
00000000
00130000
00001000
00000000
00010000
00000010
,
00000001
00000010
00001000
00010000
01000000
10000000
01000000
00010000
00002000
00000000
00000000
00003010
00010000
00000000
00001000
00100000
,
10000000
00100000
00010000
00001000
00000100
00000001
00000100
00001000
00010000
00000000
00000000
00100000
01000000
00000000
10000000
00100000
,
00010000
00001000
00000100
00000001
00001000
00000001
00000010
00000000
00000011
00000000
00001100
00000100
00011000
00000000
01001000
00000000
,
00110000
00000000
00000000
00000000
00100000
00010000
10000000
00010000
02000000
00000000
00000000
00000000
03100000
00000000
10000000
01000000
,
00100000
00001000
00010000
00000010
00000000
00000110
00001001
00000101
,
00000001
00000000
00000010
00000000
00000100
00010000
00000010
00001000
00000100
00000000
00010000
00000000
00001000
01000000
00010000
00100000
,
01000000
00000000
00000000
10000000
00100000
00000000
01000000
00000000
00000000
00000000
00010000
00000000
00100000
00000000
00001000
00000000
,
00011000
00000000
00000000
00100000
00001000
01000000
00010000
00100000
01000000
00000000
00000000
00100000
00001000
00010000
00000100
00000010
,
00000100
00001000
00000000
00001010
00000000
00000001
00001000
00000100
,
00011000
00000000
00010000
01000000
00011000
00000000
00001000
00000100
,
00000010
00000000
00000001
00000000
00000100
00000010
00001000
00000100
00010000
00001000
01000000
00010000
00100000
01000000
10000000
00100000
,
00001000
00000000
00100000
00000000
10000000
00000000
01000000
00000000
00100000
00000000
00001000
00000000
00010000
00000000
00000100
00001000
,
00000100
00000010
00000001
00000100
00000010
00001000
00000100
00010000
,
00001000
00000000
01000000
00000000
00010000
00000000
00100000
00000000
01000000
00000000
10000000
00000000
00100000
00000000
10000000
01000000
,
10000000
00100000
01000000
00010000
00100000
00001000
00010000
00000100
,
00000010
00000001
00000100
00000010
00001000
00000100
00010000
00000010
,
00001000
00000100
00000010
00000001
00000100
00000010
00001000
00000100
,
00010000
00001000
00100000
00010000
01000000
10000000
01000000
00100000
,
10000000
01000000
00100000
00001000
00010000
00000100
00000010
00000001
,
00000200
00000310
00010000
00001000
00011000
00000000
00000000
00000000
;

//---------------dance-double - ----------------
#NOTES:
     dance-double:
     [Ness]:
     Hard:
     7:
     0.384658,0.380934,0.140078,0.124514,0.233463,312.000000,18.000000,16.000000,0.000000,0.000000,0.000000,0.384658,0.380934,0.140078,0.124514,0.233463,312.000000,18.000000,16.000000,0.000000,0.000000,0.000000:
00000000
00000000
00000000
00000000
,
00100000
00000000
00000000
00000000
10010000
00000000
00000000
10000000
00010000
00000000
00000000
00000000
01000000
00000000
00000000
00100000
,
10000000
01000000
00100000
00000000
00001000
00000000
00010000
00000000
00000100
00000000
00000000
00000010
00000100
00000000
00000010
00000000
,
00000001
00000011
00000000
00000000
00000010
00000000
00000100
00010000
00001000
00000000
01000000
00000000
01100000
00000000
00000000
00100000
,
10000000
00010000
01000000
00000000
00001000
00000000
00000000
00000000
00010000
00000000
00000100
00000000
00001000
00000000
00000010
00000000
,
00000100
00000000
00000000
00000000
00001001
00000000
00000000
00001000
00000001
00000000
00000000
00000000
00000010
00000000
00000000
00000100
,
00001000
00000010
00000100
00000000
00000001
00000000
00001000
00000000
00000100
00000000
00000000
00010000
00001000
00000000
01000000
00000000
,
00100000
01100000
00000000
00000000
00100000
00000000
10000000
00010000
10000000
00000000
01000000
00000000
01100000
00000000
00000000
00100000
,
00010000
10000000
00000000
00010000
10000000
00000000
00000000
00000000
00100000
01000000
00001000
00000000
00010000
00000000
00000100
00000000
,
00001100
00000000
00000000
00000100
00000010
00000000
00000001
00000000
00000100
00000010
00000000
00000100
00000010
00000000
00001000
00000000
,
00001100
00000000
00000000
00010000
00001000
00000000
01000000
00000000
00100000
10000000
00000000
00100000
10000000
00000000
00010000
00000000
,
10010000
00000000
00000000
10000000
00010000
00000000
10000000
00000000
01000000
00100000
00000000
00001000
00010000
00000000
00000100
00000000
,
00000010
00000000
00000001
00001000
00000001
00000000
00000101
00000000
00001002
00000000
00000000
00000000
00000013
00000000
00000000
00000000
,
00000100
00000000
00010000
00001000
00010000
00000000
01000000
00100000
,
10000000
01000000
10000000
00010000
00100000
00000000
00001000
00000000
,
00010000
00000000
00000100
00000010
00000100
00000000
00000010
00000001
,
00001000
00000000
00000001
00000000
00000100
00000000
00000010
00000000
00000100
00000000
00000000
00010000
00000000
00000000
00001000
00000000
,
00000000
01000000
00010000
10000000
00000000
00100000
01000000
00010000
,
00000000
10000000
01000000
00100000
10010000
00000000
00001000
00000000
,
00011000
00000000
00000100
00010000
00000010
00001000
00000001
00001000
,
00000100
00000000
00000010
00000000
00000100
00000000
00000010
00000000
00000001
00000000
00000000
00000010
00000110
00000000
00000000
00000100
,
00010000
00001000
00000000
01000000
00100000
00000000
10000000
01000000
10000000
00000000
00000000
10000000
00010000
00000000
00000000
00100000
,
00001000
00010000
00000000
00000100
00000000
00001000
00000010
00001000
00000001
00000000
00000000
00000010
00000100
00000000
00010000
00001000
,
00000000
00010000
00000000
00000000
00000100
00001000
00000010
00001000
00000100
00000000
00000010
00000000
00000001
00000100
00000001
00000010
,
00000001
00000000
00000000
00000000
00000010
00000000
00000100
00010000
00001000
00000000
00000000
01000000
00100000
00000000
10000000
00000000
,
00010000
01000000
00000000
00010000
01000000
00000000
00100000
00000000
10000000
00000000
00000000
01000000
00100000
00000000
00001000
00000000
,
00010000
00001000
00000000
00010000
00001000
00000000
00010000
00000000
00000100
00000000
00000000
00000010
00000100
00000000
00000010
00000000
,
00000001
00001000
00000000
00000001
00001000
00000000
00000010
00000000
00000100
00000000
00000001
00001000
00000001
00000000
00000010
00000000
,
00002001
00000000
00003100
00000000
00010000
00000000
00001000
01000000
,
00100000
00000000
10000000
01000000
10000000
00010000
10000000
00100000
,
10000000
00000000
00100000
00000000
01000000
00000000
00010000
10000000
,
00010000
00000000
00100000
00001000
00010000
00000010
00010000
00001000
,
01000000
00000000
00000000
00100000
00000000
00000000
10000000
00000000
00000000
00000000
01000000
00000000
00100000
00000000
00001000
00000000
,
00000000
00010000
00000100
00010000
00000000
00001000
01000000
00100000
,
11000000
00000000
00010000
00000000
01010000
00000000
10000000
00010000
,
00100000
00001000
00010000
00000010
00000100
00000001
00000100
00000010
,
00002000
00000000
00000000
00000000
00003020
00000000
00000000
00000000
00000230
00000000
00000000
00000000
00000301
00000000
00001000
00000001
,
00002000
00000000
00003200
00000000
00020300
00000000
00031000
01000000
,
00200000
00000000
20300000
00000000
30020000
00000000
10030000
01000000
,
00000000
00010000
01000000
00000000
10000000
00100000
01000000
00010000
,
10000000
00000000
00010000
00100000
00000000
00001000
00010000
00000100
,
00000000
00001000
00000010
00000100
00000000
00000001
00001000
00000001
,
00000020
00000000
00000030
00000100
00020000
00000000
00030000
00001000
,
02000000
00000000
03000000
00100000
10000000
00000000
00010000
00000000
,
20010000
00200000
30000000
00300000
01000000
00000000
00000000
00000000
;

//---------------dance-double - ----------------
#NOTES:
     dance-double:
     [Ness]:
     Medium:
     6:
     0.265703,0.259728,0.046693,0.000000,0.112840,233.000000,6.000000,0.000000,0.000000,0.000000,0.000000,0.265703,0.259728,0.046693,0.000000,0.112840,233.000000,6.000000,0.000000,0.000000,0.000000,0.000000:
00000000
00000000
00000000
00000000
,
10000000
00000000
00000000
00000000
00100000
00000000
00000000
10000000
00010000
00000000
00000000
00000000
01000000
00000000
00000000
00000000
,
00001000
00000000
00010000
00000000
00000100
00000000
00000010
00000100
,
00000010
00000000
00000000
00000000
00000001
00000000
00000000
00000100
00000010
00000000
00000000
00000000
00001000
00000000
00000000
00000000
,
00000100
00000000
00010000
00000000
00001000
00000000
01000000
00100000
,
01000000
00000000
00000000
00000000
00010000
00000000
00000000
10000000
01000000
00000000
00000000
00000000
00100000
00000000
00000000
00000000
,
00001000
00000000
00010000
00000100
00001000
00000000
00000010
00000000
,
00000100
00000000
00000000
00000000
00000001
00000000
00000000
00001000
00000001
00000000
00000000
00000000
00000010
00000000
00000000
00000000
,
00000100
00000000
00010000
00001000
01000000
00000000
00100000
10000000
,
00010000
00000000
00000000
10000000
00010000
00000000
00000000
10000000
00010000
00000000
00000000
00100000
00000000
00000000
00100000
00000000
,
00001000
00000000
00000000
00010000
00001000
00000000
00000000
00010000
00001000
00000000
00000000
00000010
00000000
00000000
00000010
00000000
,
00000001
00000000
00000000
00001000
00000001
00000000
00000000
00001000
00000100
00000000
00000000
00000100
00000000
00000000
00000000
00000000
,
00010000
00000000
00000000
00001000
00010000
00000000
00001000
00000000
00011000
00000000
00000000
00000000
00100000
00000000
00000000
00000000
,
00010000
00000000
10000000
00010000
01000000
00000000
00010000
00000000
,
10000000
00100000
01000000
00001000
,
00010000
00001000
00010000
00000000
00000100
00000000
00000010
00000000
,
00000001
00000000
00001000
00000000
00000001
00000000
00000000
00000000
00000010
00000000
00000000
00000010
00000000
00000000
00000010
00000000
,
00000000
00000100
00000000
00010000
00000000
00001000
00000000
01000000
,
00000000
00100000
00000000
10000000
00010000
00000000
10000000
00000000
,
00100000
00000000
10000000
00010000
01000000
00000000
00100000
10000000
,
01000000
00000000
00000000
00000000
10010000
00000000
00000000
00000000
00100000
00000000
00000000
00000000
00010000
00000000
00000000
10000000
,
00010000
00000000
00000000
00000000
00100000
00000000
00001000
00000000
00010000
00000000
00000000
00000100
00000010
00000000
00000000
00000000
,
00000001
00000000
00000100
00000000
00000010
00000000
00000000
00000000
00001000
00000000
00000000
00000100
00010000
00000000
00000000
00000000
,
00001000
00000000
00010000
00000000
00001000
00000000
00000000
00000000
00010000
00000000
00000000
00000010
00000100
00000000
00000000
00000000
,
00000001
00000000
00001000
00000000
00000100
00000000
00000000
00010000
00001000
00000000
00000000
00010000
00001000
00000000
01000000
00000000
,
00100000
00000000
00000000
00100000
00000000
00000000
00100000
00000000
10000000
00000000
00000000
00010000
10000000
00000000
00000000
00010000
,
01000000
00000000
00000000
01000000
00000000
00000000
01000000
00000000
00001000
00000000
00000000
00010000
00001000
00000000
00000000
00010000
,
00000100
00000000
00000000
00000100
00000000
00000000
00000100
00000000
00000010
00000000
00000100
00000000
00001000
00000000
00000001
00000000
,
00001000
00000000
00000010
00000000
00000100
00000000
00000001
00001000
,
00000001
00000000
00000010
00000000
00000100
00001000
00000100
00001000
,
00000010
00001000
00000001
00000100
,
00000010
00000000
00001000
00000000
00000100
00010000
00001000
00000000
,
00010000
00000000
00000000
00001000
00000000
00000000
00100000
00000000
00000000
00000000
01000000
00000000
00000000
00000000
10000000
00000000
,
00000000
00100000
00000000
10000000
00000000
00010000
00000000
01000000
,
10010000
00000000
10000000
00000000
00010000
00000000
00100000
00010000
,
10000000
00000000
00100000
00000000
01000000
00010000
10000000
00000000
,
11000000
00000000
10000000
00000000
00100000
00000000
01000000
00010000
,
10000000
00000000
00010000
00000000
00100000
00001000
00010000
00000000
,
00000100
00000010
00000001
00000100
,
00000010
00000000
00001000
00000000
00000100
00001000
00000100
00001000
,
00000010
00000000
00001000
00000000
00000001
00001000
00000100
00000000
,
00010000
00001000
00010000
00000000
00001000
01000000
00100000
00000000
,
10000000
00010000
00100000
01000000
,
10000000
00100000
01000000
00001000
,
00011000
00000000
00011000
00000000
;

//---------------dance-double - ----------------
#NOTES:
     dance-double:
     [Ness]:
     Easy:
     4:
     0.207893,0.207782,0.007782,0.108949,0.000000,172.000000,1.000000,14.000000,0.000000,0.000000,0.000000,0.207893,0.207782,0.007782,0.108949,0.000000,172.000000,1.000000,14.000000,0.000000,0.000000,0.000000:
00000000
00000000
00000000
00000000
,
00000100
00001000
00000010
00000100
,
00000001
00000010
00000100
00010000
,
00001000
00010000
00000100
00001000
,
00000001
00001000
00000010
00000100
,
00000001
00000010
00000100
00010000
,
00001000
01000000
00100000
10000000
,
00010000
00100000
01000000
10000000
,
00100000
10000000
00010000
00100000
,
01000000
00000000
00100000
00000000
00001000
00010000
00001000
00010000
,
00000010
00000000
00001000
00000000
00000001
00001000
00000001
00001000
,
00000100
00000000
00010000
00000000
00001000
00010000
00001000
00010000
,
00001000
01000000
00100000
10000000
,
01000000
10000000
00010000
00100000
,
00010000
01000000
00100000
10000000
,
00010000
10000000
01000000
00100000
,
00001000
00010000
00002000
00000000
,
00013000
00000100
00000010
00000001
,
00000100
00000001
00002000
00003000
,
00000200
00000300
00020000
00030000
,
00002000
00003000
01000000
00010000
,
00100000
01000000
10000000
00100000
,
10000000
00010000
00100000
00001000
,
00010000
00000010
00001000
00000100
,
00000010
00000001
00000100
00000010
,
00010000
00001000
00010000
00001000
01000000
00000000
00100000
00000000
,
10000000
00010000
10000000
00010000
00100000
00000000
00001000
00000000
,
00010000
00000100
00010000
00000100
00001000
00000000
00000010
00000000
,
00000100
00000001
00001000
00000001
,
00000010
00000100
00010000
00001000
,
01000000
00100000
10000000
01000000
,
00200000
00000000
00301000
00010000
,
00000100
00001000
00000010
00000100
,
00000001
00001000
00000001
00000010
,
00000200
00000300
00020000
00030000
,
00002000
00003000
02000000
03000000
,
00100000
00100000
10000000
10000000
,
01000000
01000000
00100000
00100000
,
00001000
00001000
00010000
00010000
,
00000010
00000010
00001000
00001000
,
00000100
00001000
00000100
00001000
,
00000010
00000100
00000010
00000100
,
00000002
00000003
00000020
00000030
,
00000200
00000300
00002000
00003000
,
00000010
00000000
00001001
00000000
;
