#TITLE:Secrets (Radio Edit);
#SUBTITLE:;
#ARTIST:Tiesto & KSHMR feat. Vassy;
#TITLETRANSLIT:;
#SUBTITLETRANSLIT:;
#ARTISTTRANSLIT:;
#GENRE:A Town Called Paradise;
#CREDIT:;
#BANNER:Secrets-bn.jpg;
#BACKGROUND:Secrets-bg.jpg;
#LYRICSPATH:;
#CDTITLE:;
#MUSIC:Secrets.mp3;
#OFFSET:-0.054000;
#SAMPLESTART:90.073067;
#SAMPLELENGTH:15.000000;
#LASTBEATHINT:230.084320;
#SELECTABLE:YES;
#BPMS:0.000000=128.000000
;
#STOPS:
;
#BGCHANGES:;
#KEYSOUNDS:;
#ATTACKS:;

//---------------dance-single - ----------------
#NOTES:
     dance-single:
     :
     Hard:
     8:
     0.495620,0.639088,0.337804,0.639089,0.127818,380.000000,343.000000,37.000000,70.000000,0.000000,0.000000,0.495620,0.639088,0.337804,0.639089,0.127818,380.000000,343.000000,37.000000,70.000000,0.000000,0.000000:
0000
0000
0000
0000
,
0000
0000
0000
0000
,
0000
0000
0000
0000
,
0000
0000
0000
0000
0000
0000
0000
0020
,
0000
0000
1030
0001
0100
0010
0100
0001
,
0010
0000
0220
0000
0330
0000
0110
2000
,
0000
3001
1000
0200
0000
1300
0010
0100
,
0001
0010
0100
1000
0000
0001
0100
0000
,
2001
0000
3010
1000
0001
0100
0010
0100
,
0002
0000
0013
0000
0000
0100
1000
0020
,
0000
1030
0010
0100
0001
0100
0010
1000
,
0001
0010
0000
0110
0000
1001
0000
0020
,
0000
0000
0031
1000
0010
0100
0001
1000
,
0100
0000
0220
0000
0330
0000
0110
0002
,
0000
1003
0010
0100
0000
0010
0100
0001
,
1000
0010
0100
0002
0000
1003
0100
0000
,
1100
0000
0000
0000
0101
0000
0000
0000
1000
0100
0000
0001
0100
0000
0002
0000
,
0000
1003
0010
0000
1000
1000
0100
0010
,
1001
0000
0000
0000
1100
0000
0000
0000
1000
0010
0000
0100
0001
0000
0020
0000
,
0000
0031
0101
0000
0001
0001
0100
0010
,
0100
0000
0000
0000
1010
0000
0000
0000
0010
1000
0000
0001
0100
0000
0020
0000
,
0000
0130
0101
0000
1000
1000
0100
0010
,
0100
0000
0000
0000
0110
0000
0000
0000
0001
1000
0000
1000
0100
0000
0020
0000
,
0000
0031
1000
0000
0010
0100
0001
0010
,
0010
0100
1000
0010
0010
0100
0001
1000
,
1000
0100
0010
0001
0001
0010
0100
1000
,
1000
0010
0100
0001
0001
0010
0100
1000
,
1000
0100
0001
0100
0100
0010
0001
0010
,
0010
0100
0010
0000
0001
0010
0001
0000
0100
0001
0100
0000
0001
1000
0001
0000
,
1000
0010
1000
0000
0010
0100
0010
0000
0100
0001
0100
0000
0001
1000
0002
0000
,
0000
0013
0100
1000
0010
0100
0001
1000
,
0010
0100
0000
0110
0000
2002
3003
0000
,
0002
0003
0002
0003
0010
0100
0010
0002
,
0000
0000
1000
0000
0103
0000
0000
0000
0001
0100
0001
0000
1000
0000
0100
0000
,
2200
3300
0202
0303
1000
0010
0100
0020
,
0000
0000
0001
0000
0130
0000
0000
0000
0001
1000
0010
0000
0100
0000
0110
0000
,
2000
3000
2000
3000
0100
0010
0100
2000
,
0000
0000
0010
0000
3001
0000
0000
0000
0010
1000
0010
0000
0001
0000
0100
0000
,
0202
0303
2200
3300
0001
0010
0100
0020
,
0000
0000
1000
0000
0130
0000
0000
0000
0001
1000
0001
0000
1001
0000
0000
0000
,
0200
0300
0200
0300
1000
0010
1000
0200
,
0000
0000
0001
0000
0310
0000
0000
0000
0100
0010
0100
0000
1000
0000
0001
0000
,
0022
0033
0220
0330
0001
1000
0010
2000
,
0000
0000
0001
0000
3010
0000
0000
0000
0100
0010
0100
0000
0010
0000
0110
0000
,
0002
0003
0002
0003
0010
1000
0010
0002
,
0000
0000
1000
0000
0103
0000
0000
0000
1000
0001
1000
0000
0100
0000
0010
0000
,
0220
0330
2200
3300
0001
1000
0010
0200
,
0000
0000
1000
0000
0310
0000
0000
0000
0100
0001
0100
0000
0101
0000
0000
0000
,
2020
3030
0202
0303
1000
0010
0100
0002
,
0000
0000
0010
0000
0103
0000
0000
0000
0001
0100
0001
0000
1000
0000
0010
0000
,
2020
3030
0022
0033
0100
1000
0001
0200
,
0000
0000
1000
0000
0301
0000
0000
0000
0010
0100
0010
0000
0100
0000
1001
0000
,
0200
0300
0200
0300
0001
1000
0100
0020
,
0000
0000
1000
0000
0130
0000
0000
0000
0001
1000
0001
0000
0010
0000
0100
0000
,
0220
0330
2002
3003
0010
1000
0001
0020
,
0000
0000
1000
0000
0130
0000
0000
0000
0001
1000
0001
0000
1000
0000
0100
0000
,
1001
0000
0000
0000
;

//---------------dance-single - ----------------
#NOTES:
     dance-single:
     :
     Medium:
     6:
     0.326066,0.357890,0.155207,0.283025,0.000000,250.000000,233.000000,17.000000,31.000000,0.000000,0.000000,0.326066,0.357890,0.155207,0.283025,0.000000,250.000000,233.000000,17.000000,31.000000,0.000000,0.000000:
0000
0000
0000
0000
,
0000
0000
0000
0000
,
0000
0000
0000
0000
,
0000
0000
0000
0000
,
0000
2000
0000
0001
,
0000
0100
0000
3001
,
0000
0002
0000
0010
,
0000
1000
0000
0013
,
0011
0000
0100
0000
1000
0100
1000
0000
,
0010
0100
0001
1000
,
0010
0000
0100
0000
0001
1000
0001
0000
,
0100
0010
1000
0100
,
0010
0000
0100
0000
1000
0100
1000
0000
,
0010
0100
0001
1000
,
0010
0000
0100
0000
0010
0100
0010
0000
,
1000
0000
0001
0000
1000
0001
1000
0000
,
1001
1001
0100
0100
,
0010
0000
0010
0000
1000
0001
1000
0001
,
1000
1000
0010
0010
,
0100
0000
0100
0000
0001
1000
0001
1000
,
0001
0001
0010
0010
,
0100
0000
0100
0000
1000
0001
1000
0001
,
1000
1000
0010
0010
,
0100
0000
0100
0000
0010
0100
0010
0100
,
0010
0010
1000
1000
,
0100
0100
0001
0001
,
0010
0100
1000
0001
,
0100
0010
1000
0001
,
0010
0100
0010
0000
0001
0000
1000
0000
,
0010
0100
0001
1000
,
0010
1000
0010
0000
0100
0000
0001
0000
,
1001
0000
0110
0000
0100
0010
0100
0000
,
1001
1001
1000
2000
,
3001
0000
0002
0000
1003
0001
1000
0000
,
0010
0020
0130
0200
,
0310
0000
0020
0000
1030
0001
0100
0010
,
0100
0200
0310
0020
,
1030
2000
3001
0002
,
0013
0020
0130
0200
,
1300
0000
1000
0001
0100
0000
1001
0000
,
2000
3002
0103
0020
,
0130
0000
0002
0000
1003
0001
1000
0001
,
2000
3010
0002
0013
,
2000
0000
3100
0000
0001
1000
0001
1000
,
0100
0200
0310
0020
,
0031
0000
2000
0000
3010
0100
0001
1000
,
0100
0200
0310
0001
,
1000
0001
0100
0000
0010
0000
0100
0000
,
1010
1002
0103
0100
,
0001
0100
0001
0000
0010
0001
0010
0000
,
0011
0000
1002
0000
1003
0100
1000
0000
,
0010
1000
0010
0000
0100
0000
0100
0000
,
0110
0000
1002
0000
0103
0010
0100
0000
,
0001
1000
0001
0000
0010
0000
0010
0000
,
0011
0000
2100
0000
3010
0000
1000
0010
,
0000
0100
0002
0000
0003
0000
2002
0000
,
3003
0000
0000
0000
;

//---------------dance-single - ----------------
#NOTES:
     dance-single:
     :
     Easy:
     5:
     0.293459,0.460144,0.346934,0.182597,0.000000,225.000000,187.000000,38.000000,20.000000,0.000000,0.000000,0.293459,0.460144,0.346934,0.182597,0.000000,225.000000,187.000000,38.000000,20.000000,0.000000,0.000000:
0000
0000
0000
0000
,
0000
0000
0000
0000
,
0000
0000
0000
0000
,
0000
0000
0000
0000
,
0000
2000
0000
3100
,
0000
0002
0000
0103
,
0000
2000
0000
3010
,
0000
0002
0000
0013
,
0100
1000
0100
0010
,
0002
0000
0000
1003
,
0010
0100
0001
0100
,
0010
1000
0200
0300
,
0010
0001
1000
0100
,
0020
0000
0000
0030
,
0001
0001
0100
0100
,
1000
1000
0100
0100
,
1100
1100
1100
1100
,
0010
0100
0002
0003
,
0101
0101
0101
0101
,
0010
0100
2000
3000
,
1001
1001
1001
1001
,
1000
0001
0200
0300
,
0110
0110
0110
0110
,
1000
0001
0020
0030
,
0100
0100
2000
3100
,
0002
0003
2000
3000
,
0010
0010
0200
0301
,
2000
3000
0020
0030
,
0100
0100
0002
1003
,
0200
0300
0020
0030
,
0001
1000
0010
0100
,
0001
1000
0010
0110
,
0001
0001
1000
1000
,
0001
0001
0010
0100
,
1000
1000
0001
0001
,
0100
0100
1000
0001
,
0010
0100
0010
0001
,
0010
0100
1000
0100
,
0010
0001
1000
0010
,
0100
0000
0001
0000
1000
0001
1000
0000
,
0100
0100
0010
0010
,
0001
0001
1000
0010
,
0100
0100
0010
0010
,
1000
1000
0100
0010
,
0001
0001
1000
1000
,
0010
0010
0100
0001
,
1000
1000
0010
0001
,
0010
0000
1000
0000
0001
1000
0001
0000
,
1001
1001
1001
1001
,
0010
0001
1000
0100
,
0110
0110
0110
0110
,
1000
0001
0100
0010
,
1010
0011
1010
1010
,
0001
1000
0100
0010
,
1100
1100
0101
1100
,
0101
0101
1100
0110
,
1001
0000
0000
0000
;

//---------------dance-single - ----------------
#NOTES:
     dance-single:
     :
     Beginner:
     1:
     0.179988,0.204508,0.009130,0.000000,0.000000,138.000000,137.000000,1.000000,0.000000,0.000000,0.000000,0.179988,0.204508,0.009130,0.000000,0.000000,138.000000,137.000000,1.000000,0.000000,0.000000,0.000000:
// measure 0
0000
0000
0000
0000
,  // measure 1
0000
0000
0000
0000
,  // measure 2
0000
0000
0000
0000
,  // measure 3
0000
0000
0000
0000
,  // measure 4
0000
1000
0000
1000
,  // measure 5
0000
0100
0000
0100
,  // measure 6
0000
0001
0000
0001
,  // measure 7
0000
0100
0000
0100
,  // measure 8
0100
0000
0000
0010
,  // measure 9
0010
0000
0000
1000
,  // measure 10
1000
0000
0000
0100
,  // measure 11
0100
0000
0010
0000
,  // measure 12
0001
0000
0000
0010
,  // measure 13
0010
0000
0000
0100
,  // measure 14
0100
0000
0000
1000
,  // measure 15
1000
0000
0000
0000
,  // measure 16
0001
0001
0001
0001
,  // measure 17
0001
0000
0000
0000
,  // measure 18
0100
0100
0100
0100
,  // measure 19
0100
0000
0000
0000
,  // measure 20
1000
1000
1000
1000
,  // measure 21
1000
0000
0000
0000
,  // measure 22
0010
0010
0010
0010
,  // measure 23
0010
0000
0000
0000
,  // measure 24
0100
0000
0010
0000
,  // measure 25
1000
0000
0100
0000
,  // measure 26
0010
0000
0001
0000
,  // measure 27
0100
0000
0010
0000
,  // measure 28
1000
0000
0001
0000
,  // measure 29
0010
0000
0100
0000
,  // measure 30
1000
0000
0001
0000
,  // measure 31
0100
0000
0000
0000
,  // measure 32
0010
0010
0010
0010
,  // measure 33
0010
0010
0010
0000
,  // measure 34
1000
1000
1000
1000
,  // measure 35
1000
1000
1000
0000
,  // measure 36
0100
0100
0100
0000
,  // measure 37
0010
0010
0010
0000
,  // measure 38
0001
0001
0001
0000
,  // measure 39
1000
1000
1000
0000
,  // measure 40
0010
0010
0010
0010
,  // measure 41
0010
0010
0010
0000
,  // measure 42
0100
0100
0100
0100
,  // measure 43
0100
0100
0100
0000
,  // measure 44
0001
0001
0001
0000
,  // measure 45
1000
1000
1000
0000
,  // measure 46
0100
0100
0100
0000
,  // measure 47
0010
0010
0010
0000
,  // measure 48
0100
0100
0100
0100
,  // measure 49
0100
0100
0100
0000
,  // measure 50
1000
1000
1000
1000
,  // measure 51
1000
1000
1000
0000
,  // measure 52
0001
0001
0001
0000
,  // measure 53
0010
0010
0010
0000
,  // measure 54
0100
0100
0100
0000
,  // measure 55
1000
1000
1000
0000
,  // measure 56
1001
0000
0000
0000
;
