#TITLE:Savage Love (Laxed - Siren Beat);
#SUBTITLE:;
#ARTIST:Jawsh 685 and Jason Derulo;
#TITLETRANSLIT:;
#SUBTITLETRANSLIT:;
#ARTISTTRANSLIT:;
#GENRE:538 Hitzone 95;
#CREDIT:;
#BANNER:Savage Love (Laxed - Siren Beat)-bn.jpg;
#BACKGROUND:Savage Love (Laxed - Siren Beat)-bg.jpg;
#LYRICSPATH:;
#CDTITLE:;
#MUSIC:Savage Love (Laxed - Siren Beat).mp3;
#OFFSET:-0.022006;
#SAMPLESTART:78.413948;
#SAMPLELENGTH:13.200005;
#LASTBEATHINT:239.000000;
#SELECTABLE:YES;
#BPMS:0.000000=150.000000
,99.000000=75.000000
,113.000000=150.000000
;
#STOPS:82.000000=0.400000,
113.000000=1.200000,
138.000000=2.400000
;
#BGCHANGES:;
#KEYSOUNDS:;
#ATTACKS:;

//---------------dance-single - ----------------
#NOTES:
     dance-single:
     :
     Hard:
     7:
     0.435322,0.474595,0.359614,0.075708,0.463712,322.000000,284.000000,38.000000,8.000000,0.000000,0.000000,0.435322,0.474595,0.359614,0.075708,0.463712,322.000000,284.000000,38.000000,8.000000,0.000000,0.000000:
0000
0000
0000
0000
,
0000
0000
0000
0000
,
0000
0000
0000
0000
,
0000
0000
0000
0000
,
0000
0000
0000
0000
,
0001
1000
0100
0000
,
1000
0010
0001
0010
,
1000
1001
0100
0000
,
0010
0010
0000
0100
,
0001
0000
1000
0001
0000
0100
0000
0000
0000
0010
0000
0000
,
1000
1100
0010
0110
,
0001
0000
1000
0100
0000
0010
0000
0000
0000
0100
0000
0000
,
1000
0110
0010
0110
,
1000
0000
0010
0100
0000
0001
0000
0000
1000
0100
0000
0000
,
0010
0000
0000
0001
0000
0000
1000
0000
0001
1000
0000
0000
,
0010
0000
1000
0010
0000
0100
0000
0000
0001
0100
0000
0000
,
0000
0000
0010
1000
0000
1000
0010
0000
0100
0001
0000
0000
,
1000
0000
0100
1000
0000
0100
0000
0000
0010
0001
0000
1000
,
0010
0000
0000
0100
0000
0001
0100
0000
0000
0010
0000
0000
,
1000
0000
0100
0010
0000
0100
0000
0000
1000
0010
0000
0100
,
0001
0000
0000
0010
0000
0000
1001
0000
0000
0001
0000
0010
,
0001
0000
0010
0000
0000
0100
1000
0000
0000
0100
0000
0000
,
1000
0000
0010
0100
0000
0010
0100
0000
0000
0001
0000
1000
,
0100
0000
0010
0000
0000
0100
1000
0000
0000
0000
0000
0000
,
0001
0000
1000
0000
0010
0000
0100
0000
0000
0010
0000
0000
,
2010
3001
1002
0103
,
0101
0100
2010
3002
,
0023
0000
0000
0000
0000
0000
0230
0000
0000
0000
0000
0000
2300
0000
0000
3000
0010
0000
0200
0000
0000
0000
0000
0000
,
0301
0000
1000
0100
0000
0000
0010
0000
0000
1001
0000
0000
,
0100
0000
0000
0000
0000
0000
0001
0000
0001
0010
0000
0010
,
0100
0000
0100
1000
0000
1000
0010
0000
0000
1001
0000
0000
,
0100
0000
0000
0000
0000
0000
0010
0000
0010
1000
0000
1000
,
0001
0000
0001
0010
0000
0100
1000
0000
0000
1001
0000
0000
,
0100
0000
0000
0000
0000
0000
0001
0000
0001
1000
0000
1000
,
0010
0000
0010
0100
0000
0100
0001
0000
0000
0000
0000
0000
,
1001
1010
1100
0000
,
0001
0000
0001
0010
0000
0010
0100
0000
0100
1000
0000
1000
,
0010
0110
0101
0000
,
0001
0000
0001
1000
0000
1000
0100
0000
0100
0010
0000
0010
,
0001
0011
1001
0000
,
1000
0000
1000
0010
0000
0010
0001
0000
0001
0010
0000
0010
,
1000
0000
0000
1001
0000
0000
0110
0000
0000
0000
0000
1000
,
0100
0000
0100
0010
0000
0010
0000
0000
0001
1000
0000
0010
,
0100
0101
1100
0000
,
0010
0000
0010
1000
0000
1000
0001
0000
0001
0010
0000
0010
,
0100
1100
0101
0000
,
1000
0000
1000
0001
0000
0001
0100
0000
0100
0010
0000
0010
,
1000
1010
0101
0000
,
0100
0000
0001
0010
0000
0010
0100
0000
1000
0010
0000
0100
,
0001
0000
0000
0011
0000
0000
1100
0000
0000
0000
0000
1000
,
0010
0000
0010
0100
0000
0001
0000
0000
1000
0010
0000
0100
,
0001
0011
1100
0100
,
1000
0000
1000
0001
0000
0001
0100
0000
0100
0010
0000
0010
,
1000
1001
0110
1001
,
1000
0000
0001
0010
0000
0100
1000
0000
1000
0100
0000
0010
,
0001
0011
1001
0000
,
0001
0000
0100
0010
0000
1000
0100
0000
0010
0001
0000
1000
,
0010
0000
0000
1001
0000
0000
0100
0000
0000
0000
0000
0001
,
0010
0000
0100
1000
0000
0010
0000
0000
1000
0001
0000
1000
,
0100
0000
0000
0000
;

//---------------dance-single - ----------------
#NOTES:
     dance-single:
     :
     Medium:
     5:
     0.301481,0.362926,0.274442,0.246051,0.056781,223.000000,194.000000,29.000000,26.000000,0.000000,0.000000,0.301481,0.362926,0.274442,0.246051,0.056781,223.000000,194.000000,29.000000,26.000000,0.000000,0.000000:
0000
0000
0000
0000
,
0000
0000
0000
0000
,
0000
0000
0000
0000
,
0000
0000
0000
0000
,
0000
0000
0000
0000
,
0100
0001
0010
0000
,
0001
1000
0100
1000
,
0001
0100
0010
0000
,
2000
0002
3003
0010
,
0100
2000
3000
0002
,
0003
0010
0100
1001
,
0100
0020
0030
2000
,
3000
0001
0010
0110
,
1000
0200
0300
0020
,
0030
0001
1000
1001
,
0100
0002
0003
2000
,
3000
0010
1000
1001
,
0010
0002
0003
1000
,
0010
0000
0000
0100
0000
0000
0010
0000
1000
0010
0000
0000
,
0100
0002
0003
0010
,
0100
1000
1001
0100
,
0020
0000
0031
0100
,
0001
0000
0000
0010
0000
0100
0010
0000
0000
0100
0000
0000
,
2000
3000
0020
0030
,
0100
0001
1000
0100
,
0020
0031
2000
3020
,
0000
0130
0002
0023
,
0230
2300
3020
0230
,
0301
0100
0010
1001
,
0100
0000
0000
0000
0000
0000
0010
0000
0001
0010
0000
0000
,
0100
1000
0010
1001
,
0100
0000
0000
0000
0000
0000
1000
0000
0010
1000
0000
0000
,
0001
0010
0100
1001
,
0100
0000
0000
0000
0000
0000
0001
0000
1000
0001
0000
0000
,
0010
0100
1000
0000
,
0010
1001
0100
0000
,
0010
0000
0001
0010
0000
0000
0100
0000
0000
1000
0000
0000
,
0010
1001
0100
0000
,
1000
0000
0100
1000
0000
0000
0100
0000
0000
0010
0000
0000
,
0001
1001
0100
0000
,
0010
0000
1000
0010
0000
0000
0100
0000
0000
0001
0000
0000
,
0010
1001
0100
0000
,
0100
0000
1000
0100
0000
0000
0010
0000
0000
0001
0000
0000
,
1001
1001
1100
0000
,
0001
0000
1000
0001
0000
0000
0100
0000
0000
1000
0000
0000
,
0110
0110
0101
0000
,
0010
0000
0001
0010
0000
0000
0100
0000
0000
1000
0000
0000
,
0011
0011
1001
0000
,
1000
0000
0010
1000
0000
0000
0010
0000
0000
0100
0000
0000
,
0101
0101
1001
0000
,
1000
0020
0000
1030
,
0001
1001
0100
0000
,
0001
0100
0010
1000
,
0001
1001
0100
0000
,
0010
1000
0001
0010
,
0100
1001
0100
0000
,
0010
0001
1000
0010
,
0100
1001
0100
0000
,
0010
0200
0000
0310
,
1001
0000
0000
0000
;

//---------------dance-single - ----------------
#NOTES:
     dance-single:
     :
     Easy:
     2:
     0.173047,0.223339,0.000000,0.000000,0.000000,128.000000,128.000000,0.000000,0.000000,0.000000,0.000000,0.173047,0.223339,0.000000,0.000000,0.000000,128.000000,128.000000,0.000000,0.000000,0.000000,0.000000:
// measure 0
0000
0000
0000
0000
,  // measure 1
0000
0000
0000
0000
,  // measure 2
0000
0000
0000
0000
,  // measure 3
0000
0000
0000
0000
,  // measure 4
0000
0000
0000
0000
,  // measure 5
1000
0000
0100
0000
,  // measure 6
0010
0000
0001
0000
,  // measure 7
0100
0000
0010
0000
,  // measure 8
0100
0000
0100
0000
,  // measure 9
0001
0000
1000
0000
,  // measure 10
0100
0000
0010
0000
,  // measure 11
0001
0000
1000
0000
,  // measure 12
0010
0000
0100
0000
,  // measure 13
0001
0000
0010
0000
,  // measure 14
0100
0000
1000
1000
,  // measure 15
0001
0000
0100
0000
,  // measure 16
0010
0000
1000
1000
,  // measure 17
0100
0000
0010
0000
,  // measure 18
0100
0000
1000
0000
,  // measure 19
0001
0000
0100
0000
,  // measure 20
0010
0000
1000
0000
,  // measure 21
0000
0100
0000
0010
,  // measure 22
0000
0001
0001
0001
,  // measure 23
0000
1000
0000
0010
,  // measure 24
0000
0100
0000
0001
,  // measure 25
0001
1000
1000
0100
,  // measure 26
0000
0100
0010
0010
,  // measure 27
0000
0001
0000
1000
,  // measure 28
0000
0100
0000
0000
,  // measure 29
1000
0000
0001
0000
,  // measure 30
0100
0000
0010
0100
,  // measure 31
0010
0000
1000
0000
,  // measure 32
0001
0000
1000
0100
,  // measure 33
1000
0000
0001
0000
,  // measure 34
1000
0000
0001
0000
,  // measure 35
0010
0001
0010
0000
,  // measure 36
0001
0000
1000
0000
,  // measure 37
0010
1000
0010
0000
,  // measure 38
1000
0000
0001
0000
,  // measure 39
0100
0010
0100
0000
,  // measure 40
0001
0000
1000
0000
,  // measure 41
0100
0010
0100
0000
,  // measure 42
1000
0000
0010
0000
,  // measure 43
1000
0001
1000
0000
,  // measure 44
0010
0000
0100
0000
,  // measure 45
0001
0100
0001
0000
,  // measure 46
1000
0000
0100
0000
,  // measure 47
0010
0100
0010
0000
,  // measure 48
0001
0000
1000
0000
,  // measure 49
0010
1000
0010
0000
,  // measure 50
1000
0000
0001
0000
,  // measure 51
0100
0000
0010
0000
,  // measure 52
1000
1000
1000
0000
,  // measure 53
0001
0000
0010
0000
,  // measure 54
0100
0100
0100
0000
,  // measure 55
1000
0000
0100
0000
,  // measure 56
0010
0010
0010
0000
,  // measure 57
0001
0000
1000
0000
,  // measure 58
0010
0010
0000
0100
,  // measure 59
0100
0000
0000
0000
;

//---------------dance-single - ----------------
#NOTES:
     dance-single:
     :
     Beginner:
     1:
     0.158176,0.167504,0.000000,0.000000,0.000000,117.000000,117.000000,0.000000,0.000000,0.000000,0.000000,0.158176,0.167504,0.000000,0.000000,0.000000,117.000000,117.000000,0.000000,0.000000,0.000000,0.000000:
// measure 0
0000
0000
0000
0000
,  // measure 1
0000
0000
0000
0000
,  // measure 2
0000
0000
0000
0000
,  // measure 3
0000
0000
0000
0000
,  // measure 4
0000
0000
0000
0000
,  // measure 5
0001
0000
0010
0000
,  // measure 6
0100
0000
1000
0000
,  // measure 7
0010
0000
0100
0000
,  // measure 8
0010
0000
0010
0000
,  // measure 9
1000
0000
0001
0000
,  // measure 10
0010
0000
0100
0000
,  // measure 11
1000
0000
0001
0000
,  // measure 12
0100
0000
0010
0000
,  // measure 13
1000
0000
0100
0000
,  // measure 14
0010
0000
0001
0000
,  // measure 15
1000
0000
0010
0000
,  // measure 16
0100
0000
0001
0000
,  // measure 17
0010
0000
0100
0000
,  // measure 18
0010
0000
0001
0000
,  // measure 19
1000
0000
0010
0000
,  // measure 20
0100
0000
0001
0000
,  // measure 21
0000
0010
0000
0100
,  // measure 22
0000
1000
0000
1000
,  // measure 23
0000
0001
0000
0100
,  // measure 24
0000
0010
0000
1000
,  // measure 25
0000
0001
0000
0010
,  // measure 26
0000
0010
0000
0100
,  // measure 27
0000
1000
0000
0001
,  // measure 28
0000
0100
0000
0000
,  // measure 29
0001
0000
1000
0000
,  // measure 30
0010
0000
0100
0100
,  // measure 31
0100
0000
0001
0000
,  // measure 32
1000
0000
0001
0001
,  // measure 33
0001
0000
1000
0000
,  // measure 34
0001
0000
1000
0000
,  // measure 35
0100
0100
0100
0000
,  // measure 36
1000
0000
0001
0000
,  // measure 37
0100
0100
0100
0000
,  // measure 38
0001
0000
1000
0000
,  // measure 39
0010
0010
0010
0000
,  // measure 40
1000
0000
0001
0000
,  // measure 41
0010
0010
0010
0000
,  // measure 42
0001
0000
0100
0000
,  // measure 43
0001
0001
0001
0000
,  // measure 44
0100
0000
0010
0000
,  // measure 45
1000
1000
1000
0000
,  // measure 46
0001
0000
0010
0000
,  // measure 47
0100
0100
0100
0000
,  // measure 48
1000
0000
0001
0000
,  // measure 49
0100
0100
0100
0000
,  // measure 50
0001
0000
1000
0000
,  // measure 51
0010
0000
0100
0000
,  // measure 52
0001
0000
0001
0000
,  // measure 53
1000
0000
0100
0000
,  // measure 54
0010
0000
0010
0000
,  // measure 55
0001
0000
0010
0000
,  // measure 56
0100
0000
0100
0000
,  // measure 57
1000
0000
0001
0000
,  // measure 58
0100
0000
0000
0000
,  // measure 59
0010
0000
0000
0000
;
