#TITLE:Sandstorm;
#SUBTITLE:;
#ARTIST:Darude;
#TITLETRANSLIT:;
#SUBTITLETRANSLIT:;
#ARTISTTRANSLIT:;
#GENRE:Before The Storm;
#CREDIT:;
#BANNER:Sandstorm-bn.jpg;
#BACKGROUND:Sandstorm-bg.jpg;
#LYRICSPATH:;
#CDTITLE:;
#MUSIC:Sandstorm.mp3;
#OFFSET:-0.946000;
#SAMPLESTART:36.119999;
#SAMPLELENGTH:12.000000;
#SELECTABLE:YES;
#DISPLAYBPM:136.000000;
#BPMS:0.000000=136.339996
;
#STOPS:
;
#BGCHANGES:;
#KEYSOUNDS:;
#ATTACKS:;

//---------------dance-single - ----------------
#NOTES:
     dance-single:
     :
     Easy:
     4:
     0.175019,0.294032,0.077963,0.278440,0.000000,110.000000,103.000000,7.000000,25.000000,0.000000,0.000000,0.175019,0.294032,0.077963,0.278440,0.000000,110.000000,103.000000,7.000000,25.000000,0.000000,0.000000:
0000
0000
0000
0000
,
0000
0000
0000
0000
,
0000
0000
0000
0000
,
1000
0000
0000
0000
,
0001
0000
0000
0000
,
0010
0000
0100
0000
,
0002
0003
0000
0000
,
2000
3000
0000
0010
,
0200
0300
0000
0000
,
0000
0000
0000
0000
,
0020
0030
0000
0000
,
0000
0000
0000
0000
,
1000
0000
0000
0000
,
0001
0000
0100
0000
,
1000
0000
0100
0000
,
0001
0010
1000
0100
,
2002
3003
0010
0100
,
0001
1000
0001
0100
,
0020
0030
0000
0000
,
0200
0300
0000
0000
,
0010
0001
0010
1000
,
0002
0003
2000
3000
,
0100
0100
0000
1000
,
0001
0000
0001
0010
,
2000
0000
3000
0001
,
0020
0000
0030
0000
,
0001
0001
0100
0000
,
0010
1000
0001
0100
,
2000
3000
1000
0000
,
0020
0030
0001
0000
,
0100
0100
0100
0001
,
1000
0000
0001
0100
,
2002
0000
3003
0010
,
0100
0000
0110
0000
,
0001
0100
1000
0010
,
0001
0000
1000
0100
,
0020
0030
0100
0000
,
0200
0300
0001
0000
,
0002
0003
1000
0000
,
2000
3000
0100
0000
,
0100
0000
0110
0000
,
0001
0000
1001
0000
,
0010
0001
2000
3000
,
0100
1000
0010
0001
,
2000
3000
0020
0030
,
0200
0300
0002
0003
,
0010
0010
1001
0100
,
0001
0010
0100
1000
,
0110
0000
0000
0000
;

//---------------dance-single - ----------------
#NOTES:
     dance-single:
     :
     Medium:
     6:
     0.257756,0.434366,0.100238,0.334128,0.000000,162.000000,153.000000,9.000000,30.000000,0.000000,0.000000,0.257756,0.434366,0.100238,0.334128,0.000000,162.000000,153.000000,9.000000,30.000000,0.000000,0.000000:
0000
0000
0000
0000
,
0000
0000
0000
0000
,
0000
0000
0000
0000
,
0010
0000
0010
0000
,
0100
0000
0100
0000
,
0001
0000
1000
0000
,
0010
0000
0100
0000
,
0001
0000
0100
0001
,
2000
0000
3000
0000
,
0000
0000
0000
0010
,
0200
0000
0300
0000
,
0020
0000
0030
0000
,
2000
3000
0020
0030
,
0200
0300
0002
0003
,
0010
1000
0100
0001
,
0100
0000
1000
0000
0010
1000
0001
0000
,
1001
0100
1001
0010
,
0100
0001
0010
0000
0001
1000
0100
0000
,
0001
0002
1000
0103
,
0001
1000
0010
1000
,
0001
0100
0010
0000
1000
0001
0010
0000
,
1000
2000
0010
3001
,
0020
0000
0000
0030
,
0200
0000
0000
0300
,
0010
0001
0100
1000
,
0001
1000
0001
0000
0010
0000
0100
0000
,
0001
0000
1000
0000
0100
0001
1000
0000
,
0010
0100
0010
0000
0001
0000
0100
0000
,
1000
0001
1000
0000
0100
0000
0001
0000
,
1000
1000
0001
0001
,
0020
1030
0200
0301
,
2000
3010
0002
0103
,
0020
0000
0000
0000
,
2000
3000
0200
0300
,
0002
0003
2000
3030
,
0200
0300
0002
0003
,
0200
0000
0000
0300
,
0020
0030
2002
3003
,
0010
0010
1000
0100
,
0001
0010
0001
0000
1000
0001
0100
0010
,
0100
1000
0001
0100
,
0010
0001
2000
3001
,
0010
0100
1000
0002
,
1003
0100
0001
1000
,
0010
0100
0010
0000
1000
0010
0100
0001
,
1000
0001
1000
0000
0010
1000
0001
0000
,
0011
1001
1010
0110
,
0001
1000
0010
0110
,
2002
0000
0000
3003
;

//---------------dance-single - ----------------
#NOTES:
     dance-single:
     :
     Hard:
     8:
     0.380269,0.515810,0.256165,0.400953,0.066826,239.000000,216.000000,23.000000,36.000000,0.000000,0.000000,0.380269,0.515810,0.256165,0.400953,0.066826,239.000000,216.000000,23.000000,36.000000,0.000000,0.000000:
// measure 0
0000
0000
0000
0000
,  // measure 1
0000
0000
0000
0000
,  // measure 2
0000
0000
0000
0000
,  // measure 3
2000
3000
0001
0100
,  // measure 4
0020
0000
0030
0000
,  // measure 5
0200
0000
0000
0300
,  // measure 6
0002
0003
0020
1030
,  // measure 7
0200
0300
2000
3001
,  // measure 8
0220
0000
0330
0000
,  // measure 9
0000
0000
0010
1000
,  // measure 10
2002
0000
3003
0000
,  // measure 11
0010
0100
0001
1000
,  // measure 12
0202
0303
2020
3030
,  // measure 13
2002
3003
0220
0330
,  // measure 14
0001
0010
0001
1000
0010
1000
0100
0000
,  // measure 15
0010
0100
0001
1000
0001
0000
1010
0000
,  // measure 16
2002
3003
0110
0101
,  // measure 17
0010
1000
0100
0000
0010
1000
0001
0000
,  // measure 18
1001
0010
1001
0100
,  // measure 19
0010
1000
0100
0010
0001
1000
0100
0000
,  // measure 20
0002
1003
0200
0310
,  // measure 21
0001
0010
1000
0100
,  // measure 22
0001
0100
0001
0100
0010
1000
0010
1000
,  // measure 23
0001
0000
0002
0000
0103
0010
1000
0001
,  // measure 24
0010
2000
0100
3001
,  // measure 25
0010
1001
0010
1001
,  // measure 26
0010
1000
0010
0100
0001
0000
0000
0000
0011
0000
0000
0000
1001
0000
0000
0000
,  // measure 27
0100
0001
1000
0001
0100
0000
0000
0000
0010
0000
0000
0000
0001
0000
0000
0000
,  // measure 28
0010
1000
0100
0000
0010
0001
0100
0000
,  // measure 29
0001
0010
0001
0000
1000
0010
0100
0000
,  // measure 30
0011
0011
1000
0101
,  // measure 31
0010
1010
0100
0110
,  // measure 32
2002
0000
0000
0003
,  // measure 33
0020
0030
0200
3300
,  // measure 34
0002
0000
0020
0033
,  // measure 35
1000
0001
0010
0100
1000
0010
0100
0000
,  // measure 36
0001
0010
0001
0000
1000
0000
0100
0000
0020
0000
0000
0000
0130
0000
0000
0000
,  // measure 37
1000
0100
1000
0000
0010
0000
0100
0000
0002
0000
0000
0000
0013
0000
0000
0000
,  // measure 38
0001
0100
0001
0000
0010
0000
0001
0000
1000
0100
1000
0000
0010
0000
0100
0000
,  // measure 39
0001
0002
1000
0103
,  // measure 40
0010
0010
0100
0000
0001
0001
1000
0100
,  // measure 41
1000
1000
0001
0000
0100
0100
0001
1000
,  // measure 42
0010
1000
0100
0000
0010
0001
0100
0000
,  // measure 43
0010
0010
0100
0100
,  // measure 44
0010
1000
0010
0000
0100
0000
0000
0000
0001
0100
0001
0000
1000
0000
0000
0000
,  // measure 45
0100
1000
0100
0000
0010
0000
0000
0000
1000
0100
1000
0000
0001
0000
0000
0000
,  // measure 46
0100
0010
0100
0001
1000
0001
0010
0100
,  // measure 47
1000
0001
1000
0001
0010
0001
0100
0000
,  // measure 48
0220
0000
0000
0330
;

//---------------dance-double - ----------------
#NOTES:
     dance-double:
     :
     Easy:
     4:
     0.192521,0.271479,0.077963,0.200477,0.000000,121.000000,114.000000,7.000000,18.000000,0.000000,0.000000,0.192521,0.271479,0.077963,0.200477,0.000000,121.000000,114.000000,7.000000,18.000000,0.000000,0.000000:
00000000
00000000
00000000
00000000
,
00000000
00000000
00000000
00000000
,
00010000
00000000
00000000
00000000
,
10000000
00000000
00000000
00000000
,
00010000
00000000
00000000
00000000
,
00001000
00000000
00000000
00000000
,
00000010
00000000
00000000
00000000
,
00001000
00000000
00000001
00000000
,
00002002
00000000
00000000
00003003
,
00000010
00000000
00000100
00000000
,
00000001
00000000
00000010
00000000
,
00001000
00000000
00010000
00000000
,
00011000
00000000
01000000
00000000
,
00100000
00000000
10000000
00000000
,
00010000
00010000
10000000
10000000
,
01000000
00010000
00001000
00000010
,
00001001
00000000
00000100
00000010
,
00001000
00000000
00000001
00000000
,
00001000
00001000
00010000
00000000
,
00100000
00000000
00010000
10000000
,
10010000
00000000
01000000
00100000
,
01000000
00000000
10000000
00000000
,
01000000
00000000
00010000
00001000
,
00000010
00000010
00000100
00000100
,
00001001
00000000
00000000
00000000
,
00000001
00000000
00000100
00000000
,
00010000
00000000
00100000
00000000
,
01000000
10000000
00010000
10000000
,
01100000
00000000
10000000
01000000
,
00010000
00000000
00010000
00001000
,
00010000
00010000
00001000
00001000
,
00000010
00000001
00001000
00000010
,
00000200
00000000
00000000
00000300
,
00000002
00000000
00000000
00000003
,
00000020
00000000
00000000
00000030
,
00002000
00000000
00000000
00003000
,
00020000
00030000
02000000
03000000
,
20000000
30000000
00200000
00300000
,
02000000
03000000
00020000
00030000
,
20000000
30000000
02000000
03000000
,
00010000
00010000
00001000
00001000
,
00020000
00030000
00000100
00000010
,
00000002
00000003
00001000
00000010
,
00000200
00000300
00000001
00001000
,
00001001
00000100
00000010
00000010
,
00000001
00000001
00001000
00001000
,
00000010
00000100
00000001
00000010
,
00001000
00010000
00100000
00100000
,
20000000
00000000
00000000
30000000
;

//---------------dance-double - ----------------
#NOTES:
     dance-double:
     :
     Medium:
     6:
     0.289577,0.380070,0.111376,0.144789,0.000000,182.000000,172.000000,10.000000,13.000000,0.000000,0.000000,0.289577,0.380070,0.111376,0.144789,0.000000,182.000000,172.000000,10.000000,13.000000,0.000000,0.000000:
00000000
00000000
00000000
00000000
,
00000000
00000000
00000000
00000000
,
00020000
00000000
00000000
00030000
,
20000000
00000000
00000000
30000000
,
00200000
00000000
00000000
00300000
,
00020000
00000000
00002000
00033000
,
00000020
00000030
00000002
00000003
,
00001000
00000001
00000100
00000010
,
00001001
00000000
00000000
00000000
,
00000010
00000000
00000100
00000001
,
00001000
00000000
00000010
00000000
,
00000100
00000000
00001000
01000000
,
10010000
00000000
00010000
00010000
,
01000000
01000000
00100000
10000000
,
01000000
00010000
00000010
00000100
,
00000001
00001000
00000100
00000000
00000010
00000001
00000100
00000000
,
00001001
00000100
00000010
00001000
,
00000100
00000010
00000001
00000100
,
00001000
00010000
01000000
10000000
,
10000000
00010000
01000000
00100000
,
10010000
00010000
00100000
01000000
,
10000000
00100000
00010000
00000100
,
00000010
00000001
00001000
00000010
,
00000100
00000000
00000001
00000000
00001000
00000001
00001000
00000000
,
00000110
00000001
00000010
00001000
,
00000010
00000001
00000100
00000010
,
00010000
00001000
01000000
00100000
,
10000000
00010000
01000000
00100000
,
10010000
01000000
00010000
01000000
,
10000000
00010000
01000000
00100000
,
10000000
00010000
00001000
00000010
,
00000100
00000001
00001000
00000010
,
00000200
00000000
00010000
00010300
,
00200000
00000000
01000000
01300000
,
10000000
00100000
01000000
00100000
,
10000000
00010000
10000000
00000000
01100000
00000000
10010000
00000000
,
02000000
00000000
03000000
00010000
,
00002000
00000000
00003000
00000010
,
00000002
00000000
00000003
00001000
,
00000010
00000000
00000100
00000001
00001000
00000000
00000010
00000000
,
00000101
00000000
00001000
00000000
00000100
00000000
00000010
00000001
,
00000100
00000000
00001000
00000000
00100000
00000000
01000000
10000000
,
00010000
00000000
01000000
00000000
00100000
00000000
10000000
01000000
,
00010000
00000000
00001000
00000000
00010000
00000000
00001000
00000100
,
00000001
00000000
00000001
00000010
00000100
00000000
00000100
00001000
,
00000001
00000000
00000001
00000010
00001000
00000000
00010000
00000000
,
01000000
10000000
00010000
00000000
00100000
01000000
10000000
00000000
,
00010000
00100000
10000000
00100000
01000000
00000000
10010000
00000000
,
02000000
00000000
00000000
03000000
;

//---------------dance-double - ----------------
#NOTES:
     dance-double:
     :
     Hard:
     8:
     0.412091,0.570106,0.100238,0.222752,0.116945,259.000000,250.000000,9.000000,20.000000,0.000000,0.000000,0.412091,0.570106,0.100238,0.222752,0.116945,259.000000,250.000000,9.000000,20.000000,0.000000,0.000000:
00000000
00000000
00000000
00000000
,
00000000
00000000
00000000
00000000
,
00000002
00000000
00000000
00000000
,
00002000
00000000
00000000
00003003
,
00001000
00000000
00000000
00010000
00000000
00000000
00100000
00000000
01000000
00000000
00000000
10000000
00000000
00000000
00010000
00000000
,
01000000
00000000
00000000
00100000
00000000
00000000
10000000
00000000
00010000
00000000
00000000
01000000
00000000
00000000
00100000
00000000
,
10000000
00000000
00000000
01000000
00000000
00000000
00010000
00000000
00001000
00000000
00000000
00001000
00000000
00000000
00010000
00000000
,
00000100
00000000
00000000
00000010
00000000
00000000
00000001
00000000
00000100
00000000
00000000
00000000
00000110
00000000
00000000
00000000
,
00002002
00000000
00000000
00000000
,
00000000
00000000
00003003
00000010
,
00001000
00000100
00001000
00000000
00000001
00000000
00000000
00000000
00000000
00000000
00000000
00000000
00000100
00000000
00000000
00000000
,
00000000
00001000
00000000
01000000
,
00100000
10000000
00100000
00000000
01000000
00000000
00000000
00000000
00010000
10000000
00010000
00000000
00100000
00000000
00000000
00000000
,
01000000
10000000
01000000
00000000
00100000
00000000
00000000
00000000
00010000
01000000
00010000
00000000
00100000
00000000
00000000
00000000
,
01000000
10000000
00100000
01000000
00010000
00001000
00000010
00000100
,
00000001
00000000
00000010
00000000
00000100
00000000
00000000
00000000
00001000
00000001
00001000
00000000
00000010
00000000
00000000
00000000
,
00001001
00000000
00000010
00000100
00000000
00000001
00001000
00000100
,
00000000
00000010
00000001
00000100
00000000
00001000
00000000
00010000
,
00000000
01000000
10000000
00010000
00000000
00010000
00000000
00010000
,
00100000
01000000
10000000
00010000
01000000
00100000
01000000
00000000
,
10010000
00000000
00100000
01000000
00000000
00010000
00100000
10000000
,
00000000
00100000
00010000
01000000
00000000
00100000
10000000
01000000
,
00000000
00010000
00001000
00000100
00000000
00000001
00000000
00001000
,
00000100
00000010
00000002
00000000
00001003
00000000
00001000
00000000
,
00000110
00000000
00001000
00000001
00000000
00000010
00000000
00001000
,
00000000
00010000
00000000
00100000
00000000
10000000
00000000
00010000
,
00100000
01000000
00000000
00100000
00000000
00010000
00000000
10000000
,
00100000
01000000
00010000
00000000
00100000
01000000
10000000
00000000
,
01010000
00000000
10000000
01000000
00100000
00000000
00001000
00010000
,
00000010
00000000
00000100
00000001
00000010
00000100
00001000
00000000
,
00000010
00000000
00000100
00000001
00000010
00000000
00000100
00001000
,
00000001
00000100
00000010
00001000
00000001
00000010
00001000
00000000
,
00011000
00000000
00100000
10000000
01000000
00100000
00010000
00000000
,
10000000
00000000
00100000
01000000
00010000
00100000
01000000
00000000
,
10000000
00010000
01000000
00000000
00100000
10000000
01000000
00000000
,
00100000
00010000
20000000
00000000
00100000
00000000
31000000
00000000
,
10010000
00000000
01000000
00100000
10000000
00000000
01000000
00000000
,
00020000
00000000
00031000
00000200
,
00000302
00000000
00001003
00000200
,
00000320
00000000
00000032
00000103
,
00002200
00000000
00000000
00000000
00003300
00000000
00000000
00000000
00000010
00000001
00000010
00000000
00000200
00000000
00000000
00000000
,
00002000
00000000
00000000
00000000
00003300
00000000
00000000
00000000
00010000
00001000
00010000
00000000
00200000
00000000
00000000
00000000
,
20000000
00000000
00000000
00000000
30300000
00000000
00000000
00000000
00010000
01000000
00010000
00000000
00200000
00000000
00000000
00000000
,
01300000
00000000
10000000
00000000
00010000
10000000
01000000
00000000
,
00100000
00010000
00100000
00000000
00001000
00000000
00001000
00000000
00010000
00001000
00010000
00000000
00000100
00000000
00001000
00000000
,
00000010
00000100
00000010
00000000
00001000
00000000
00001000
00000000
00000100
00000010
00000100
00000000
00001000
00000000
00000001
00000000
,
00000100
00000001
00001000
00000010
00000100
00001000
00010000
01000000
,
10000000
00000000
00100000
00000000
01000000
00000000
00010000
00000000
10000000
00000000
00100000
00000000
01000000
00010000
10000000
00000000
,
02000000
00000000
00000000
03000000
;

//---------------dance-single - ----------------
#NOTES:
     dance-single:
     :
     Beginner:
     2:
     0.151153,0.267302,0.144789,0.000000,0.000000,95.000000,82.000000,13.000000,0.000000,0.000000,0.000000,0.151153,0.267302,0.144789,0.000000,0.000000,95.000000,82.000000,13.000000,0.000000,0.000000,0.000000:
0000
0000
0000
0000
,
0000
0000
0000
0000
,
0000
0000
0000
0000
,
1000
0000
0000
0000
,
0010
0000
0000
0000
,
1000
0000
0001
0000
,
1000
0000
0000
0000
,
0001
0000
0000
0000
,
1001
0000
0000
0000
,
0000
0000
0000
0000
,
1001
0000
0000
0000
,
0000
0000
0000
0000
,
0010
0000
0010
0000
,
0010
0000
0010
0000
,
0100
0000
0100
0000
,
0100
0000
0100
0000
,
1001
0000
0010
0000
,
0001
0000
1000
0000
,
0001
0000
1000
0000
,
0001
0000
0010
0010
,
0010
0000
0100
0000
,
0010
0000
0100
0000
,
1000
0000
0100
0000
,
0010
0000
0001
0000
,
1001
0000
0010
0000
,
0001
0000
1000
0000
,
0001
0000
0001
0000
,
1000
0000
1000
0000
,
1001
0000
0010
0000
,
1000
0000
0001
0000
,
0100
0000
0100
0000
,
0001
0000
1000
0000
,
1001
0000
0010
0000
,
0001
0000
0010
0000
,
1000
0000
0010
0000
,
0001
0000
0010
0000
,
0100
0000
0001
0000
,
0100
0000
1000
0000
,
0100
0000
0001
0000
,
0100
0000
0010
0000
,
1001
0000
0010
0000
,
1000
0000
0010
0000
,
0001
0000
0010
0000
,
1000
0000
0100
0000
,
1001
0000
0010
0000
,
0100
0000
0010
0000
,
0110
0000
1001
0000
,
0110
0000
1001
0000
,
0110
0000
0000
0000
;

//---------------dance-single - ----------------
#NOTES:
     dance-single:
     :
     Challenge:
     11:
     0.876688,0.923028,0.300715,0.033413,1.102622,551.000000,524.000000,27.000000,3.000000,0.000000,0.000000,0.876688,0.923028,0.300715,0.033413,1.102622,551.000000,524.000000,27.000000,3.000000,0.000000,0.000000:
// measure 0
0000
0000
0000
0000
,  // measure 1
0000
0000
0000
0000
,  // measure 2
0000
0000
0000
0000
,  // measure 3
0000
0000
0000
0000
,  // measure 4
1000
0000
0000
1000
0000
0000
1000
0000
1000
0000
0000
1000
0000
0000
0010
0000
,  // measure 5
0010
0000
0000
0010
0000
0000
0100
0000
0100
0000
0000
0100
0000
0000
0001
0000
,  // measure 6
1000
0000
0000
1000
0000
0000
1000
0000
1000
0000
0000
1000
0000
0000
0010
0000
,  // measure 7
1000
0000
0000
1000
0000
0000
1000
0000
1000
0000
0000
1000
0002
0000
0000
0000
,  // measure 8
1003
0001
1000
0001
1000
0000
1000
0000
1000
0000
0000
1000
0000
0000
0010
0000
,  // measure 9
0010
0000
0000
0010
0000
0000
0100
0000
0100
0000
0000
0100
0010
0000
0001
0000
,  // measure 10
1000
0100
1000
0100
1000
0000
1000
0000
1000
0000
0000
1000
0000
0000
0010
0000
,  // measure 11
1000
0000
0000
1000
0000
0000
1000
0000
1000
0000
0000
1000
0000
0000
0010
0000
,  // measure 12
1000
0100
1000
0100
1000
0000
1000
0000
0001
0100
0001
0100
0001
0000
0001
0000
,  // measure 13
1000
0100
1000
0100
1000
0000
1000
0000
0001
0100
0001
0100
0001
0000
0001
0000
,  // measure 14
1000
0100
1000
0100
0010
0001
0010
0001
1000
0100
1000
0100
0010
0001
0010
0001
,  // measure 15
0100
0010
0100
0010
1000
0001
1000
0001
0100
0010
0100
0010
0100
0001
0100
0001
,  // measure 16
1000
0001
1000
0001
1000
0000
0001
0100
0001
0100
0001
0100
0001
0000
1000
0010
,  // measure 17
1000
0010
1000
0010
1000
0000
0100
1000
0100
1000
0100
1000
0100
0000
0010
0001
,  // measure 18
0100
0010
0100
0010
0100
0000
0001
1000
0001
1000
0001
1000
0001
0000
0010
0100
,  // measure 19
1000
0001
1000
0001
1000
0000
0010
0100
0010
0100
0010
0100
0010
0000
0100
0001
,  // measure 20
1000
0010
1000
0100
1000
0000
0010
0100
0001
0100
0010
0100
0001
0000
0010
0001
,  // measure 21
1000
0001
0010
0001
1000
0000
0100
1000
0001
1000
0100
1000
0001
0000
0100
0010
,  // measure 22
1000
0001
0100
0010
1000
0000
1000
0001
1000
0010
0100
0001
0010
0000
0100
1000
,  // measure 23
0100
0010
0001
1000
0001
0000
0100
0001
1000
0001
0100
0001
1000
0000
0010
1000
,  // measure 24
0001
0010
0001
0010
0001
0000
0001
0100
0001
0100
0001
0100
0001
0000
0001
1000
,  // measure 25
0001
1000
0001
1000
0001
0000
0001
0010
0001
0010
0001
0010
0001
0000
1000
0100
,  // measure 26
1000
0001
1000
0001
1000
0000
1000
0010
1000
0010
1000
0010
1000
0000
1000
0100
,  // measure 27
1000
0010
1000
0010
1000
0000
1000
0001
1000
0001
1000
0001
1000
0000
1000
0010
,  // measure 28
0100
0001
0100
0001
0100
0000
0100
0010
0100
0010
0100
0010
0100
0000
0100
1000
,  // measure 29
0100
1000
0100
1000
0100
0000
0100
0001
0100
0001
0100
0001
0100
0000
0100
0010
,  // measure 30
0100
0001
0100
0001
0100
0000
0100
1000
0100
1000
0100
1000
0100
0000
0100
0010
,  // measure 31
0100
0001
0100
0001
0100
0000
0100
0001
0100
0001
0100
0001
0100
0000
0010
0100
,  // measure 32
0001
0100
0001
0000
0001
0000
0001
1000
0001
0010
0001
0000
0001
0000
0101
0000
,  // measure 33
0001
0010
0001
0000
0001
0000
0001
0100
0001
0010
0001
0000
0011
0000
0011
0000
,  // measure 34
0001
0100
0001
0000
0001
0000
0001
0010
0001
0010
0001
0000
0001
0000
0001
0100
,  // measure 35
0010
0100
1000
0100
0010
0000
0100
0001
0100
0010
0100
1000
0100
0000
0010
1000
,  // measure 36
0100
1000
0100
0000
0100
0000
0100
0001
0100
1000
0100
0000
0100
0000
0110
0000
,  // measure 37
0100
1000
0100
0000
0100
0000
0100
0010
0100
1000
0100
0000
0101
0000
0101
0000
,  // measure 38
0100
1000
0100
0000
0100
0000
0100
0010
0100
1000
0100
0000
0100
0000
0010
0001
,  // measure 39
0010
0100
1000
0100
1000
0000
0010
1000
0001
1000
0100
1000
0001
0000
0100
0001
,  // measure 40
1000
0010
1000
0000
1000
0000
1000
0100
1000
0100
1000
0000
1001
0000
0101
0000
,  // measure 41
1000
0100
1000
0000
1000
0000
1000
0100
1000
0010
1000
0000
1001
0000
0101
0000
,  // measure 42
1000
0100
1000
0000
1000
0000
1000
0100
1000
0010
1000
0000
1001
0000
0101
0000
,  // measure 43
1000
0100
1000
0000
1000
0000
1000
0100
1000
0010
1000
0000
1001
0000
0101
0000
,  // measure 44
1000
0100
1000
0000
1001
0000
0101
0000
1000
0100
1000
0000
1001
0000
0101
0000
,  // measure 45
1000
0100
1000
0000
1001
0000
0101
0000
1000
0100
1000
0000
1001
0000
0101
0000
,  // measure 46
1000
0100
1001
0000
1000
0100
1001
0000
1000
0100
1001
0000
1000
0100
1001
0000
,  // measure 47
1000
0010
0100
0001
0010
0100
1000
0100
0010
0001
0010
0100
1000
0001
0100
0010
,  // measure 48
0202
0000
0000
0303
;
