#TITLE:Rush E;
#SUBTITLE:;
#ARTIST:Sheet Music Boss;
#TITLETRANSLIT:;
#SUBTITLETRANSLIT:;
#ARTISTTRANSLIT:;
#GENRE:Sheet Music Boss;
#CREDIT:;
#BANNER:Rush E-bn.jpg;
#BACKGROUND:Rush E-bg.jpg;
#LYRICSPATH:;
#CDTITLE:;
#MUSIC:Rush E - Sheet Music Boss.mp3;
#OFFSET:-0.147000;
#SAMPLESTART:37.638916;
#SAMPLELENGTH:12.427982;
#LASTBEATHINT:506.823151;
#SELECTABLE:YES;
#BPMS:0.000000=34.661999
,1.000000=46.216999
,2.000000=111.000000
,4.000000=185.000000
,6.000000=222.000000
,7.000000=277.339996
,8.000000=370.000000
,10.000000=277.339996
,11.000000=370.000000
,16.000000=418.000000
,17.000000=474.000000
,18.000000=555.000000
,20.000000=741.000000
,28.000000=1111.000000
,43.000000=66.000000
,45.000000=72.000000
,46.000000=78.000000
,49.000000=84.000000
,50.000000=90.000000
,51.000000=100.000000
,56.000000=110.000000
,58.000000=115.000000
,60.000000=124.999992
,63.000000=130.000000
,65.000000=140.000000
,67.000000=145.000000
,69.000000=155.000000
,75.000000=168.000000
,79.000000=170.000000
,80.000000=175.000000
,81.000000=180.000000
,85.000000=200.000000
,89.000000=210.000000
,92.000000=220.000000
,95.000000=225.000000
,97.000000=249.999985
,100.000000=260.000000
,104.000000=280.000000
,111.000000=300.000000
,115.000000=308.000000
,127.000000=310.000000
,231.000000=324.000000
,290.000000=550.000000
,294.000000=68.000000
,295.000000=78.000000
,296.000000=85.000000
,297.000000=90.000000
,298.000000=98.000000
,299.000000=115.000000
,300.000000=120.000000
,302.000000=135.000000
,303.000000=150.000000
,307.000000=160.000000
,309.000000=170.000000
,310.000000=210.000000
,313.000000=230.000000
,315.000000=249.999985
,316.000000=280.000000
,318.000000=290.000000
,320.000000=310.000000
,321.000000=320.000000
,323.000000=335.000000
,448.000000=340.000000
,464.000000=345.000000
,508.000000=360.000000
,516.000000=365.000000
,520.000000=370.000000
,524.000000=375.000000
,538.000000=400.000000
,568.000000=800.000000
,568.500000=600.000000
,569.000000=400.000000
,569.500000=300.000000
,570.000000=205.000000
,574.000000=410.000000
,578.000000=1111.000000
;
#STOPS:79.000000=0.353000,
80.000000=0.343000,
109.000000=0.214000,
110.000000=0.214000,
139.000000=0.194000,
140.000000=0.194000,
169.000000=0.194000,
170.000000=0.194000,
227.000000=0.387000,
229.000000=0.194000,
230.000000=0.194000,
259.000000=0.185000,
260.000000=0.185000,
289.000000=0.185000,
354.000000=0.179000,
355.000000=0.179000,
384.000000=0.179000,
385.000000=0.179000,
442.000000=0.358000,
476.000000=0.174000,
477.000000=0.174000,
506.000000=0.174000,
507.000000=0.174000,
536.000000=0.160000,
537.000000=0.160000,
578.000000=0.160000
;
#BGCHANGES:;
#KEYSOUNDS:;
#ATTACKS:;

//---------------dance-single - ----------------
#NOTES:
     dance-single:
     :
     Hard:
     11:
     0.803424,0.951789,0.259235,0.172824,0.097213,781.000000,745.000000,36.000000,24.000000,26.000000,0.000000,0.803424,0.951789,0.259235,0.172824,0.097213,781.000000,745.000000,36.000000,24.000000,26.000000,0.000000:
// measure 0
0000
0000
0000
0000
,  // measure 1
0000
0000
0000
0000
,  // measure 2
0000
0000
0000
0000
,  // measure 3
0000
0000
0000
0000
,  // measure 4
0000
0000
0000
0000
,  // measure 5
0000
0000
0000
0000
,  // measure 6
0000
0000
0000
0000
,  // measure 7
0000
0000
0000
0000
,  // measure 8
0000
0000
0000
0000
,  // measure 9
0000
0000
0000
0000
,  // measure 10
0000
0000
0000
0000
,  // measure 11
1010
0200
0310
0002
,  // measure 12
0013
0000
0100
0000
1010
0000
1000
0001
,  // measure 13
1000
0001
1000
0001
1000
0001
1000
0001
,  // measure 14
1000
0001
1000
0001
1000
0001
1000
0001
,  // measure 15
1000
0001
1000
0010
0100
0001
0010
0000
,  // measure 16
0100
0000
1000
0000
1001
0000
0001
0100
,  // measure 17
0001
0100
0010
1000
0010
1000
0100
0010
,  // measure 18
0100
0010
0001
1000
0001
1000
0010
0100
,  // measure 19
0010
0100
0001
0000
1000
0000
0100
0000
,  // measure 20
1001
0000
1000
0001
1000
0001
1000
0001
,  // measure 21
1000
0001
1000
0001
1000
0001
1000
0001
,  // measure 22
1000
0001
1000
0010
0100
0001
1000
0000
,  // measure 23
0001
0100
0010
0000
1000
0000
0100
0000
,  // measure 24
1001
0000
0001
0010
0001
0000
0010
0000
,  // measure 25
0100
0000
1000
0100
1000
0000
0010
0000
,  // measure 26
0100
0000
0001
0010
0100
0000
1000
0000
,  // measure 27
0001
0000
0100
0000
0110
0000
0001
1000
,  // measure 28
0100
0000
1000
0000
0001
0000
1000
0010
,  // measure 29
0100
0000
0001
0000
1000
0000
0001
0100
,  // measure 30
0010
0000
1000
0100
0010
0001
0100
0000
,  // measure 31
0010
0000
1000
0000
0000
0000
0001
1000
,  // measure 32
0001
0000
0010
0000
0100
0000
1000
0100
,  // measure 33
1000
0000
0010
0000
0100
0000
0001
0010
,  // measure 34
0100
1000
0001
0100
,  // measure 35
1001
0000
0001
0010
0001
0000
0010
0000
,  // measure 36
0100
0000
1000
0100
1000
0000
0100
0000
,  // measure 37
0010
0000
0001
1000
0001
0000
0100
0000
,  // measure 38
0001
1000
0010
0100
,  // measure 39
0001
0000
1000
0010
1000
0000
0010
0100
,  // measure 40
0010
0000
0100
0001
0100
0000
0001
1000
,  // measure 41
0001
0000
0010
0001
0100
0010
1000
0000
,  // measure 42
0001
0100
1001
0010
,  // measure 43
0000
1000
0001
0000
1000
0000
0100
0000
,  // measure 44
0001
0100
1000
0010
,  // measure 45
0000
0100
0001
0000
0010
0000
0100
0000
,  // measure 46
1000
0100
0010
0001
,  // measure 47
0000
1000
0010
0000
0100
0000
0001
0000
,  // measure 48
1000
0100
0010
0001
,  // measure 49
0100
0010
1000
1010
,  // measure 50
0110
0101
1001
1000
,  // measure 51
0000
0100
1000
0000
0001
0000
0100
0000
,  // measure 52
0010
1000
0001
0010
,  // measure 53
0000
0100
1000
0000
0001
0000
0100
0000
,  // measure 54
0010
2000
0000
3001
,  // measure 55
0020
0030
0100
1000
,  // measure 56
0001
0100
0010
0100
,  // measure 57
1001
0000
0010
0000
0110
0000
0001
0100
,  // measure 58
0001
0100
0001
0100
0001
0000
1000
0010
,  // measure 59
1000
0010
1000
0010
1000
0000
0001
0010
,  // measure 60
0001
0010
0001
1000
0100
0010
0001
0000
,  // measure 61
1000
0000
0100
0000
0000
0000
1000
0100
,  // measure 62
1000
0100
1000
0100
1000
0000
0001
0010
,  // measure 63
0001
0010
0001
0010
0001
0000
1000
0010
,  // measure 64
1000
0010
0100
0000
0001
0000
1000
0000
,  // measure 65
1001
0000
0001
1000
0001
1000
0010
0100
,  // measure 66
0010
0000
1000
0001
1000
0001
0100
0010
,  // measure 67
0100
0000
0001
0100
0001
0100
0010
0000
,  // measure 68
1000
0100
0010
0000
0100
0000
2002
0000
,  // measure 69
3000
0000
1003
0100
0010
0001
1000
0100
,  // measure 70
0010
0001
1000
0100
0010
0001
1000
0100
,  // measure 71
0010
0001
1000
0001
1000
0001
0100
0010
,  // measure 72
1000
0000
0000
0001
0000
0000
0100
0000
0000
0000
0000
0000
MMMM
M000
M000
M000
M000
M000
M000
M000
MMMM
M000
M000
M000
,  // measure 73
M000
M000
M000
M000
MMMM
0000
0000
0000
0000
0000
0000
0000
0200
0000
0000
0000
0000
0000
0310
0000
1001
0000
0000
0000
,  // measure 74
0001
0000
0000
1010
0100
0000
0200
0000
0000
0310
1000
0000
,  // measure 75
0100
0000
0000
0011
0001
0000
1000
0000
0000
0010
0100
0000
,  // measure 76
0001
0000
0000
1000
0100
0000
0001
0000
0000
0100
1000
0000
,  // measure 77
0010
0000
0000
0100
0001
0000
1000
0000
0000
0010
1000
0000
,  // measure 78
0100
0000
0000
0001
0100
0000
1000
0000
0000
0100
1000
0000
,  // measure 79
0001
0000
0000
0010
0100
0000
0010
0000
0000
0001
1000
0000
,  // measure 80
0001
0000
0000
0100
0001
0000
1000
0000
0000
0010
1000
0000
,  // measure 81
0010
0000
0000
0000
0000
0000
0100
0000
0001
0000
0000
0000
0100
0000
0000
0001
0000
0000
0100
0000
0000
0001
0000
0000
,  // measure 82
0100
0001
0100
0000
0010
1000
0010
1000
,  // measure 83
0010
1000
0010
0000
1000
0001
1000
0001
,  // measure 84
1000
0010
0100
0001
1000
0000
0100
0000
,  // measure 85
0220
0000
0330
0000
0001
0010
0001
0010
,  // measure 86
0100
1000
0100
0000
1000
0001
1000
0001
,  // measure 87
0100
0010
0100
0000
0001
0100
0010
1000
,  // measure 88
0100
0010
0001
1001
,  // measure 89
1000
0100
1000
0100
0010
0100
1000
0000
,  // measure 90
0001
0010
0001
0010
0100
0010
0001
0000
,  // measure 91
1000
0001
0100
0010
0100
0000
0001
1000
,  // measure 92
0010
0100
2200
3300
,  // measure 93
1000
0010
0100
0001
1000
0100
0010
0001
,  // measure 94
1000
0010
0001
0010
1000
0100
0001
0100
,  // measure 95
1000
0010
0100
0001
1000
0100
0010
0100
,  // measure 96
1000
0000
1001
0000
0001
0000
0000
0100
,  // measure 97
0001
0010
0001
0100
,  // measure 98
0010
0000
1000
0000
0100
0000
0000
1000
,  // measure 99
0010
1000
0100
0001
,  // measure 100
0100
0000
1000
0000
0001
0000
0000
0010
,  // measure 101
0001
1000
0010
0100
,  // measure 102
0001
0010
0100
1000
,  // measure 103
0010
0100
0011
0110
,  // measure 104
1100
0000
1001
0000
1000
0000
0000
0100
,  // measure 105
1000
0001
0100
0010
,  // measure 106
0100
0000
0001
0000
0010
0000
0000
0001
,  // measure 107
1000
0010
0100
0001
,  // measure 108
2002
3003
0000
0202
,  // measure 109
0303
0010
1000
0100
,  // measure 110
0010
0100
1001
0100
,  // measure 111
2010
0000
0000
0000
0002
0000
0000
0003
0000
0000
0002
0000
0000
0000
3003
0000
,  // measure 112
0001
0100
0001
0100
0001
0100
0001
0100
,  // measure 113
0010
1000
0010
1000
0010
1000
0010
1000
,  // measure 114
0001
0100
0010
1000
0001
0100
0010
1000
,  // measure 115
0001
1000
0100
0000
,  // measure 116
1000
0100
1000
0100
0010
0001
0010
0001
,  // measure 117
1000
0001
1000
0001
0100
0010
1000
0001
,  // measure 118
0100
0001
1000
0010
0100
0000
0001
0000
,  // measure 119
1000
0000
1001
0000
1000
0100
1000
0100
,  // measure 120
0001
0100
1000
0100
0010
0001
0010
0001
,  // measure 121
1000
0001
0010
0001
0100
0001
1000
0010
,  // measure 122
0100
0000
0001
0100
0010
0000
1000
0000
,  // measure 123
2200
0000
3300
0000
0001
0010
0100
1000
,  // measure 124
0001
0010
0100
1000
0001
0010
0100
1000
,  // measure 125
0001
0010
0100
1000
0001
0010
0100
1000
,  // measure 126
0001
1000
0100
0010
0001
0000
1001
0000
,  // measure 127
1000
0100
1000
0100
1000
0100
1000
0100
,  // measure 128
1000
0100
1000
0100
1000
0100
1000
0100
,  // measure 129
1000
0100
1000
0100
1000
0010
0100
0001
,  // measure 130
1000
0001
0100
0000
,  // measure 131
0001
0010
0001
0010
0001
0010
0100
1000
,  // measure 132
0001
0010
0001
0010
0001
0010
0100
1000
,  // measure 133
0001
0010
0100
1000
0001
0000
1000
0000
,  // measure 134
0100
0000
1001
0000
0001
0100
0001
0100
,  // measure 135
0001
0000
1000
0000
0010
1000
0010
1000
,  // measure 136
0010
0000
0100
0000
0001
0010
0100
1000
,  // measure 137
0001
0000
1000
0100
0010
0000
0001
0000
,  // measure 138
1000
0000
0000
0000
0010
1000
0010
1000
,  // measure 139
0010
0000
0100
0000
0001
1000
0001
1000
,  // measure 140
0001
0000
0010
0000
0100
1000
0100
1000
,  // measure 141
0001
0010
0100
1000
,  // measure 142
0001
0000
1000
0000
,  // measure 143
0200
0000
0000
0000
0310
0001
1000
0001
,  // measure 144
0100
0010
1000
0001
1000
0000
0000
0000
,  // measure 145
2002
0000
0000
0000
,  // measure 146
0000
0000
0000
0000
,  // measure 147
0000
0000
0000
0000
,  // measure 148
0000
0000
0000
0000
,  // measure 149
0000
0000
0000
0000
,  // measure 150
0000
0000
0000
0000
,  // measure 151
0000
0000
0000
0000
,  // measure 152
0000
0000
0000
0000
,  // measure 153
0000
0000
0000
0000
,  // measure 154
0000
0000
0000
0000
,  // measure 155
0000
0000
3003
0000
;

//---------------dance-single - ----------------
#NOTES:
     dance-single:
     :
     Challenge:
     15:
     1.013281,1.623641,0.806510,0.410456,0.259235,985.000000,873.000000,112.000000,57.000000,38.000000,18.000000,1.013281,1.623641,0.806510,0.410456,0.259235,985.000000,873.000000,112.000000,57.000000,38.000000,18.000000:
// measure 0
0000
0000
0000
0000
,  // measure 1
0000
0000
0000
0000
,  // measure 2
0000
0000
0000
0000
,  // measure 3
0000
0000
0000
0000
,  // measure 4
0000
0000
0000
0000
,  // measure 5
0000
0000
0000
0000
,  // measure 6
0000
0000
0000
0000
,  // measure 7
0000
0000
0000
0000
,  // measure 8
0000
0000
0000
0000
,  // measure 9
0000
0000
0000
0000
,  // measure 10
0000
0000
0000
0002
,  // measure 11
1010
0003
0200
0000
0011
0300
2000
0000
,  // measure 12
0011
3000
0200
0000
1010
0300
0001
0001
,  // measure 13
0001
0001
0001
0001
0001
0001
0001
0001
,  // measure 14
0001
0001
0001
0001
0001
0001
0001
0001
,  // measure 15
0001
0001
0001
0010
0100
1000
0001
0000
,  // measure 16
0101
0000
1010
0000
1001
0000
0001
0100
,  // measure 17
1000
0100
0010
1000
0100
0010
0001
1000
,  // measure 18
0010
0100
0001
0010
0001
1000
0010
0001
,  // measure 19
0010
1000
0001
0000
1000
0000
2200
0000
,  // measure 20
0011
0000
3300
0000
0000
0000
1000
0001
1000
0000
0000
0000
1000
0000
0000
0000
1000
0000
0000
0000
1000
0000
0000
0000
1000
0000
0000
0000
1000
0000
0000
0000
,  // measure 21
1000
1000
1000
1000
1000
1000
1000
1000
,  // measure 22
1000
1000
1000
0010
0100
0001
1000
0000
,  // measure 23
0001
0100
0010
0000
1000
0000
0110
0000
,  // measure 24
1001
0000
0001
0010
0001
1000
0010
0001
,  // measure 25
0010
1000
0001
0100
0001
1000
0100
0001
,  // measure 26
0100
1000
0001
0010
0100
1000
0001
0000
,  // measure 27
0010
0000
0000
0000
0220
0000
0000
0000
1001
0330
0000
1000
0001
0000
0100
0000
,  // measure 28
0001
0100
0010
1000
0010
1000
0100
0010
,  // measure 29
0100
0010
0001
1000
0001
1000
0100
0100
,  // measure 30
0100
0100
0100
0010
0001
1000
0100
0000
,  // measure 31
0010
0000
1001
0000
0100
0000
0001
1000
,  // measure 32
0001
1000
0010
0100
0010
1000
0001
1000
,  // measure 33
0001
1000
0010
0100
0100
0001
0001
0010
,  // measure 34
0100
1000
0010
0000
0100
0000
0202
0000
,  // measure 35
1010
0303
0000
0000
0001
0000
1000
0000
0001
0000
1000
0000
0010
0000
0001
0000
,  // measure 36
0010
0001
1000
0100
1000
0100
0001
0010
,  // measure 37
0001
0010
1000
0100
0001
0100
1000
0000
,  // measure 38
0001
1000
0010
0000
0011
0000
1010
0000
,  // measure 39
0001
0000
1000
0010
1000
0010
0001
0010
,  // measure 40
0001
0010
0001
0100
0001
0100
1000
0100
,  // measure 41
1000
0100
0010
1000
0010
0001
1000
0001
,  // measure 42
0100
0000
0002
0000
2000
0000
0000
0000
0110
3003
0000
0100
0020
0000
0000
0000
,  // measure 43
0000
1030
0001
0000
1001
0000
0100
0000
,  // measure 44
0101
0100
1010
0020
,  // measure 45
0000
0130
0001
0000
0011
0000
0100
0000
,  // measure 46
1100
0100
1010
0002
,  // measure 47
0000
1003
0010
0000
0110
0000
0001
0000
,  // measure 48
1001
0100
1010
0001
,  // measure 49
0110
0010
1001
1010
,  // measure 50
0110
0101
1001
2000
,  // measure 51
0000
3100
1000
0000
1001
0000
0100
0000
,  // measure 52
1010
1000
1001
0020
,  // measure 53
0000
0130
1000
0000
0011
0000
0100
0000
,  // measure 54
1010
2000
0000
3001
,  // measure 55
0020
0030
0100
1100
,  // measure 56
0011
0101
1010
0220
,  // measure 57
1001
0030
0000
0000
1010
0300
0000
0000
0110
0000
0000
0000
0001
0000
0100
0000
,  // measure 58
0001
0100
0001
0100
0001
0100
0001
0100
,  // measure 59
0001
0000
0100
0000
0001
0000
0100
0000
0001
0000
0100
0000
0001
0100
0001
0100
,  // measure 60
0001
0100
0001
0100
0001
0000
1000
0000
0100
0000
0010
0000
0001
0000
0000
0000
,  // measure 61
1001
0000
1010
0000
1100
0000
1000
0100
,  // measure 62
0001
0100
1000
0001
1000
0001
0001
0010
,  // measure 63
1000
0010
0001
1000
0001
1000
1000
0010
,  // measure 64
0001
0010
0100
0000
0001
0000
0202
0000
,  // measure 65
1010
0303
0000
0000
0001
0000
1000
0000
0001
0000
1000
0000
0010
0000
0001
0000
,  // measure 66
0010
0000
0001
0000
1000
0000
0001
0000
1000
0000
0001
0000
0100
0010
0100
0010
,  // measure 67
0100
0010
0100
0010
0100
0000
0001
0000
0010
0000
0100
0000
1000
0000
0000
0000
,  // measure 68
0010
1000
0100
0000
0010
0000
0022
0000
,  // measure 69
0033
0000
1000
0010
0001
1000
0100
0001
,  // measure 70
1000
0010
0001
0001
0010
1000
1000
0100
,  // measure 71
0001
1000
0010
0001
0001
0010
1000
0100
,  // measure 72
0001
0000
0000
0010
0000
0000
1000
0000
0000
0000
0000
0000
MMMM
M000
M000
M000
M000
M000
M000
M000
MMMM
M000
M000
M000
,  // measure 73
M000
0000
M000
0000
M000
0000
M000
0000
MMMM
0000
0000
0000
0000
0000
0000
0000
0000
0000
0000
0000
0000
0000
0000
0000
0200
0000
0000
0000
0000
0000
0000
0000
0000
0000
0000
0000
1010
0000
0000
0300
0001
1000
0001
1000
0000
0000
0000
0000
,  // measure 74
0002
0000
0000
0000
0000
0000
0000
0000
0000
0000
0000
0000
1010
0000
0000
0003
0100
0001
0100
0001
0000
0000
0000
0000
0200
0000
0000
0000
0000
0000
0000
0000
0000
0000
0000
0000
0011
0000
0000
0300
1000
0100
1000
0100
0000
0000
0000
0000
,  // measure 75
2000
0000
0000
0000
0000
0000
0000
0000
0000
0000
0000
0000
0011
0000
0000
3000
0001
0010
0001
0010
0000
0000
0000
0000
1000
0000
0000
0000
0000
0000
0000
0000
0000
0000
0000
0000
0010
0000
0000
0000
0100
0001
0100
0001
0000
0000
0000
0000
,  // measure 76
0001
0000
0000
0000
0000
0000
0000
0000
0000
0000
0000
0000
1000
0000
0000
0000
0100
1000
0100
1000
0000
0000
0000
0000
0001
0000
0000
0000
0000
0000
0000
0000
0000
0000
0000
0000
0100
0000
0000
0000
1000
0100
1000
0100
0000
0000
0000
0000
,  // measure 77
0010
0000
0000
0000
0000
0000
0000
0000
0000
0000
0000
0000
0100
0000
0000
0000
0001
0100
0001
0100
0000
0000
0000
0000
1000
0000
0000
0000
0000
0000
0000
0000
0000
0000
0000
0000
0010
0000
0000
0000
1000
0000
0001
0000
1000
0000
0000
0000
,  // measure 78
0100
0000
0000
0000
0000
0000
0001
0000
0100
0010
0100
0000
1000
0000
0000
0000
0000
0000
0100
0000
1000
0100
1000
0000
,  // measure 79
0001
0000
0000
0000
0000
0000
0010
0000
0100
0001
0100
0000
0010
0000
0000
0000
0000
0000
0001
0000
1000
0010
1000
0000
,  // measure 80
0001
0000
0000
0000
0000
0000
0100
0000
0001
0010
0001
0000
1000
0000
0000
0000
0000
0000
0010
0000
1000
0100
1000
0000
,  // measure 81
0010
0000
0000
0000
0000
0000
0100
0000
0001
1000
0001
0000
0001
0000
0000
0010
0000
0000
1000
0000
0000
0010
0000
0000
,  // measure 82
0001
0010
1000
0010
0001
0010
1000
0010
,  // measure 83
0001
0010
1000
0010
0001
0010
0100
1000
,  // measure 84
0001
1000
0100
0010
0001
0000
1000
0000
,  // measure 85
2020
0000
3030
0000
0001
0010
0001
0010
,  // measure 86
0100
0001
0100
0001
0100
1000
0100
1000
,  // measure 87
0010
1000
0010
1000
0001
1000
0010
0100
,  // measure 88
0001
0000
0000
0000
0011
0000
0000
0000
2200
0000
0000
0000
0011
3300
0000
0000
,  // measure 89
1000
0100
1000
0100
0001
0100
1000
1000
,  // measure 90
0001
0010
0001
0010
0100
1000
0100
1000
,  // measure 91
0100
0010
0001
1000
0010
0000
0001
1000
,  // measure 92
0100
0010
2200
3300
,  // measure 93
1000
0010
0100
0001
1000
0100
0010
0001
,  // measure 94
1000
0010
0001
0010
1000
0100
0001
0100
,  // measure 95
1000
0010
0100
0001
1000
0100
0010
0100
,  // measure 96
1000
0000
1001
0000
0002
0000
0000
0103
,  // measure 97
0001
1010
0001
1100
,  // measure 98
0010
0000
1001
0000
0200
0000
0000
1300
,  // measure 99
0010
1100
0100
0011
,  // measure 100
0100
0000
1001
0000
0002
0000
0000
0013
,  // measure 101
0001
1010
0010
0101
,  // measure 102
0001
1100
0100
0011
,  // measure 103
0010
1100
0011
0110
,  // measure 104
1100
0000
1001
0000
2000
0000
0000
3100
,  // measure 105
1000
0101
0100
1010
,  // measure 106
0100
0000
1001
0000
0020
0000
0000
0031
,  // measure 107
1000
0110
0100
0011
,  // measure 108
2002
3003
MMMM
0202
,  // measure 109
0303
1010
1001
1100
,  // measure 110
0011
1100
1002
0103
,  // measure 111
1010
0000
0002
2003
3000
0002
2003
3000
,  // measure 112
0001
0100
1000
0100
0001
0100
1000
0100
,  // measure 113
0010
0001
0010
1000
0010
0001
0010
1000
,  // measure 114
0001
0100
0001
0100
0001
0010
0100
1000
,  // measure 115
0001
1001
1100
0000
,  // measure 116
0010
0100
1000
0100
0010
1000
0010
0001
,  // measure 117
1000
0001
0100
1000
0100
0010
1000
0001
,  // measure 118
0100
0001
1000
0010
0100
0000
0001
0000
,  // measure 119
2200
0000
3311
0000
1000
0100
0010
0100
,  // measure 120
0001
0100
1000
0100
0010
0001
0100
0010
,  // measure 121
0001
0010
0100
0001
1000
0010
0100
0010
,  // measure 122
0001
0000
1000
0100
0010
0000
1010
0000
,  // measure 123
2200
0000
3300
0000
0001
1000
0100
0001
,  // measure 124
1000
0010
0100
1000
0010
0100
1000
0001
,  // measure 125
0010
0100
0001
1000
0010
0100
1000
0010
,  // measure 126
0001
0000
1000
0000
0100
0000
0010
0000
0001
0000
0000
0000
1001
0000
1000
0001
,  // measure 127
1000
0100
0010
0001
1000
0100
0010
0001
,  // measure 128
1000
0100
0010
0001
1000
0010
1000
0100
,  // measure 129
0001
0100
1000
0001
1000
0010
0100
0001
,  // measure 130
1001
0011
1100
MMMM
,  // measure 131
0010
0100
0010
0100
0010
0001
0100
0010
,  // measure 132
0100
0001
0100
0001
1000
0010
0100
0001
,  // measure 133
1000
0100
0001
0100
1000
0000
0011
0000
,  // measure 134
2200
0000
0000
0000
0011
3300
0000
0000
0001
0000
0100
0000
1000
0000
0001
0000
,  // measure 135
0010
1000
0001
0100
1000
0001
0010
1000
,  // measure 136
0001
0100
1000
0001
0010
0100
0001
1000
,  // measure 137
0100
0000
0010
0001
0100
0000
0011
0000
,  // measure 138
1100
0000
MMMM
0000
0010
1000
0100
1000
,  // measure 139
0010
0001
0010
1000
0100
0001
0010
0001
,  // measure 140
0100
1000
0100
0001
0100
1000
0010
1000
,  // measure 141
0001
0011
0110
1100
,  // measure 142
1001
0000
0000
0000
0000
0000
0000
0000
1000
0100
1000
0100
0010
0100
0010
0100
,  // measure 143
0001
0100
0001
0100
0010
0100
0010
0100
0010
0000
0001
0000
1000
0000
0001
0000
,  // measure 144
0100
0010
1000
0001
1000
0000
0000
0000
,  // measure 145
2002
0000
0000
0000
,  // measure 146
0000
0000
0000
0000
,  // measure 147
0000
0000
0000
0000
,  // measure 148
0000
0000
0000
0000
,  // measure 149
0000
0000
0000
0000
,  // measure 150
0000
0000
0000
0000
,  // measure 151
0000
0000
0000
0000
,  // measure 152
0000
0000
0000
0000
,  // measure 153
0000
0000
0000
0000
,  // measure 154
0000
0000
0000
0000
,  // measure 155
0000
0000
3003
0000
;

//---------------dance-single - Oni----------------
#NOTES:
     dance-single:
     :
     Edit:
     20:
     1.037970,1.623641,0.806510,0.381652,0.345647,1009.000000,897.000000,112.000000,53.000000,38.000000,18.000000,1.037970,1.623641,0.806510,0.381652,0.345647,1009.000000,897.000000,112.000000,53.000000,38.000000,18.000000:
// measure 0
0000
0000
0000
0000
,  // measure 1
0000
0000
0000
0000
,  // measure 2
0000
0000
0000
0000
,  // measure 3
0000
0000
0000
0000
,  // measure 4
0000
0000
0000
0000
,  // measure 5
0000
0000
0000
0000
,  // measure 6
0000
0000
0000
0000
,  // measure 7
0000
0000
0000
0000
,  // measure 8
0000
0000
0000
0000
,  // measure 9
0000
0000
0000
0000
,  // measure 10
0000
0000
0000
0002
,  // measure 11
1010
0003
0200
0000
0011
0300
2000
0000
,  // measure 12
0011
3000
0200
0000
1010
0300
0001
0001
,  // measure 13
0001
0001
0001
0001
0001
0001
0001
0001
,  // measure 14
0001
0001
0001
0001
0001
0001
0001
0001
,  // measure 15
0001
0001
0001
0010
0100
1000
0001
0000
,  // measure 16
0101
0000
1010
0000
1001
0000
0001
0100
,  // measure 17
1000
0100
0010
1000
0100
0010
0001
1000
,  // measure 18
0010
0100
0001
0010
0001
1000
0010
0001
,  // measure 19
0010
1000
0001
0000
1000
0000
2200
0000
,  // measure 20
0011
0000
3300
0000
0000
0000
1000
0001
1000
0000
0000
0000
1000
0000
0000
0000
1000
0000
0000
0000
1000
0000
0000
0000
1000
0000
0000
0000
1000
0000
0000
0000
,  // measure 21
1000
1000
1000
1000
1000
1000
1000
1000
,  // measure 22
1000
1000
1000
0010
0100
0001
1000
0000
,  // measure 23
0001
0100
0010
0000
1000
0000
0110
0000
,  // measure 24
1001
0000
0001
0010
0001
1000
0010
0001
,  // measure 25
0010
1000
0001
0100
0001
1000
0100
0001
,  // measure 26
0100
1000
0001
0010
0100
1000
0001
0000
,  // measure 27
0010
0000
0000
0000
0220
0000
0000
0000
1001
0330
0000
1000
0001
0000
0001
0000
,  // measure 28
0100
0100
0010
0010
1000
1000
0100
0100
,  // measure 29
0010
0010
0001
0001
1000
1000
0100
0100
,  // measure 30
0100
0100
0100
0010
0001
1000
0100
0000
,  // measure 31
0010
0000
1001
0000
0100
0000
0001
0001
,  // measure 32
0001
0001
0010
0100
0100
1000
1000
1000
,  // measure 33
1000
1000
0010
0100
0100
0001
0001
0010
,  // measure 34
0100
1000
0010
0000
0100
0000
0202
0000
,  // measure 35
1010
0303
0000
0000
0001
0000
0001
0000
1000
0000
1000
0000
0010
0000
0010
0000
,  // measure 36
0001
0001
1000
1000
0100
0100
0001
0001
,  // measure 37
0010
0010
1000
0100
0001
0100
1000
0000
,  // measure 38
0001
1000
0010
0000
0011
0000
1010
0000
,  // measure 39
0001
0000
1000
0010
1000
0010
0001
0010
,  // measure 40
0001
0010
0001
0100
0001
0100
1000
0100
,  // measure 41
1000
0100
0010
1000
0010
0001
1000
0001
,  // measure 42
0100
0000
0002
0000
2000
0000
0000
0000
0110
3003
0000
0100
0020
0000
0000
0000
,  // measure 43
0000
1030
0001
0000
1001
0000
0100
0000
,  // measure 44
0101
0100
1010
0020
,  // measure 45
0000
0130
0001
0000
0011
0000
0100
0000
,  // measure 46
1100
0100
1010
0002
,  // measure 47
0000
1003
0010
0000
0110
0000
0001
0000
,  // measure 48
1001
0100
1010
0001
,  // measure 49
0110
0010
1001
1010
,  // measure 50
0110
0101
1001
2000
,  // measure 51
0000
3100
1000
0000
1001
0000
0100
0000
,  // measure 52
1010
1000
1001
0020
,  // measure 53
0000
0130
1000
0000
0011
0000
0100
0000
,  // measure 54
1010
2000
0000
3001
,  // measure 55
0020
0030
0100
1100
,  // measure 56
0011
0101
1010
0220
,  // measure 57
1001
0030
0000
0000
1010
0300
0000
0000
0110
0000
0000
0000
0001
0000
0100
0000
,  // measure 58
0001
0100
0001
0100
0001
0100
0001
0100
,  // measure 59
0001
0000
0100
0000
0001
0000
0100
0000
0001
0000
0100
0000
0001
0100
0001
0100
,  // measure 60
0001
0100
0001
0100
0001
0000
1000
0000
0100
0000
0010
0000
0001
0000
0000
0000
,  // measure 61
1001
0000
1010
0000
1100
0000
1000
0100
,  // measure 62
0001
0100
1000
1000
1000
1000
0001
0010
,  // measure 63
1000
0010
0001
0001
0001
0001
1000
0010
,  // measure 64
0001
0010
0100
0000
0001
0000
2020
0000
,  // measure 65
0101
3030
0000
0000
0001
0000
1000
0000
0001
0000
1000
0000
0010
0000
0001
0000
,  // measure 66
0010
0000
0001
0000
1000
0000
0001
0000
1000
0000
0001
0000
0100
1000
0100
1000
,  // measure 67
0100
1000
0100
1000
0100
0000
0001
0000
0010
0000
0100
0000
1000
0000
0000
0000
,  // measure 68
0010
1000
0100
0000
0010
0000
0022
0000
,  // measure 69
0033
0000
1000
0010
0001
1000
0100
0001
,  // measure 70
1000
0010
0001
0001
0010
1000
1000
0100
,  // measure 71
0001
1000
0010
0001
0001
0010
1000
0100
,  // measure 72
0001
0000
0000
0010
0000
0000
1000
0000
0000
0000
0000
0000
MMMM
M000
M000
M000
M000
M000
M000
M000
MMMM
M000
M000
M000
,  // measure 73
M000
0000
M000
0000
M000
0000
M000
0000
MMMM
0000
0000
0000
0000
0000
0000
0000
0000
0000
0000
0000
0000
0000
0000
0000
0200
0000
0000
0000
0000
0000
0000
0000
0000
0000
0000
0000
1010
0000
0000
0300
0001
1000
0001
1000
0000
0000
0000
0000
,  // measure 74
0002
0000
0000
0000
0000
0000
0000
0000
0000
0000
0000
0000
1010
0000
0000
0003
0100
0001
0100
0001
0000
0000
0000
0000
0200
0000
0000
0000
0000
0000
0000
0000
0000
0000
0000
0000
0011
0000
0000
0300
1000
0100
1000
0100
0000
0000
0000
0000
,  // measure 75
2000
0000
0000
0000
0000
0000
0000
0000
0000
0000
0000
0000
0011
0000
0000
3000
0001
0010
0001
0010
0000
0000
0000
0000
1000
0000
0000
0000
0000
0000
0000
0000
0000
0000
0000
0000
0010
0000
0000
0000
0100
0001
0100
0001
0000
0000
0000
0000
,  // measure 76
0001
0000
0000
0000
0000
0000
0000
0000
0000
0000
0000
0000
1000
0000
0000
0000
0100
1000
0100
1000
0000
0000
0000
0000
0001
0000
0000
0000
0000
0000
0000
0000
0000
0000
0000
0000
0100
0000
0000
0000
1000
0100
1000
0100
0000
0000
0000
0000
,  // measure 77
0010
0000
0000
0000
0000
0000
0000
0000
0000
0000
0000
0000
0100
0000
0000
0000
0001
0100
0001
0100
0000
0000
0000
0000
1000
0000
0000
0000
0000
0000
0000
0000
0000
0000
0000
0000
0010
0000
0000
0000
1000
0001
1000
0001
0000
0000
0000
0000
,  // measure 78
0100
0000
0000
0000
0000
0000
0000
0000
0000
0000
0000
0000
0001
0000
0000
0000
0100
0010
0100
0010
0000
0000
0000
0000
1000
0000
0000
0000
0000
0000
0000
0000
0000
0000
0000
0000
0100
0000
0000
0000
1000
0100
1000
0100
0000
0000
0000
0000
,  // measure 79
0001
0000
0000
0000
0000
0000
0000
0000
0000
0000
0000
0000
0010
0000
0000
0000
0100
0001
0100
0001
0000
0000
0000
0000
0010
0000
0000
0000
0000
0000
0000
0000
0000
0000
0000
0000
0001
0000
0000
0000
1000
0010
1000
0010
0000
0000
0000
0000
,  // measure 80
0001
0000
0000
0000
0000
0000
0000
0000
0000
0000
0000
0000
0100
0000
0000
0000
0001
0010
0001
0010
0000
0000
0000
0000
1000
0000
0000
0000
0000
0000
0000
0000
0000
0000
0000
0000
0010
0000
0000
0000
1000
0100
1000
0100
0000
0000
0000
0000
,  // measure 81
0010
0000
0000
0000
0000
0000
0000
0000
0000
0000
0000
0000
0100
0000
0000
0000
0001
1000
0001
1000
0000
0000
0000
0000
0001
0000
0000
0000
0000
0000
0010
0000
0000
0000
0000
0000
1000
0000
0000
0000
0000
0000
0010
0000
0000
0000
0000
0000
,  // measure 82
0001
0010
1000
0010
0001
0010
1000
0010
,  // measure 83
0001
0000
0010
0000
1000
0000
0010
0000
0001
0010
0001
0010
1000
0010
1000
0010
,  // measure 84
0001
1000
0100
0010
0001
0000
1000
0000
,  // measure 85
2020
0000
3030
0000
0001
0010
0001
0010
,  // measure 86
0100
0100
0100
0100
1000
0010
1000
0010
,  // measure 87
0100
0100
0100
0100
0001
1000
0010
0100
,  // measure 88
0001
0000
0000
0000
0011
0000
0000
0000
2200
0000
0000
0000
0011
3300
0000
0000
,  // measure 89
1000
0100
1000
0100
0001
0100
1000
1000
,  // measure 90
0001
0000
0010
0000
0001
0000
0010
0000
0100
1000
0100
1000
0100
1000
0100
1000
,  // measure 91
0100
0010
0001
1000
0010
0000
0001
1000
,  // measure 92
0100
0010
2200
3300
,  // measure 93
1000
0010
0100
0001
1000
0100
0010
0001
,  // measure 94
1000
0010
0001
0010
1000
0100
0001
0100
,  // measure 95
1000
0010
0100
0001
1000
0100
0010
0100
,  // measure 96
1000
0000
1001
0000
0002
0000
0000
0103
,  // measure 97
0001
1010
0001
1100
,  // measure 98
0010
0000
1001
0000
0200
0000
0000
1300
,  // measure 99
0010
1100
0100
0011
,  // measure 100
0100
0000
1001
0000
0002
0000
0000
0013
,  // measure 101
0001
1010
0010
0101
,  // measure 102
0001
1100
0100
0011
,  // measure 103
0010
1100
0011
0110
,  // measure 104
1100
0000
1001
0000
2000
0000
0000
3100
,  // measure 105
1000
0101
0100
1010
,  // measure 106
0100
0000
1001
0000
0020
0000
0000
0031
,  // measure 107
1000
0110
0100
0011
,  // measure 108
2002
3003
MMMM
0202
,  // measure 109
0303
1010
1001
1100
,  // measure 110
0011
1100
1002
0103
,  // measure 111
1010
0000
0000
0000
0001
1000
0001
1000
0000
0000
0001
1000
0001
1000
0000
0000
,  // measure 112
0001
0100
1000
0100
0001
0100
1000
0100
,  // measure 113
0010
0001
0010
1000
0010
0001
0010
1000
,  // measure 114
0001
0100
0001
0100
0001
0100
0001
0100
0001
0000
0010
0000
0100
0000
1000
0000
,  // measure 115
0001
1001
1100
0000
,  // measure 116
0010
0100
1000
0100
0010
1000
0010
0001
,  // measure 117
1000
0001
0100
1000
0100
0010
1000
0001
,  // measure 118
0100
0001
1000
0010
0100
0000
0001
0000
,  // measure 119
2200
0000
3311
0000
1000
0100
0010
0100
,  // measure 120
0001
0100
1000
0100
0010
0001
0100
0010
,  // measure 121
0001
0010
0100
0001
1000
0010
0100
0010
,  // measure 122
0001
0000
1000
0100
0010
0000
1010
0000
,  // measure 123
2200
0000
3300
0000
0001
1000
0100
0001
,  // measure 124
1000
0010
0100
1000
0010
0100
1000
0001
,  // measure 125
0010
0100
0001
1000
0010
0100
1000
0010
,  // measure 126
0001
0000
1000
0000
0100
0000
0010
0000
0001
0000
0000
0000
1001
0000
1000
0001
,  // measure 127
1000
1000
1000
1000
1000
1000
1000
1000
,  // measure 128
1000
1000
1000
1000
1000
1000
1000
1000
,  // measure 129
1000
1000
1000
1000
1000
0010
0100
0001
,  // measure 130
1001
0011
1100
MMMM
,  // measure 131
0010
0010
0010
0010
0010
0001
0100
0010
,  // measure 132
0100
0100
0100
0100
0100
0001
0100
0010
,  // measure 133
1000
1000
1000
1000
0100
0000
0011
0000
,  // measure 134
2200
0000
0000
0000
0011
3300
0000
0000
0001
0000
0100
0000
1000
0000
0001
0000
,  // measure 135
0010
1000
0001
0100
1000
0001
0010
1000
,  // measure 136
0001
0100
1000
0001
0010
0100
0001
1000
,  // measure 137
0100
0000
0010
0001
0100
0000
0011
0000
,  // measure 138
1100
0000
MMMM
0000
0010
1000
0100
1000
,  // measure 139
0010
0001
0010
1000
0100
0001
0010
0001
,  // measure 140
0100
1000
0100
0001
0100
1000
0010
1000
,  // measure 141
0001
0011
0110
1100
,  // measure 142
1001
0000
0000
0000
0000
0000
0000
0000
1000
0100
1000
0100
0001
0100
0001
0100
,  // measure 143
1000
0100
1000
0100
0001
0100
0001
0100
0010
0000
0001
0000
1000
0000
0001
0000
,  // measure 144
0100
0010
1000
0001
1000
0000
0000
0000
,  // measure 145
2002
0000
0000
0000
,  // measure 146
0000
0000
0000
0000
,  // measure 147
0000
0000
0000
0000
,  // measure 148
0000
0000
0000
0000
,  // measure 149
0000
0000
0000
0000
,  // measure 150
0000
0000
0000
0000
,  // measure 151
0000
0000
0000
0000
,  // measure 152
0000
0000
0000
0000
,  // measure 153
0000
0000
0000
0000
,  // measure 154
0000
0000
0000
0000
,  // measure 155
0000
0000
3003
0000
;

//---------------dance-single - ----------------
#NOTES:
     dance-single:
     :
     Medium:
     9:
     0.558590,0.895802,0.216029,0.158422,0.039605,543.000000,513.000000,30.000000,22.000000,26.000000,0.000000,0.558590,0.895802,0.216029,0.158422,0.039605,543.000000,513.000000,30.000000,22.000000,26.000000,0.000000:
// measure 0
0000
0000
0000
0000
,  // measure 1
0000
0000
0000
0000
,  // measure 2
0000
0000
0000
0000
,  // measure 3
0000
0000
0000
0000
,  // measure 4
0000
0000
0000
0000
,  // measure 5
0000
0000
0000
0000
,  // measure 6
0000
0000
0000
0000
,  // measure 7
0000
0000
0000
0000
,  // measure 8
0000
0000
0000
0000
,  // measure 9
0000
0000
0000
0000
,  // measure 10
0000
0000
0000
0000
,  // measure 11
1001
0100
0010
0100
,  // measure 12
1001
0000
0100
0000
0010
0000
0100
0001
,  // measure 13
0100
0001
0100
0001
0100
0000
0010
1000
,  // measure 14
0010
1000
0010
1000
0010
0000
1000
0100
,  // measure 15
1000
0100
1000
0001
0100
0010
0100
0000
,  // measure 16
0001
0000
1000
0000
0000
0000
0001
0010
,  // measure 17
0001
0010
0001
0000
1000
0000
0010
1000
,  // measure 18
0010
1000
0010
0000
0100
0000
0001
1000
,  // measure 19
0001
1000
0001
0000
0010
0000
0100
0000
,  // measure 20
1001
0100
0100
0010
,  // measure 21
0010
0001
0001
1000
,  // measure 22
1000
0000
0010
0100
0010
0000
0100
0000
,  // measure 23
0001
1000
0010
0110
,  // measure 24
0000
1000
0100
0001
,  // measure 25
0100
1000
0010
1000
,  // measure 26
0100
1000
0010
1000
,  // measure 27
0100
0010
1001
0010
,  // measure 28
0001
1000
0001
0010
,  // measure 29
0100
1000
0100
0010
,  // measure 30
0001
0100
0001
1000
,  // measure 31
0010
0110
0000
1000
,  // measure 32
0100
0001
0100
0010
,  // measure 33
0001
0010
0100
1000
,  // measure 34
0010
0100
0001
0100
,  // measure 35
1001
0100
0010
1000
,  // measure 36
0100
0010
0100
1000
,  // measure 37
0001
0010
0100
0010
,  // measure 38
0001
1000
0100
0110
,  // measure 39
0000
1000
0001
1000
,  // measure 40
0100
0001
1000
0001
,  // measure 41
0100
0010
0001
0100
,  // measure 42
0010
1000
1001
0010
,  // measure 43
0000
1000
0001
0000
1000
0000
0100
0000
,  // measure 44
0001
0100
1000
0010
,  // measure 45
0000
0100
0001
0000
0010
0000
0200
0000
,  // measure 46
0000
0300
1000
0001
,  // measure 47
0000
1000
0010
0000
0100
0000
0001
0000
,  // measure 48
1000
0100
0010
0001
,  // measure 49
0100
0010
1000
0010
,  // measure 50
0000
0110
0000
1000
,  // measure 51
0000
0100
1000
0000
0001
0000
0100
0000
,  // measure 52
0010
1000
0001
0010
,  // measure 53
0000
0100
1000
0000
0001
0000
0100
0000
,  // measure 54
0000
2002
0000
3003
,  // measure 55
0020
0030
0100
1000
,  // measure 56
0001
0100
0010
0100
,  // measure 57
0001
0010
0110
0001
,  // measure 58
0100
0001
0100
1000
,  // measure 59
0100
1000
0100
0001
,  // measure 60
0100
0010
1000
0100
,  // measure 61
0010
0001
0000
1000
,  // measure 62
0100
1000
0100
0001
,  // measure 63
0100
0001
0100
0010
,  // measure 64
0001
1000
0010
0100
,  // measure 65
1001
0100
0001
0100
,  // measure 66
0001
1000
0100
1000
,  // measure 67
0100
0010
1000
0010
,  // measure 68
0001
1000
0001
0100
,  // measure 69
0000
0010
1000
0001
,  // measure 70
1000
0100
0010
0100
,  // measure 71
1000
0001
1000
0010
,  // measure 72
0100
0000
0000
0000
0000
0000
0001
0000
0000
0000
0000
0000
MMMM
M000
M000
M000
M000
M000
M000
M000
MMMM
M000
M000
M000
,  // measure 73
M000
M000
M000
M000
MMMM
0000
0000
0000
0000
0000
0000
0000
0020
0000
0000
0000
0000
0000
0031
0000
0000
0000
0000
0000
,  // measure 74
1000
1001
0020
1030
,  // measure 75
0001
1001
2000
3100
,  // measure 76
0001
1001
0002
0103
,  // measure 77
1000
1001
2000
3010
,  // measure 78
0100
0110
0002
0013
,  // measure 79
0100
0110
2000
3100
,  // measure 80
0001
1001
0002
0013
,  // measure 81
1000
1001
0001
0100
,  // measure 82
0001
0100
0010
1000
,  // measure 83
0010
1000
0100
0001
,  // measure 84
0100
0010
0001
1000
,  // measure 85
1010
0000
0010
1000
,  // measure 86
0001
1000
0100
0010
,  // measure 87
0100
1000
0001
0010
,  // measure 88
0100
1000
0001
1001
,  // measure 89
0100
0001
0100
0010
,  // measure 90
1000
0100
1000
0001
,  // measure 91
0010
1000
0010
0001
,  // measure 92
1000
0001
0101
0000
,  // measure 93
0100
0001
1000
0100
,  // measure 94
0010
0100
1000
0010
,  // measure 95
0100
0001
1000
0100
,  // measure 96
0010
0000
0110
0000
0001
0000
0000
0100
,  // measure 97
0001
0010
0001
0100
,  // measure 98
0010
0000
1000
0000
0100
0000
0000
1000
,  // measure 99
0010
1000
0200
0000
,  // measure 100
0300
0000
1000
0000
0001
0000
0000
0010
,  // measure 101
0001
1000
0010
0100
,  // measure 102
0001
0010
0100
1000
,  // measure 103
0010
0100
0002
0023
,  // measure 104
0230
0000
2300
0000
3001
0000
0000
0100
,  // measure 105
0001
1000
0100
0010
,  // measure 106
0100
0000
1000
0000
0010
0000
0000
1000
,  // measure 107
0001
0010
0100
0000
,  // measure 108
2002
0000
3003
0200
,  // measure 109
0300
0010
1000
0100
,  // measure 110
0010
0100
1000
0001
,  // measure 111
0100
0000
0000
0000
,  // measure 112
0010
1000
0010
1000
,  // measure 113
0001
1000
0001
1000
,  // measure 114
0100
1000
0100
0010
,  // measure 115
0001
1000
0010
0000
,  // measure 116
1000
0001
1000
0001
,  // measure 117
0010
0001
0010
0001
,  // measure 118
0010
1000
0010
0001
,  // measure 119
0100
0110
0100
0001
,  // measure 120
1000
0001
0100
0001
,  // measure 121
1000
0001
0010
0100
,  // measure 122
1000
0010
0100
0001
,  // measure 123
0010
0000
0001
1000
,  // measure 124
0010
0100
0001
1000
,  // measure 125
0100
0010
0100
1000
,  // measure 126
0010
0100
0001
1001
,  // measure 127
0001
0010
0001
0010
,  // measure 128
1000
0010
1000
0010
,  // measure 129
0001
0010
0100
1000
,  // measure 130
0100
0010
0001
0000
,  // measure 131
1000
0100
0010
0001
,  // measure 132
0100
0010
0100
0001
,  // measure 133
1000
0010
0100
0001
,  // measure 134
1000
1001
1000
0100
,  // measure 135
1000
0100
0010
0001
,  // measure 136
0010
0001
1000
0100
,  // measure 137
1000
0100
0010
0001
,  // measure 138
0010
0000
0001
1000
,  // measure 139
0001
1000
0010
0100
,  // measure 140
0010
0100
0001
1000
,  // measure 141
0010
0100
0001
0000
,  // measure 142
0000
0000
0000
0000
,  // measure 143
0000
0000
1000
0001
,  // measure 144
0100
0010
0100
0000
,  // measure 145
2002
0000
0000
0000
,  // measure 146
0000
0000
0000
0000
,  // measure 147
0000
0000
0000
0000
,  // measure 148
0000
0000
0000
0000
,  // measure 149
0000
0000
0000
0000
,  // measure 150
0000
0000
0000
0000
,  // measure 151
0000
0000
0000
0000
,  // measure 152
0000
0000
0000
0000
,  // measure 153
0000
0000
0000
0000
,  // measure 154
0000
0000
0000
0000
,  // measure 155
0000
0000
3003
0000
;

//---------------dance-single - ----------------
#NOTES:
     dance-single:
     :
     Easy:
     6:
     0.373422,0.671851,0.252034,0.014402,0.000000,363.000000,328.000000,35.000000,2.000000,0.000000,0.000000,0.373422,0.671851,0.252034,0.014402,0.000000,363.000000,328.000000,35.000000,2.000000,0.000000,0.000000:
// measure 0
0000
0000
0000
0000
,  // measure 1
0000
0000
0000
0000
,  // measure 2
0000
0000
0000
0000
,  // measure 3
0000
0000
0000
0000
,  // measure 4
0000
0000
0000
0000
,  // measure 5
0000
0000
0000
0000
,  // measure 6
0000
0000
0000
0000
,  // measure 7
0000
0000
0000
0000
,  // measure 8
0000
0000
0000
0000
,  // measure 9
0000
0000
0000
0000
,  // measure 10
0000
0000
0000
0000
,  // measure 11
1001
0010
1000
0010
,  // measure 12
1001
0010
0001
0010
,  // measure 13
0010
0010
0010
0010
,  // measure 14
0010
0010
0010
0010
,  // measure 15
0010
0010
0001
0100
,  // measure 16
1000
0010
0000
1000
,  // measure 17
1000
1000
0100
0001
,  // measure 18
0001
0001
0010
1000
,  // measure 19
0100
0001
0010
0100
,  // measure 20
1001
0100
0010
0100
,  // measure 21
0010
0001
0010
0100
,  // measure 22
0000
1000
0100
1000
,  // measure 23
0001
0010
0100
0010
,  // measure 24
0000
0001
0000
1000
,  // measure 25
0000
0010
0000
0100
,  // measure 26
0000
0001
0000
0010
,  // measure 27
0000
0100
1001
0010
,  // measure 28
0000
0001
0000
1000
,  // measure 29
0000
0001
0000
0100
,  // measure 30
0000
0010
0000
0100
,  // measure 31
0000
0001
0000
1000
,  // measure 32
0000
0001
0000
0010
,  // measure 33
0000
0100
0000
1000
,  // measure 34
0000
0100
0000
0010
,  // measure 35
1001
0010
0000
0001
,  // measure 36
0000
0010
0000
0100
,  // measure 37
0000
1000
0000
0001
,  // measure 38
0000
0100
0000
0010
,  // measure 39
0000
1000
0000
0100
,  // measure 40
0000
0010
0000
0001
,  // measure 41
0000
1000
0000
0001
,  // measure 42
0000
0100
1001
0010
,  // measure 43
0000
1000
0000
0100
,  // measure 44
0000
0010
0000
0100
,  // measure 45
0000
1000
0000
0100
,  // measure 46
0000
0010
0000
0001
,  // measure 47
0000
1000
0000
0001
,  // measure 48
0000
0010
0000
0100
,  // measure 49
0000
1000
0000
0001
,  // measure 50
1000
0001
1000
0001
,  // measure 51
0000
0010
0000
0100
,  // measure 52
0000
1000
0000
0001
,  // measure 53
0000
1000
0000
0010
,  // measure 54
0000
0100
0000
0000
,  // measure 55
0001
0000
0010
0100
,  // measure 56
0000
1000
0000
1001
,  // measure 57
0100
0010
0000
1000
,  // measure 58
0000
0100
0000
0001
,  // measure 59
0000
0010
0000
0100
,  // measure 60
0000
1000
0000
0010
,  // measure 61
0000
0100
0000
0001
,  // measure 62
0000
0010
0000
0001
,  // measure 63
0000
0100
0000
0010
,  // measure 64
0000
1000
0000
0100
,  // measure 65
1001
0100
0000
0010
,  // measure 66
0000
0001
0000
1000
,  // measure 67
0000
0010
0000
0001
,  // measure 68
0000
0010
0000
0100
,  // measure 69
0000
1000
0000
0100
,  // measure 70
0000
0010
0000
0001
,  // measure 71
0000
1000
0000
0001
,  // measure 72
0000
0100
0000
0000
,  // measure 73
0000
0000
0000
1001
,  // measure 74
1000
0100
1000
1001
,  // measure 75
0001
0100
0001
1001
,  // measure 76
1000
0100
1000
1001
,  // measure 77
0001
0100
0001
1001
,  // measure 78
1000
0100
1000
1001
,  // measure 79
0001
0100
0001
0000
,  // measure 80
0010
0000
0100
0000
,  // measure 81
1000
0000
1001
0000
,  // measure 82
0110
0000
1001
0000
,  // measure 83
0110
0000
1001
0000
,  // measure 84
0110
0000
1000
0001
,  // measure 85
1000
0000
0101
0000
,  // measure 86
1100
0000
0101
0000
,  // measure 87
1100
0000
0101
0000
,  // measure 88
1100
0000
0010
0100
,  // measure 89
1001
0000
0110
0000
,  // measure 90
1001
0000
0110
0000
,  // measure 91
1001
0000
0110
0000
,  // measure 92
0100
0010
0100
0000
,  // measure 93
0001
0000
0010
0000
,  // measure 94
1000
0000
0010
0000
,  // measure 95
0001
1000
0010
0100
,  // measure 96
0001
0000
1000
0000
,  // measure 97
0100
0000
0001
0000
,  // measure 98
0100
0000
1000
0000
,  // measure 99
0100
0000
0010
0000
,  // measure 100
0000
0000
0001
0000
,  // measure 101
1000
0000
0010
0000
,  // measure 102
0100
0000
0001
0000
,  // measure 103
0010
0000
0100
1000
,  // measure 104
0100
1000
0001
0000
,  // measure 105
0010
0000
0100
0000
,  // measure 106
1000
0000
0010
0000
,  // measure 107
0100
0000
0001
0000
,  // measure 108
1000
0000
0000
0010
,  // measure 109
0000
0100
0001
0000
,  // measure 110
0010
0000
0100
0000
,  // measure 111
1001
0000
0000
0000
,  // measure 112
1000
0001
1000
0000
,  // measure 113
0010
0000
0100
0000
,  // measure 114
0001
1000
0001
0000
,  // measure 115
0010
0000
0100
0000
,  // measure 116
1000
0100
1000
0000
,  // measure 117
0001
0010
0001
0000
,  // measure 118
1000
0010
1000
0000
,  // measure 119
0001
1001
0010
0100
,  // measure 120
0010
0000
1000
0001
,  // measure 121
1000
0000
0100
0010
,  // measure 122
0100
0000
0001
0000
,  // measure 123
1000
0000
0100
1000
,  // measure 124
0100
0000
0010
0001
,  // measure 125
0010
0000
0100
1000
,  // measure 126
0001
1000
0100
0000
,  // measure 127
0001
0000
0010
0000
,  // measure 128
0100
0000
1000
0000
,  // measure 129
0001
0010
0001
0010
,  // measure 130
0001
0000
1000
0000
,  // measure 131
0010
0000
0100
0000
,  // measure 132
0001
0000
1000
0000
,  // measure 133
0010
1000
0010
1000
,  // measure 134
0010
0000
1000
0000
,  // measure 135
0100
0000
0010
0000
,  // measure 136
0001
0000
1000
0000
,  // measure 137
0100
0000
0010
0000
,  // measure 138
0001
0000
1000
0000
,  // measure 139
0001
0000
0100
0000
,  // measure 140
0010
0000
0100
0000
,  // measure 141
0001
0000
1000
0000
,  // measure 142
0000
0000
0000
0000
,  // measure 143
0000
0000
0010
0000
,  // measure 144
0100
0000
0010
0000
,  // measure 145
2002
0000
0000
0000
,  // measure 146
0000
0000
0000
0000
,  // measure 147
0000
0000
0000
0000
,  // measure 148
0000
0000
0000
0000
,  // measure 149
0000
0000
0000
0000
,  // measure 150
0000
0000
0000
0000
,  // measure 151
0000
0000
0000
0000
,  // measure 152
0000
0000
0000
0000
,  // measure 153
0000
0000
0000
0000
,  // measure 154
0000
0000
0000
0000
,  // measure 155
0000
0000
3003
0000
;

//---------------dance-single - ----------------
#NOTES:
     dance-single:
     :
     Beginner:
     4:
     0.245862,0.559876,0.144020,0.014402,0.000000,239.000000,219.000000,20.000000,2.000000,0.000000,0.000000,0.245862,0.559876,0.144020,0.014402,0.000000,239.000000,219.000000,20.000000,2.000000,0.000000,0.000000:
// measure 0
0000
0000
0000
0000
,  // measure 1
0000
0000
0000
0000
,  // measure 2
0000
0000
0000
0000
,  // measure 3
0000
0000
0000
0000
,  // measure 4
0000
0000
0000
0000
,  // measure 5
0000
0000
0000
0000
,  // measure 6
0000
0000
0000
0000
,  // measure 7
0000
0000
0000
0000
,  // measure 8
0000
0000
0000
0000
,  // measure 9
0000
0000
0000
0000
,  // measure 10
0000
0000
0000
0000
,  // measure 11
0000
0100
0100
0100
,  // measure 12
0000
0010
0010
0010
,  // measure 13
0000
1000
1000
1000
,  // measure 14
0000
0001
0001
0001
,  // measure 15
0000
0010
0000
0100
,  // measure 16
0000
1000
0000
0001
,  // measure 17
0000
1000
0000
0001
,  // measure 18
0000
1000
0000
0001
,  // measure 19
0000
0100
0000
0010
,  // measure 20
0000
0010
0000
1000
,  // measure 21
0000
0100
0000
1000
,  // measure 22
0000
0010
0000
0010
,  // measure 23
0000
0100
0000
0100
,  // measure 24
0000
0001
0000
0001
,  // measure 25
0000
1000
0000
1000
,  // measure 26
0000
0001
0000
0001
,  // measure 27
0000
0001
0000
0010
,  // measure 28
0000
0000
0000
0100
,  // measure 29
0000
0000
0000
1000
,  // measure 30
0000
0000
0000
0001
,  // measure 31
0000
0000
0000
0100
,  // measure 32
0000
0000
0000
0010
,  // measure 33
0000
0000
0000
1000
,  // measure 34
0000
1000
0000
1000
,  // measure 35
0000
0100
0000
0000
,  // measure 36
0000
0010
0000
0000
,  // measure 37
0000
0001
0000
0000
,  // measure 38
0000
1000
0000
0000
,  // measure 39
0000
0010
0000
0000
,  // measure 40
0000
0100
0000
0000
,  // measure 41
0000
0001
0000
0001
,  // measure 42
0000
0001
0000
0010
,  // measure 43
0000
0000
0000
0100
,  // measure 44
0000
0000
0000
0010
,  // measure 45
0000
0000
0000
0001
,  // measure 46
0000
0000
0000
1000
,  // measure 47
0000
0000
0000
0001
,  // measure 48
0000
0000
0000
0100
,  // measure 49
0000
0000
0000
0010
,  // measure 50
0000
0000
0000
1000
,  // measure 51
0000
0000
0000
0100
,  // measure 52
0000
0000
0000
0010
,  // measure 53
0000
0000
0000
0001
,  // measure 54
0000
0000
0000
1000
,  // measure 55
0000
0000
0000
0001
,  // measure 56
0000
0000
0000
0100
,  // measure 57
0000
0000
0000
0010
,  // measure 58
0000
0010
0000
0010
,  // measure 59
0000
0010
0000
0010
,  // measure 60
0000
0010
0000
0010
,  // measure 61
0000
0000
0000
0100
,  // measure 62
0000
0100
0000
0100
,  // measure 63
0000
0100
0000
0100
,  // measure 64
0000
0100
0000
0100
,  // measure 65
0000
0001
0000
0001
,  // measure 66
0000
0001
0000
0001
,  // measure 67
0000
0001
0000
0001
,  // measure 68
0000
0001
0000
0001
,  // measure 69
0000
1000
0000
1000
,  // measure 70
0000
1000
0000
1000
,  // measure 71
0000
1000
0000
1000
,  // measure 72
0000
1000
0000
0000
,  // measure 73
0000
0000
0000
0010
,  // measure 74
0010
0010
0000
0100
,  // measure 75
0100
0100
0000
0001
,  // measure 76
0001
0001
0000
1000
,  // measure 77
1000
1000
0000
0100
,  // measure 78
0100
0100
0000
0010
,  // measure 79
0010
0010
0000
0001
,  // measure 80
0000
1000
0000
0001
,  // measure 81
0000
0000
1000
0000
,  // measure 82
1000
0000
1000
0000
,  // measure 83
1000
0000
1000
0000
,  // measure 84
0100
0000
0001
0000
,  // measure 85
0100
0000
1000
0000
,  // measure 86
1000
0000
1000
0000
,  // measure 87
1000
0000
1000
0000
,  // measure 88
1000
0000
0001
0000
,  // measure 89
0100
0000
0100
0000
,  // measure 90
0100
0000
0100
0000
,  // measure 91
0100
0000
0001
0000
,  // measure 92
0010
0000
0001
0000
,  // measure 93
0100
0000
0100
0000
,  // measure 94
0100
0000
0100
0000
,  // measure 95
0100
0000
0100
0000
,  // measure 96
0100
0000
0010
0000
,  // measure 97
0000
0000
1000
0000
,  // measure 98
0000
0000
0100
0000
,  // measure 99
0000
0000
0010
0000
,  // measure 100
0000
0000
0001
0000
,  // measure 101
0000
0000
1000
0000
,  // measure 102
0000
0000
0010
0000
,  // measure 103
0000
0000
1001
0000
,  // measure 104
1001
0000
0100
0000
,  // measure 105
0000
0000
0010
0000
,  // measure 106
0000
0000
1000
0000
,  // measure 107
0000
0000
0001
0000
,  // measure 108
0000
0000
0010
0000
,  // measure 109
0010
0000
0100
0000
,  // measure 110
0100
0000
1000
0000
,  // measure 111
0000
0000
0000
0000
,  // measure 112
1001
0000
0000
0000
,  // measure 113
1001
0000
0000
0000
,  // measure 114
0110
0000
0000
0000
,  // measure 115
1001
0000
0000
0000
,  // measure 116
0010
0000
0000
0000
,  // measure 117
0100
0000
0000
0000
,  // measure 118
0001
0000
0000
0000
,  // measure 119
1000
0000
1001
0000
,  // measure 120
0000
0000
0110
0000
,  // measure 121
0000
0000
0001
0000
,  // measure 122
0000
0000
1000
0000
,  // measure 123
0000
0000
0010
0000
,  // measure 124
0000
0000
0100
0000
,  // measure 125
0000
0000
0001
0000
,  // measure 126
0010
0000
0100
0000
,  // measure 127
1001
0000
1001
0000
,  // measure 128
1001
0000
1001
0000
,  // measure 129
1001
0000
0100
0000
,  // measure 130
0010
0000
0100
0000
,  // measure 131
1001
0000
1001
0000
,  // measure 132
1001
0000
1001
0000
,  // measure 133
1001
0000
1001
0000
,  // measure 134
0010
0000
1000
0000
,  // measure 135
0100
0000
0001
0000
,  // measure 136
0010
0000
0100
0000
,  // measure 137
1000
0000
0001
0000
,  // measure 138
0010
0000
0001
0000
,  // measure 139
1000
0000
0010
0000
,  // measure 140
0100
0000
0001
0000
,  // measure 141
0010
0000
0100
0000
,  // measure 142
0000
0000
0000
0000
,  // measure 143
0000
0000
0010
0000
,  // measure 144
0010
0000
0010
0000
,  // measure 145
2002
0000
0000
0000
,  // measure 146
0000
0000
0000
0000
,  // measure 147
0000
0000
0000
0000
,  // measure 148
0000
0000
0000
0000
,  // measure 149
0000
0000
0000
0000
,  // measure 150
0000
0000
0000
0000
,  // measure 151
0000
0000
0000
0000
,  // measure 152
0000
0000
0000
0000
,  // measure 153
0000
0000
0000
0000
,  // measure 154
0000
0000
0000
0000
,  // measure 155
0000
0000
3003
0000
;
