#TITLE:Roscoe (Beyond The Wizard's Sleeve Remix);
#SUBTITLE:;
#ARTIST:Midlake;
#TITLETRANSLIT:;
#SUBTITLETRANSLIT:;
#ARTISTTRANSLIT:;
#GENRE:Late Night Tales;
#CREDIT:;
#BANNER:Roscoe (Beyond The Wizard's Sleeve Remix)-bn.jpg;
#BACKGROUND:Roscoe (Beyond The Wizard's Sleeve Remix)-bg.jpg;
#LYRICSPATH:;
#CDTITLE:;
#MUSIC:Roscoe (Beyond The Wizard's Sleeve Remix).mp3;
#OFFSET:-0.002000;
#SAMPLESTART:87.143959;
#SAMPLELENGTH:15.475769;
#LASTBEATHINT:320.999969;
#SELECTABLE:YES;
#DISPLAYBPM:122.000000;
#BPMS:0.000000=122.000000
,11.000000=122.500008
,17.000000=122.000000
,27.000000=122.199997
,33.000000=122.699989
,44.000000=122.799995
,52.000000=122.599998
,56.000000=121.039993
,67.000000=121.500008
,78.000000=121.000000
,94.000000=121.639999
,100.000000=120.959999
,117.000000=121.799995
,132.000000=121.500008
,139.000000=120.239998
,156.000000=121.099991
,176.000000=122.019997
,200.000000=122.440010
,208.000000=123.559998
,243.000000=123.100006
,252.000000=122.379997
,259.000000=122.100006
,263.000000=120.439995
,275.000000=121.000000
,277.000000=121.500008
,291.000000=123.199997
,295.000000=122.360001
,299.000000=121.940002
,302.000000=115.000000
,303.000000=109.000000
,304.000000=105.000000
,306.000000=98.180000
;
#STOPS:
;
#BGCHANGES:;
#KEYSOUNDS:;
#ATTACKS:;

//---------------dance-single - ----------------
#NOTES:
     dance-single:
     :
     Hard:
     8:
     0.398309,0.529138,0.116429,0.208346,0.088853,455.000000,436.000000,19.000000,34.000000,0.000000,0.000000,0.398309,0.529138,0.116429,0.208346,0.088853,455.000000,436.000000,19.000000,34.000000,0.000000,0.000000:
0000
0000
0000
0000
,
0000
0000
0000
0000
,
0000
0000
0000
0000
,
0000
0000
0000
0000
,
0000
0000
0000
0000
,
0000
0000
0000
0000
,
0000
0000
0000
0000
,
0000
0000
0000
0000
,
0000
0000
0000
0000
,
0000
0000
0001
1000
0100
0020
0000
0000
,
0000
0000
0000
0032
0000
0103
0010
1000
,
0100
0010
0100
2000
0000
0000
0000
0000
,
3000
0001
0010
0100
1000
0000
0001
0000
,
0200
0000
0000
0000
0000
0000
0000
0000
0300
0000
0010
1000
0010
0000
0100
0000
,
0001
0200
0000
0000
0301
0010
0100
2000
,
0000
0000
0000
0002
0000
0000
0000
3003
,
0000
0000
0000
0000
0000
1000
0100
0010
,
0000
0002
0000
0000
0003
0100
0010
1000
,
0000
0200
0000
0000
0000
0310
0100
1000
,
0000
0002
0000
0000
0000
0103
0001
1000
,
0000
0020
0000
0000
0000
1030
0000
0100
,
0000
2002
0000
0000
3003
0000
0100
0010
,
0000
0002
0000
0000
1003
0010
0100
0001
,
0000
0202
0000
0000
0303
0000
0000
0000
,
0000
0000
0000
0000
0000
0000
0000
0000
0000
0000
0010
0100
0010
0000
0001
1000
,
0002
0000
0100
0000
1000
0000
0013
0200
,
1000
0000
0001
0000
0010
0000
1300
0002
,
0100
1000
0010
1000
,
0103
0000
0010
1000
0001
0100
0010
1000
,
0100
0000
0010
0001
0010
0100
1000
0001
,
0100
0000
0001
0010
1000
0010
0001
0100
,
0101
0000
1100
0000
0010
0100
0001
0000
,
0010
0100
1000
0010
0100
0001
0100
0020
,
1000
0100
0001
0100
,
1030
0100
0001
0100
1000
0100
0001
0200
,
1000
0010
0001
1000
,
0301
0010
1000
0010
0001
0010
1000
0020
,
0001
0100
1000
0001
,
0130
1000
0010
1000
0100
0001
0100
1000
,
0010
0100
0001
0000
0010
0100
1000
0000
,
0001
0010
0100
0000
0010
0001
1000
0100
,
0020
0000
0031
1000
0010
0100
0010
1000
,
0002
0000
0103
0001
1000
0001
0100
0010
,
1000
0100
1000
0000
0001
0100
0001
0000
,
0010
0000
0100
0000
0100
0000
1000
0000
1000
0000
0001
0100
0001
0000
0100
0000
,
1001
0100
0001
0100
1000
0100
0001
0100
,
0010
0000
1000
0000
0001
0100
0001
0000
0100
0000
0010
1000
0010
0000
0100
0001
,
0100
0010
1000
0100
0010
0001
1000
0010
,
0100
0000
0001
0000
0001
1000
0001
1000
0001
0000
0010
0100
0010
0100
0010
0100
,
0010
0001
0100
0001
1000
0010
0100
0001
,
1000
0000
0100
0000
1000
0010
1000
0000
0001
0100
0001
0100
0001
0100
0001
0100
,
0001
0000
0010
0100
1000
0001
1000
0010
,
0100
0000
0001
0000
1000
0001
1000
0000
0010
0000
0100
0010
0100
0010
0100
0000
,
0201
0000
1000
0000
0001
0001
0310
0000
,
0100
1100
0100
0101
0001
1001
0001
0010
,
0021
0000
1000
0000
0001
0001
0130
0000
,
0001
0100
1000
0100
0010
1000
0010
0100
,
0001
0000
0010
0100
1000
1000
0010
0100
,
0001
0001
0100
0010
1000
1000
0001
0010
,
0001
0000
1000
0100
0010
0010
0100
1000
,
0001
0001
0100
0010
1000
0001
0100
0020
,
1000
0100
0001
0100
,
1030
0100
0001
0100
1000
0100
0001
0200
,
1000
0010
0001
0010
,
1300
0010
0001
0010
1000
0010
0001
0020
,
0100
0001
0100
1030
,
0001
0100
0001
0010
1000
0010
0001
0200
,
0010
0000
1000
0000
0001
0000
0310
0100
,
0010
0000
1010
0000
1000
0000
1001
0000
0001
1000
0001
1000
0001
1000
0001
1000
,
0002
0000
0010
1000
1000
0000
0010
1000
,
1003
1001
0100
0010
1001
0100
0010
1001
,
2000
0000
0100
0001
0001
0000
0100
0001
,
3001
0000
0101
0000
0100
0010
0100
0000
0110
0000
0010
1000
0010
1000
0010
0100
,
0010
0000
1000
0001
0100
0000
1000
0001
,
0010
0000
0000
0000
1000
0000
0001
0000
0100
0000
0010
1000
0001
0000
0100
0000
,
0010
0000
1000
0001
0100
0010
0100
0010
,
0101
0000
0010
0100
1000
0001
0100
0010
,
2002
0000
0000
0000
,
0000
0000
3003
0000
;

//---------------dance-single - ----------------
#NOTES:
     dance-single:
     :
     Medium:
     6:
     0.239861,0.312672,0.104173,0.147068,0.000000,274.000000,257.000000,17.000000,24.000000,0.000000,0.000000,0.239861,0.312672,0.104173,0.147068,0.000000,274.000000,257.000000,17.000000,24.000000,0.000000,0.000000:
0000
0000
0000
0000
,
0000
0000
0000
0000
,
0000
0000
0000
0000
,
0000
0000
0000
0000
,
0000
0000
0000
0000
,
0000
0000
0000
0000
,
0000
0000
0000
0000
,
0000
0000
0000
0000
,
0000
0000
0000
0000
,
0001
0010
1000
1000
,
0100
0010
0001
0001
,
1000
0001
2000
0000
0000
0000
3000
0000
,
0010
0100
0001
1000
,
0200
0000
0300
0010
,
0001
0000
0100
0000
0010
1000
0010
0000
,
0100
0001
0020
0000
,
0000
0030
0000
0100
,
1000
0002
0000
0103
,
0010
0200
0000
0310
,
1000
0000
0100
0000
0010
0001
0010
0000
,
0001
0100
0001
0000
0100
0000
0010
0000
,
1000
0001
1000
0000
0010
0000
0100
0000
,
0001
0010
0100
1000
,
0020
0030
0200
0300
,
0002
0003
2000
3000
,
1001
0100
0010
1000
,
0001
0010
0001
0000
1000
0100
1000
0000
,
0010
0100
0001
1000
,
0100
0000
0010
0001
0010
0000
0200
0000
,
0300
1000
0001
0100
,
0010
0000
1000
0000
0001
0000
0010
0100
,
0010
0100
1000
0001
,
0100
0000
0001
0000
1000
0000
0000
0020
,
0000
1000
0000
1000
,
0000
0130
0000
0001
0000
0010
0000
0200
,
0000
1000
0000
1000
,
0000
0310
0000
0001
0000
1000
0000
0020
,
0000
0000
0100
0000
0000
0000
0100
0030
,
0000
0001
0000
0010
0000
0100
0000
1000
,
0000
0002
0000
0000
0000
0000
0103
0000
,
0000
0000
0010
0000
1000
0001
1000
0000
,
0010
0100
0001
0010
,
0100
0000
1000
0000
0001
0100
0001
0000
,
0010
0100
1000
0010
,
0000
0110
0000
0110
0000
1001
0000
2002
,
0000
0000
0000
3003
,
0000
0010
0000
1000
0000
0100
0000
0001
,
0001
0010
0100
1000
,
0000
0001
0000
0010
0000
0100
0000
1000
,
1000
0010
0001
0100
,
0000
0010
0000
1000
0000
0100
0000
0001
,
0001
0010
0100
1000
,
0000
0001
0000
0010
0000
1000
0000
0100
,
0100
0010
0001
1000
,
0000
0110
0000
1001
0000
0110
0000
0001
,
0001
0010
0100
1000
,
0000
0001
0010
0001
0000
0100
0000
0100
,
0000
0110
0000
1001
,
0000
0110
1000
1001
,
0010
0110
0001
1001
,
0100
0000
0010
0000
1000
0000
0000
0200
,
0000
0010
1000
0010
,
0300
0001
0000
1000
0000
0010
0000
0200
,
0000
0010
0001
0010
,
0300
0010
0000
1000
0000
0001
0000
0200
,
0000
1000
0010
0001
,
0300
0010
0000
1000
0000
0001
0000
0100
,
0000
0020
0000
0000
0000
0000
1030
0100
,
1000
0000
0100
0000
0010
0001
0100
0001
,
0020
0100
0100
0130
,
1000
0000
0010
0000
0100
0001
1000
0010
,
0200
0001
0001
0301
,
0010
0000
0100
0000
1000
0001
0100
0010
,
1000
0100
0001
0100
,
1000
0000
0001
0000
0100
0010
0100
0000
,
0010
1000
0100
0110
,
1001
0100
0010
1000
,
2002
0000
0000
0000
,
0000
0000
3003
0000
;

//---------------dance-single - ----------------
#NOTES:
     dance-single:
     :
     Easy:
     3:
     0.177707,0.217155,0.006128,0.330903,0.000000,203.000000,202.000000,1.000000,54.000000,0.000000,0.000000,0.177707,0.217155,0.006128,0.330903,0.000000,203.000000,202.000000,1.000000,54.000000,0.000000,0.000000:
0000
0000
0000
0000
,
0000
0000
0000
0000
,
0000
0000
0000
0000
,
0000
0000
0000
0000
,
0000
0000
0000
0000
,
0000
0000
0000
0000
,
0000
0000
0000
0000
,
0000
0000
0000
0000
,
0000
0000
0000
0000
,
0001
0010
0200
0300
,
2000
3000
0001
1000
,
0020
0030
0200
0300
,
0001
0010
0100
1000
,
0020
0030
0200
0300
,
0002
0003
1000
0001
,
2000
3000
0200
0300
,
0020
0030
0001
1000
,
0002
0003
0020
0030
,
0200
0300
1000
0100
,
0020
0030
0200
0300
,
0020
0030
0001
0100
,
0020
0030
2000
3000
,
0020
0030
0100
0001
,
0020
0030
0200
0300
,
0020
0030
0200
0300
,
2000
0000
0001
0000
,
0100
0100
0001
0010
,
3002
0000
0010
0000
,
1003
0100
0010
0001
,
2000
3000
0010
0100
,
0002
0003
1000
0010
,
0100
0001
0000
0000
,
0000
0000
0000
0000
,
0010
1000
0100
0100
,
0010
0100
0010
0100
,
0010
0001
0100
0100
,
0010
0100
0010
0100
,
0010
1000
0001
0001
,
0010
0001
1000
1000
,
0001
0100
0000
0010
,
0000
1000
0100
0010
,
0001
0000
1000
0001
,
0100
0000
0010
1000
,
0010
0000
0100
0000
,
0001
0010
0100
1000
,
0020
0000
0000
0000
,
0130
0001
1000
0001
,
0200
0000
0320
0000
,
1030
0100
0010
0001
,
2000
0000
3200
0000
,
0310
0001
1000
0010
,
0200
0000
0001
0000
,
0301
0010
1000
0010
,
0002
0000
2003
0000
,
3010
0100
0001
0010
,
0200
0000
2300
0000
,
3001
0010
0100
1000
,
0020
0000
0230
0000
,
0302
0000
2003
0000
,
3100
0010
0001
1000
,
0010
0100
0001
1000
,
0200
1000
1300
0000
,
1000
0001
0100
0001
,
0020
0001
0031
0000
,
0001
1000
0010
0100
,
0020
1000
1030
0000
,
1000
0100
0010
0001
,
0200
0010
0310
0000
,
1000
0100
0010
0001
,
0200
0000
0010
0000
,
0310
1000
0100
0010
,
0002
0000
1000
0000
,
0013
0001
0100
1000
,
0200
0000
0320
0000
,
0032
0000
1003
0001
,
0200
0000
0310
1000
,
0200
0300
0010
0100
,
2002
0000
0000
0000
,
0000
0000
0000
3003
;

//---------------dance-single - ----------------
#NOTES:
     dance-single:
     :
     Beginner:
     1:
     0.129560,0.168362,0.000000,0.030639,0.000000,148.000000,148.000000,0.000000,5.000000,0.000000,0.000000,0.129560,0.168362,0.000000,0.030639,0.000000,148.000000,148.000000,0.000000,5.000000,0.000000,0.000000:
// measure 0
0000
0000
0000
0000
,  // measure 1
0000
0000
0000
0000
,  // measure 2
0000
0000
0000
0000
,  // measure 3
0000
0000
0000
0000
,  // measure 4
0000
0000
0000
0000
,  // measure 5
0000
0000
0000
0000
,  // measure 6
0000
0000
0000
0000
,  // measure 7
0000
0000
0000
0000
,  // measure 8
0000
0000
0000
0000
,  // measure 9
0010
0000
1000
0000
,  // measure 10
0100
0000
0010
0010
,  // measure 11
0010
0000
0001
0000
,  // measure 12
0100
0100
0100
0000
,  // measure 13
0010
0000
1000
0000
,  // measure 14
0100
0000
0010
0000
,  // measure 15
0001
0000
1000
0000
,  // measure 16
0010
0000
0100
0000
,  // measure 17
0001
0000
0010
0000
,  // measure 18
0100
0000
1000
1000
,  // measure 19
1000
0000
0010
0000
,  // measure 20
0100
0000
0001
0001
,  // measure 21
0001
0000
0010
0000
,  // measure 22
1000
0000
0010
0010
,  // measure 23
0010
0000
0100
0000
,  // measure 24
0010
0000
0100
0000
,  // measure 25
1000
0000
1000
0000
,  // measure 26
0100
0000
0100
0000
,  // measure 27
0001
0000
0001
0000
,  // measure 28
0001
0000
0010
0000
,  // measure 29
1000
0000
1000
0000
,  // measure 30
0010
0000
0010
0000
,  // measure 31
0100
0100
0000
0000
,  // measure 32
0001
0000
0010
0000
,  // measure 33
0100
0000
0100
0000
,  // measure 34
1000
1000
1000
1000
,  // measure 35
1000
0000
1000
0000
,  // measure 36
0010
0010
0010
0010
,  // measure 37
0010
0000
0010
0000
,  // measure 38
0100
0100
0100
0100
,  // measure 39
0100
0000
0001
0000
,  // measure 40
0010
0000
0100
0000
,  // measure 41
1000
0000
1000
0000
,  // measure 42
0001
0000
0010
0000
,  // measure 43
0001
0000
0100
0000
,  // measure 44
0010
0000
1000
0000
,  // measure 45
0002
0000
0003
0000
,  // measure 46
0010
0000
0100
0000
,  // measure 47
2000
0000
3000
0000
,  // measure 48
0100
0000
0010
0000
,  // measure 49
0002
0000
0003
0000
,  // measure 50
1000
0000
0010
0000
,  // measure 51
0200
0000
0300
0000
,  // measure 52
0001
0000
0100
0000
,  // measure 53
0010
0000
1000
0000
,  // measure 54
0100
0000
0100
0000
,  // measure 55
0010
0000
0001
0000
,  // measure 56
1000
0000
0010
0000
,  // measure 57
0100
0000
0100
0000
,  // measure 58
0100
0000
0001
0000
,  // measure 59
0010
0000
0100
0000
,  // measure 60
1000
1000
1000
1000
,  // measure 61
1000
0000
0010
0000
,  // measure 62
0100
0000
0001
0000
,  // measure 63
0010
0000
0100
0000
,  // measure 64
1000
0000
0001
0000
,  // measure 65
0100
0000
0010
0000
,  // measure 66
1000
0000
0001
0000
,  // measure 67
0010
0000
0100
0000
,  // measure 68
1000
0000
0001
0000
,  // measure 69
0100
0000
0001
0000
,  // measure 70
1000
0000
0001
0000
,  // measure 71
0010
0000
0001
0000
,  // measure 72
1000
0000
0001
0000
,  // measure 73
1000
0000
0100
0000
,  // measure 74
0001
0000
0100
0000
,  // measure 75
1000
0000
1000
1000
,  // measure 76
1000
0000
0001
0001
,  // measure 77
0002
0000
0000
0000
,  // measure 78
0000
0000
0003
0000
;
