#TITLE:Rocket;
#SUBTITLE:;
#ARTIST:Goldfrapp;
#TITLETRANSLIT:;
#SUBTITLETRANSLIT:;
#ARTISTTRANSLIT:;
#GENRE:Head First;
#CREDIT:;
#BANNER:Rocket-bn.jpg;
#BACKGROUND:Rocket-bg.jpg;
#LYRICSPATH:;
#CDTITLE:;
#MUSIC:Rocket.mp3;
#OFFSET:-0.022000;
#SAMPLESTART:53.037804;
#SAMPLELENGTH:14.637497;
#LASTBEATHINT:314.000000;
#SELECTABLE:YES;
#BPMS:0.000000=131.169998
;
#STOPS:
;
#BGCHANGES:;
#KEYSOUNDS:;
#ATTACKS:;

//---------------dance-single - ----------------
#NOTES:
     dance-single:
     :
     Hard:
     7:
     0.409545,0.466701,0.418218,0.053964,0.000000,425.000000,363.000000,62.000000,8.000000,0.000000,0.000000,0.409545,0.466701,0.418218,0.053964,0.000000,425.000000,363.000000,62.000000,8.000000,0.000000,0.000000:
0000
0000
0000
0000
,
0000
0000
0000
0000
,
0000
0000
0000
0000
,
0000
0000
0000
0000
,
0000
0000
0000
0000
,
0001
0000
1000
0100
0000
0100
0010
0001
,
1000
0000
1000
0010
0000
0010
0100
0001
,
1000
0000
0010
0100
0000
0001
1000
0001
,
0000
0010
0100
0100
1000
0000
0001
0000
,
0100
0000
0010
1000
0000
1000
0010
0100
,
0001
0000
0001
0010
0000
0100
1000
0001
,
0100
0000
0010
1000
0000
0001
0010
0001
,
0000
1000
0100
0100
0010
0001
0001
1000
,
0001
0000
0100
0001
0000
0001
1000
0100
,
1000
0000
1000
0010
0000
0010
1000
0001
,
0100
0000
0100
0010
0000
0100
0001
0100
,
0000
0001
1000
1000
0010
0100
0100
0000
,
0001
0000
0010
0100
0000
0100
1000
0001
,
0100
0000
0100
0010
0000
1000
0001
1000
,
0010
0000
0100
0001
0000
0010
0100
1000
,
0001
0100
0100
0010
1000
0001
1000
0200
,
0000
0000
0310
0001
1000
0000
0101
0000
,
0001
1000
0001
0000
0010
0001
1000
0200
,
0000
0000
1300
0001
1000
0000
1010
0000
,
0001
0100
0010
0000
1000
0100
1000
0002
,
0000
0000
1003
0001
0010
0000
1001
0000
,
0100
1000
0001
0100
0010
0000
1000
0000
,
0001
0010
0001
1000
0010
0000
0100
0000
,
0001
0100
1000
0100
0001
0000
1000
0000
,
1100
0000
1001
0000
0011
0000
0000
1000
,
0000
0001
0000
1000
0010
0000
0100
0000
,
0101
0000
1001
0000
1010
0000
0000
0001
,
0000
1000
0000
0001
0100
0000
0010
0000
,
0101
0110
1010
0000
,
0000
0001
0010
1000
0010
0001
0100
0000
,
0010
1000
0010
0000
0001
0100
0001
0000
,
1000
0100
1000
0000
0010
0001
0010
0000
,
1100
0000
0011
0000
1001
0000
0000
0010
,
0000
1000
0000
0001
0100
0000
0010
0000
,
0101
0000
1100
0000
1001
0000
0000
0001
,
0000
1000
0000
0001
0100
0000
0010
0000
,
1001
0110
0101
0000
,
0000
1000
0010
0001
0010
1000
0100
0000
,
0010
0001
0010
0000
1000
0010
1000
0000
,
0001
0100
0001
0000
0100
1000
0100
0000
,
0001
0100
0001
0010
,
1000
0010
0001
1000
,
0100
0001
0100
1000
,
0010
0100
0001
1000
,
0010
0001
0010
1000
,
0001
0100
0010
1000
,
0001
0010
1000
0010
,
0001
0000
1000
0000
0100
0010
0001
1000
,
1010
0000
0101
0000
1010
0000
0000
0101
,
0000
1001
0000
1100
1001
0000
1010
0000
,
0101
0000
1001
0000
0011
0000
0000
1100
,
0000
1001
0000
0101
1001
0000
0011
0000
,
1100
0110
0011
0000
,
0000
1001
0100
0010
1000
0001
0100
0000
,
0010
0000
1000
0001
0000
1000
0100
0000
,
1000
0001
0000
1000
0010
0000
0101
0000
,
1001
0000
0011
0000
0101
0000
0000
1001
,
0000
0101
0000
1010
1001
0000
1010
0000
,
0101
0000
0110
0000
1010
0000
0000
1001
,
0000
0110
0000
1001
0101
0000
1001
0000
,
1100
0101
1001
0000
,
0000
1001
0010
1000
0001
0010
0100
0000
,
0010
0001
0010
0100
0000
0100
1000
0001
,
1000
0100
0000
0010
0001
0100
0010
0000
,
1000
0100
1000
0001
0000
0100
0001
1000
,
0001
0100
0000
0010
1000
0010
0100
0001
,
1000
0010
0100
0001
0000
0001
1000
0001
,
0100
0001
0000
1000
0010
1000
0001
0000
,
0020
0000
0230
0000
,
2300
0000
3002
0000
,
0203
0000
0310
1000
,
0001
0000
0100
0000
0010
1000
0001
0100
;

//---------------dance-single - ----------------
#NOTES:
     dance-single:
     :
     Medium:
     5:
     0.246691,0.285670,0.000000,0.202364,0.000000,256.000000,256.000000,0.000000,30.000000,0.000000,0.000000,0.246691,0.285670,0.000000,0.202364,0.000000,256.000000,256.000000,0.000000,30.000000,0.000000,0.000000:
0000
0000
0000
0000
,
0000
0000
0000
0000
,
0000
0000
0000
0000
,
0000
0000
0000
0000
,
0000
0000
0000
0000
,
2000
0000
0000
0020
0000
0000
3030
0000
,
0002
0000
0000
0020
0000
0000
0033
0000
,
2000
0000
0000
0002
0000
3003
0100
0010
,
0000
1000
0100
0001
,
0020
0000
0000
0200
0000
0000
0330
0000
,
2000
0000
0000
0002
0000
0000
3003
0000
,
0020
0000
0000
0200
0000
0330
1000
0001
,
0000
0000
0000
0000
0000
0100
0010
0000
,
1000
0000
0001
0010
0000
0000
0100
0000
,
1000
0000
0001
0100
0000
0000
0010
0000
,
1000
0000
0001
0010
0000
0000
0100
1000
,
0000
0001
0100
1000
,
0010
0000
0100
0001
0000
0000
0000
0000
,
0010
0000
0100
1000
0000
0000
0001
0000
,
0010
0000
0100
1000
0000
0000
0001
1000
,
0000
0000
0000
0000
0000
0010
1000
0010
,
0100
0001
0010
0000
,
0000
0000
0100
0000
1000
0000
0001
1000
,
0001
0000
0010
0100
1000
0000
0100
0000
,
0000
0000
0010
0000
0001
1000
0001
0000
,
0100
1000
0100
0000
,
0001
0100
0001
0000
0010
0000
0000
0000
,
0100
1000
0001
0000
0010
0000
0000
0000
,
0100
0010
0100
0000
1000
0000
0000
0000
,
0002
0000
0100
0000
0013
0000
0000
0001
,
0000
1000
0000
0001
0100
0000
0010
0000
,
2000
0000
0100
0000
3010
0000
0000
1000
,
0000
0100
0000
0010
0001
0000
0010
0000
,
0200
1000
0310
0000
,
0000
1000
0001
0000
0100
0010
0100
0000
,
0001
0000
0000
0010
0000
0000
1000
0000
,
0000
0100
0000
0000
0001
0000
1000
0000
,
0002
0000
0010
0000
1003
0000
0000
0010
,
0000
0100
0000
0001
1000
0000
0001
0000
,
0020
0000
0001
0000
0130
0000
0000
1000
,
0000
0001
0000
1000
0100
0000
0010
0000
,
0002
0100
1003
0000
,
0000
0010
1000
0000
0001
0100
0001
0000
,
0010
0000
0000
0100
0000
0000
1000
0000
,
0000
0001
0000
0000
0010
0000
0100
0000
,
1000
0100
0001
0100
,
1000
0010
0001
0010
,
1000
0100
0001
0100
,
0010
0100
0001
1000
,
0010
0001
0010
1000
,
0010
0001
0100
1000
,
0100
0001
0010
1000
,
0010
0000
0001
0000
1000
0001
0100
0000
,
0002
0000
1000
0000
0013
0000
0000
0100
,
0000
1000
0000
0001
0100
0000
0010
0000
,
2000
0000
0001
0000
3100
0000
0000
0010
,
0000
0001
0000
1000
0010
0000
0100
0000
,
0002
0010
0103
0000
,
0000
1000
0001
1000
0001
0100
0001
0000
,
0010
0000
0000
0001
0000
0000
0100
0000
,
0000
1000
0000
0000
0001
0000
0000
0000
,
0020
0000
0001
0000
1030
0000
0000
0100
,
0000
1000
0000
0001
0100
0000
0010
0000
,
0200
0000
1000
0000
0301
0000
0000
0010
,
0000
1000
0000
0001
0100
0000
0010
0000
,
0200
1000
0301
0000
,
0000
0010
1000
0001
1000
0001
0100
0000
,
0001
0000
0000
1000
0000
0000
0100
0000
,
0000
0010
0000
0000
0001
0000
1000
0000
,
0001
0000
0000
0010
0000
0000
1000
0000
,
0000
0001
0000
0000
0010
0000
0100
0000
,
1000
0000
0000
0100
0000
0000
0001
0000
,
0000
0010
0000
0000
1000
0000
0000
0000
,
0002
0000
0203
0000
,
0320
0000
2030
0000
,
3002
0000
1000
1000
,
2000
0000
0000
0000
,
3003
0000
0000
0000
;

//---------------dance-single - ----------------
#NOTES:
     dance-single:
     :
     Easy:
     3:
     0.223564,0.285670,0.242836,0.202364,0.000000,232.000000,196.000000,36.000000,30.000000,0.000000,0.000000,0.223564,0.285670,0.242836,0.202364,0.000000,232.000000,196.000000,36.000000,30.000000,0.000000,0.000000:
// measure 0
0000
0000
0000
0000
,  // measure 1
0000
0000
0000
0000
,  // measure 2
0000
0000
0000
0000
,  // measure 3
0000
0000
0000
0000
,  // measure 4
0000
0000
0000
0000
,  // measure 5
1000
0100
1000
0000
,  // measure 6
0100
0010
0100
0000
,  // measure 7
0010
0001
0010
0000
,  // measure 8
0001
0000
0100
0000
,  // measure 9
0001
1000
0001
0000
,  // measure 10
1000
0100
1000
0000
,  // measure 11
0100
0010
0100
0000
,  // measure 12
0010
0000
0001
0000
,  // measure 13
1000
0001
1000
0000
,  // measure 14
0010
1000
0010
0000
,  // measure 15
0100
0001
0100
0000
,  // measure 16
0010
0000
1000
0000
,  // measure 17
0100
0010
0100
0000
,  // measure 18
0010
0001
0010
0000
,  // measure 19
0100
1000
0100
0000
,  // measure 20
1000
0000
0001
0000
,  // measure 21
0100
0100
0020
0030
,  // measure 22
2000
3000
0002
0003
,  // measure 23
0010
0010
0200
0300
,  // measure 24
2000
3000
0002
0003
,  // measure 25
0100
0100
0020
0030
,  // measure 26
2000
3000
0002
0003
,  // measure 27
0020
0030
0200
0300
,  // measure 28
2000
3000
0002
0003
,  // measure 29
1001
1001
1001
0000
,  // measure 30
0100
1000
0100
0000
,  // measure 31
1001
1001
1001
0000
,  // measure 32
0100
0001
0100
0000
,  // measure 33
1001
1001
1001
0000
,  // measure 34
0000
0010
0100
0001
,  // measure 35
0000
0010
0100
0000
,  // measure 36
0000
1000
0001
0000
,  // measure 37
0110
0110
0110
0000
,  // measure 38
0010
0001
0100
0000
,  // measure 39
1001
1001
1001
0000
,  // measure 40
0010
1000
0100
0000
,  // measure 41
0110
0110
0110
0000
,  // measure 42
0000
0001
0010
0100
,  // measure 43
0000
1000
0001
0000
,  // measure 44
0000
0100
0010
0000
,  // measure 45
1000
0100
1000
0000
,  // measure 46
0200
0300
0020
0030
,  // measure 47
0001
0100
0010
0000
,  // measure 48
2000
3000
0002
0003
,  // measure 49
0010
0100
2000
3000
,  // measure 50
0002
0003
2000
3000
,  // measure 51
0010
0100
0002
0003
,  // measure 52
2000
3000
0002
0003
,  // measure 53
1001
1001
1001
0000
,  // measure 54
0010
0001
0100
0000
,  // measure 55
1001
1001
1001
0000
,  // measure 56
0010
1000
0100
0000
,  // measure 57
0110
0110
0110
0000
,  // measure 58
1000
0100
0001
0100
,  // measure 59
1000
1000
0001
0001
,  // measure 60
1000
0001
1000
0000
,  // measure 61
0011
0011
1010
0000
,  // measure 62
0001
1000
0001
0000
,  // measure 63
1100
1100
0101
0000
,  // measure 64
1000
0001
1000
0000
,  // measure 65
0101
0101
1100
0000
,  // measure 66
0001
1000
0001
0000
,  // measure 67
0010
0000
0100
0000
,  // measure 68
1000
0000
0100
0000
,  // measure 69
0010
0001
1000
0000
,  // measure 70
0010
0100
0001
0000
,  // measure 71
0010
0100
0010
0000
,  // measure 72
0100
1000
0001
0000
,  // measure 73
2000
3000
0020
0030
,  // measure 74
0200
0300
0002
0003
,  // measure 75
0020
0030
0100
1000
,  // measure 76
0002
0000
2000
0000
,  // measure 77
3003
0000
0000
0000
;

//---------------dance-single - ----------------
#NOTES:
     dance-single:
     :
     Beginner:
     1:
     0.164782,0.180610,0.000000,0.000000,0.000000,171.000000,171.000000,0.000000,0.000000,0.000000,0.000000,0.164782,0.180610,0.000000,0.000000,0.000000,171.000000,171.000000,0.000000,0.000000,0.000000,0.000000:
// measure 0
0000
0000
0000
0000
,  // measure 1
0000
0000
0000
0000
,  // measure 2
0000
0000
0000
0000
,  // measure 3
0000
0000
0000
0000
,  // measure 4
0000
0000
0000
0000
,  // measure 5
0001
0000
0010
0000
,  // measure 6
0001
0000
0010
0000
,  // measure 7
1000
0000
0010
0000
,  // measure 8
1000
0000
0010
0000
,  // measure 9
0100
0000
0010
0000
,  // measure 10
0100
0000
0010
0000
,  // measure 11
0001
0000
1000
0000
,  // measure 12
0001
0000
0100
0000
,  // measure 13
0010
0000
1000
0000
,  // measure 14
0010
0000
0100
0000
,  // measure 15
0001
0000
0010
0000
,  // measure 16
0100
0000
1000
0000
,  // measure 17
0001
0000
1000
0000
,  // measure 18
0100
0000
0010
0000
,  // measure 19
0001
0000
0100
0000
,  // measure 20
0010
0000
1000
0000
,  // measure 21
0100
0000
0010
0000
,  // measure 22
0100
0000
0010
0000
,  // measure 23
0001
0000
1000
0000
,  // measure 24
0001
0000
1000
0000
,  // measure 25
0010
0000
0100
0000
,  // measure 26
0001
0000
0010
0000
,  // measure 27
0100
0000
1000
0000
,  // measure 28
0001
0000
0100
0000
,  // measure 29
0010
0010
0010
0000
,  // measure 30
1000
1000
1000
0000
,  // measure 31
0001
0001
0001
0000
,  // measure 32
0100
0100
0100
0000
,  // measure 33
0010
0010
0010
0000
,  // measure 34
0000
1000
1000
0000
,  // measure 35
0001
0000
0010
0000
,  // measure 36
0100
0000
1000
0000
,  // measure 37
0001
0001
0001
0000
,  // measure 38
0100
0100
0100
0000
,  // measure 39
0010
0010
0010
0000
,  // measure 40
1000
1000
1000
0000
,  // measure 41
0100
0100
0100
0000
,  // measure 42
0000
0010
0010
0000
,  // measure 43
0001
0000
1000
0000
,  // measure 44
0001
0000
0100
0000
,  // measure 45
0010
0000
1000
0000
,  // measure 46
0001
0000
0010
0000
,  // measure 47
0100
0000
1000
0000
,  // measure 48
0001
0000
0100
0000
,  // measure 49
0010
0010
0010
0000
,  // measure 50
1000
0000
0001
0000
,  // measure 51
0010
0000
0100
0000
,  // measure 52
0010
0000
0001
0000
,  // measure 53
1000
1000
1000
0000
,  // measure 54
0100
0100
0100
0000
,  // measure 55
0010
0010
0010
0000
,  // measure 56
0001
0001
0001
0000
,  // measure 57
0100
0100
0100
0000
,  // measure 58
0010
0010
0010
0000
,  // measure 59
1000
1000
1000
0000
,  // measure 60
0001
0001
0001
0000
,  // measure 61
0010
0010
0010
0000
,  // measure 62
0100
0100
0100
0000
,  // measure 63
1000
1000
1000
0000
,  // measure 64
0001
0001
0001
0000
,  // measure 65
0100
0100
0100
0000
,  // measure 66
0010
0000
0010
0000
,  // measure 67
1000
0000
0100
0000
,  // measure 68
0010
0010
0010
0000
,  // measure 69
0001
0000
1000
0000
,  // measure 70
0001
0001
0001
0000
,  // measure 71
0100
0000
0010
0000
,  // measure 72
0100
0100
0100
0000
,  // measure 73
0010
0000
1000
0000
,  // measure 74
0100
0000
0010
0000
,  // measure 75
0001
0000
1000
0000
,  // measure 76
0010
0000
0100
0000
;
