#TITLE:Renaissance (Theme From The White Lotus);
#SUBTITLE:;
#ARTIST:Cristobal Tapia De Veer;
#TITLETRANSLIT:;
#SUBTITLETRANSLIT:;
#ARTISTTRANSLIT:;
#GENRE:The White Lotus;
#CREDIT:[Ness];
#BANNER:Renaissance-bn.png;
#BACKGROUND:Renaissance-bg.png;
#LYRICSPATH:;
#CDTITLE:;
#MUSIC:Renaissance.mp3;
#OFFSET:-0.025000;
#SAMPLESTART:75.607498;
#SAMPLELENGTH:13.228348;
#LASTBEATHINT:196.000000;
#SELECTABLE:YES;
#BPMS:0.000000=126.999992
;
#STOPS: ; #BGCHANGES;
#KEYSOUNDS:;
#ATTACKS:;

//---------------dance-single - ----------------
#NOTES:
     dance-single:
     :
     Challenge:
     10:
     0.550781,0.662626,0.142418,0.040691,0.849423,379.000000,365.000000,14.000000,4.000000,0.000000,0.000000,0.550781,0.662626,0.142418,0.040691,0.849423,379.000000,365.000000,14.000000,4.000000,0.000000,0.000000:
// measure 0
0000
0000
0000
0000
,  // measure 1
0000
0000
0000
0000
,  // measure 2
0000
0000
0000
0000
,  // measure 3
0000
0000
0000
0000
,  // measure 4
0000
0000
0000
0000
,  // measure 5
0000
0000
0000
0000
,  // measure 6
0000
0000
0000
0000
,  // measure 7
0000
0000
0000
0000
,  // measure 8
0010
0100
0001
0010
0100
0001
0010
0100
,  // measure 9
0001
0010
0100
0001
0010
1000
0001
0010
,  // measure 10
0100
1000
0010
0100
1000
0010
0100
1000
,  // measure 11
0010
0100
1000
0010
0001
1000
0100
0010
,  // measure 12
0001
0100
0010
0001
0100
0010
0001
0100
,  // measure 13
0010
0001
0100
0010
1000
0100
0010
0001
,  // measure 14
1000
0100
0001
1000
0010
0001
1000
0100
,  // measure 15
0001
1000
0010
0001
0100
0010
1000
0000
,  // measure 16
0000
0000
0000
0000
0000
0000
0000
0000
0000
0000
0000
0000
0000
0000
0000
0000
0000
0000
0000
0000
0000
0000
0000
0000
0000
0000
0000
0000
0000
0000
0000
0000
0000
0000
0000
0000
0000
0000
0000
0000
0000
0000
0000
0000
0000
0000
0000
0000
0000
0000
0000
0000
0000
0000
0010
0000
0000
0000
0000
0000
0000
0000
0000
0000
0000
0000
0000
0000
0000
0000
0000
0000
0000
0000
0000
0000
0000
0000
0010
0000
0000
0000
0000
0000
0000
0000
0000
0000
0000
0000
0000
0000
0000
0000
0000
0000
0010
0000
0000
0000
0000
0000
0000
0000
0000
0000
0000
0000
0000
0000
0000
0000
0010
0000
0000
0000
0000
0000
0000
0000
0000
0000
0000
0000
0000
0000
0000
0000
0010
0000
0000
0000
0000
0000
0000
0000
0000
0000
0000
0000
0000
0000
0000
0000
0001
0000
0000
0000
0000
0000
0000
0000
0000
0000
0000
0000
0000
0000
0000
0000
0001
0000
0000
0000
0000
0000
0000
0000
0000
0000
0000
0000
0000
0000
0000
0000
0001
0000
0000
0000
0000
0000
0000
0000
0000
0000
0000
0000
0000
0000
0000
0000
,  // measure 17
0010
0000
0000
0000
0010
0000
0000
0000
0000
0100
0000
0000
0000
0000
0100
0000
0000
0000
0000
0100
0000
0000
0000
0000
0010
0000
0000
0000
0010
0000
0000
0000
0010
0000
0000
0000
1000
0000
0000
0000
1000
0000
0000
0000
1000
0000
0000
0000
,  // measure 18
0010
0000
0000
0000
0010
0000
0000
0000
0000
0100
0000
0000
0000
0000
0100
0000
0000
0000
0000
0100
0000
0000
0000
0000
0100
0000
0000
0000
0000
0100
0000
0000
0000
0000
0100
0000
0000
0000
0000
0100
0000
0000
0000
0000
0100
0000
0000
0000
,  // measure 19
0010
0010
0010
0010
0010
0010
0000
0000
0000
0000
0000
0000
,  // measure 20
0000
0000
0000
0000
0000
0000
0000
0000
0000
0000
0000
0000
0000
0000
0000
0000
0000
0000
0000
0000
0000
0000
0000
0000
0000
0000
0000
0000
0000
0000
0000
0000
0000
0000
0000
0000
0000
0000
0000
0000
0000
0000
0000
0000
0000
0000
0000
0000
0000
0000
0000
0000
0000
0000
0010
0000
0000
0000
0000
0000
0000
0000
0000
0000
0000
0000
0000
0000
0000
0000
0000
0000
0000
0000
0000
0000
0000
0000
0010
0000
0000
0000
0000
0000
0000
0000
0000
0000
0000
0000
0000
0000
0000
0000
0000
0000
0010
0000
0000
0000
0000
0000
0000
0000
0000
0000
0000
0000
0000
0000
0000
0000
0010
0000
0000
0000
0000
0000
0000
0000
0000
0000
0000
0000
0000
0000
0000
0000
0010
0000
0000
0000
0000
0000
0000
0000
0000
0000
0000
0000
0000
0000
0000
0000
0001
0000
0000
0000
0000
0000
0000
0000
0000
0000
0000
0000
0000
0000
0000
0000
0001
0000
0000
0000
0000
0000
0000
0000
0000
0000
0000
0000
0000
0000
0000
0000
0001
0000
0000
0000
0000
0000
0000
0000
0000
0000
0000
0000
0000
0000
0000
0000
,  // measure 21
0010
0000
0000
0000
0010
0000
0000
0000
0000
1000
0000
0000
0000
0000
1000
0000
0000
0000
0000
1000
0000
0000
0000
0000
0001
0000
0000
0000
0001
0000
0000
0000
0001
0000
0000
0000
1000
0000
0000
0000
1000
0000
0000
0000
1000
0000
0000
0000
,  // measure 22
0001
0000
0000
0000
0001
0000
0000
0000
0000
0100
0000
0000
0000
0000
0100
0000
0000
0000
0000
0100
0000
0000
0000
0000
0100
0000
0000
0000
0000
0100
0000
0000
0000
0000
0100
0000
0000
0000
0000
0100
0000
0000
0000
0000
0100
0000
0000
0000
,  // measure 23
0001
0001
0001
0001
0001
0001
0001
0001
0001
0000
0000
0000
,  // measure 24
0000
0000
0000
0000
0000
0000
0000
0000
0000
0000
0000
0000
0000
0000
0000
0000
0000
0000
0000
0000
0000
0000
0000
0000
0000
0000
0000
0000
0000
0000
0000
0000
0000
0000
0000
0000
0000
0000
0000
0000
0000
0000
0000
0000
0000
0000
0000
0000
0000
0000
0000
0000
0000
0000
1000
0000
0000
0000
0000
0000
0000
0000
0000
0000
0000
0000
0000
0000
0000
0000
0000
0000
0000
0000
0000
0000
0000
0000
0001
0000
0000
0000
0000
0000
0000
0000
0000
0000
0000
0000
0000
0000
0000
0000
0000
0000
1000
0000
0000
0000
0000
0000
0000
0000
0000
0000
0000
0000
0000
0000
0000
0000
0001
0000
0000
0000
0000
0000
0000
0000
0000
0000
0000
0000
0000
0000
0000
0000
1000
0000
0000
0000
0000
0000
0000
0000
0000
0000
0000
0000
0000
0000
0000
0000
0100
0000
0000
0000
0000
0000
0000
0000
0000
0000
0000
0000
0000
0000
0000
0000
1000
0000
0000
0000
0000
0000
0000
0000
0000
0000
0000
0000
0000
0000
0000
0000
0100
0000
0000
0000
0000
0000
0000
0000
0000
0000
0000
0000
0000
0000
0000
0000
,  // measure 25
0010
0000
0000
0000
0001
0000
0000
0000
0000
0100
0000
0000
0000
0000
0001
0000
0000
0000
0000
0100
0000
0000
0000
0000
0010
0000
0000
0000
1000
0000
0000
0000
0010
0000
0000
0000
1000
0000
0000
0000
0100
0000
0000
0000
1000
0000
0000
0000
,  // measure 26
0001
0000
0000
0000
0010
0000
0000
0000
0000
0100
0000
0000
0000
0000
0100
0000
0000
0000
0000
1000
0000
0000
0000
0000
0100
0000
0000
0000
0000
1000
0000
0000
0000
0000
0100
0000
0000
0000
0000
1000
0000
0000
0000
0000
0100
0000
0000
0000
,  // measure 27
0010
0000
0000
0000
0001
0000
0000
0000
0010
0000
0000
0000
0001
0000
0000
0000
0010
0000
0000
0000
0001
0000
0000
0000
1000
0000
0000
1000
0000
0000
0100
0000
0000
0100
0000
0000
0010
0000
0000
0000
0000
0000
0000
0000
0000
0000
0000
0000
,  // measure 28
0000
0000
0000
0000
0000
0000
0000
0000
0000
0000
0000
0000
0000
0000
0000
0000
0000
0000
0000
0000
0000
0000
0000
0000
0000
0000
0000
0000
0000
0000
0000
0000
0000
0000
0000
0000
0000
0000
0000
0000
0000
0000
0000
0000
0000
0000
0000
0000
0000
0000
0000
0000
0000
0000
1000
0000
0000
0000
0000
0000
0000
0000
0000
0000
0000
0000
0000
0000
0000
0000
0000
0000
0000
0000
0000
0000
0000
0000
0100
0000
0000
0000
0000
0000
0000
0000
0000
0000
0000
0000
0000
0000
0000
0000
0000
0000
0010
0000
0000
0000
0000
0000
0000
0000
0000
0000
0000
0000
0000
0000
0000
0000
0001
0000
0000
0000
0000
0000
0000
0000
0000
0000
0000
0000
0000
0000
0000
0000
1000
0000
0000
0000
0000
0000
0000
0000
0000
0000
0000
0000
0000
0000
0000
0000
0001
0000
0000
0000
0000
0000
0000
0000
0000
0000
0000
0000
0000
0000
0000
0000
0100
0000
0000
0000
0000
0000
0000
0000
0000
0000
0000
0000
0000
0000
0000
0000
0010
0000
0000
0000
0000
0000
0000
0000
0000
0000
0000
0000
0000
0000
0000
0000
,  // measure 29
1000
0000
0000
0000
0100
0000
0000
0000
0000
1000
0000
0000
0000
0000
0001
0000
0000
0000
0000
0010
0000
0000
0000
0000
0100
0000
0000
0000
1000
0000
0000
0000
0001
0000
0000
0000
0100
0000
0000
0000
0001
0000
0000
0000
0010
0000
0000
0000
,  // measure 30
0100
0000
0000
0000
1000
0000
0000
0000
0000
0001
0000
0000
0000
0000
1000
0000
0000
0000
0000
0001
0000
0000
0000
0000
0010
0000
0000
0000
0000
0001
0000
0000
0000
0000
1000
0000
0000
0000
0000
0100
0000
0000
0000
0000
1000
0000
0000
0000
,  // measure 31
0002
0000
2000
3003
,  // measure 32
0001
0000
0000
1000
0000
0000
1001
0000
0000
0010
0000
0000
0001
0000
0010
0000
0001
0000
1000
0000
0000
0001
0000
0000
,  // measure 33
1000
0000
0010
0100
0000
0001
0000
1000
0100
0000
0010
0000
0001
0000
1000
0000
,  // measure 34
0010
0000
1000
0100
0000
0010
0000
0001
0100
0000
0010
0000
1000
0000
0001
0000
,  // measure 35
0010
0100
1000
0010
0001
0010
1000
0001
0100
0001
0000
0101
,  // measure 36
0000
0000
0000
0000
0000
0000
1001
0000
0000
0100
0000
0000
0001
0000
0100
0000
0010
0000
1000
0000
0000
0100
0000
0000
,  // measure 37
0010
0000
0001
0100
0000
0010
0000
1000
0001
0000
1000
0000
0100
0000
0010
0000
,  // measure 38
0001
0000
0010
0100
0000
1000
0000
0010
0100
0000
0001
0000
0010
0000
0100
0000
,  // measure 39
1000
0000
0000
0000
0010
0000
0000
0000
0100
0000
0000
0000
0001
0000
0000
0000
0010
0000
0000
0000
0100
0000
0000
0000
1000
0000
0000
1000
0000
0000
0001
0000
0000
0001
0000
0000
0100
0000
0000
0000
0000
0000
0010
0000
0000
0000
0000
0000
,  // measure 40
1001
0000
0100
0000
0101
0000
0010
1000
0100
0000
0010
0000
0011
0000
1000
0010
,  // measure 41
0100
0000
0010
0000
1100
0000
0010
0100
0001
0000
0010
0000
0110
0000
0001
1000
,  // measure 42
1010
0000
0100
0000
1001
0000
1000
0100
0001
0000
0100
0000
1001
0000
0010
0001
,  // measure 43
0100
0000
0010
0000
1001
0000
0001
0100
0010
0000
1000
0000
1100
0000
0100
0010
,  // measure 44
0001
0000
0000
1000
0000
0000
0100
0000
0000
0100
0000
0000
0100
0000
0100
0000
0100
0000
1000
0000
1000
0000
1000
0000
,  // measure 45
0001
0000
0000
0000
0001
0000
0000
0000
0000
0010
0000
0000
0000
0000
0010
0000
0000
0000
0000
0010
0000
0000
0000
0000
0100
0000
0000
0000
0100
0000
0000
0000
0100
0000
0000
0000
1000
0000
0000
0000
1000
0000
0000
0000
1000
0000
0000
0000
,  // measure 46
0010
0000
0000
0000
0010
0000
0000
0000
0000
0100
0000
0000
0000
0000
0100
0000
0000
0000
0000
0100
0000
0000
0000
0000
0100
0000
0000
0000
0000
0100
0000
0000
0000
0000
0100
0000
0000
0000
0000
0100
0000
0000
0000
0000
0100
0000
0000
0000
,  // measure 47
0001
0000
0000
0000
0001
0000
0000
0000
0010
0000
0000
0000
0010
0000
0000
0000
0010
0000
0000
0000
0010
0000
0000
0000
0100
0000
0000
0100
0000
0000
1000
0000
0000
1000
0000
0000
0001
0000
0000
0000
0000
0000
0000
0000
0000
0000
0000
0000
,  // measure 48
0202
0303
0000
0000
;

//---------------dance-single - ----------------
#NOTES:
     dance-single:
     :
     Hard:
     7:
     0.318261,0.466293,0.111900,0.437428,0.091555,219.000000,208.000000,11.000000,43.000000,0.000000,0.000000,0.318261,0.466293,0.111900,0.437428,0.091555,219.000000,208.000000,11.000000,43.000000,0.000000,0.000000:
0000
0000
0000
0000
,
0000
0000
0000
0000
,
0000
0000
0000
0000
,
0000
0000
0000
0000
,
0000
0000
0000
0000
,
0000
0000
0000
0000
,
0000
0000
0000
0000
,
0000
0000
0000
0000
,
1000
0000
0001
0020
0000
0031
2000
0000
,
3001
0020
0000
0130
2000
0000
3010
2000
,
0000
3001
0020
0000
0130
0020
0000
0031
,
2000
0000
3010
0200
0000
0310
2000
0000
,
3001
1000
0020
0000
0130
0002
0000
1003
,
0200
0000
0310
0200
0000
1300
0020
0000
,
0130
0001
2000
0000
3001
0020
0000
0130
,
2000
0000
3010
0200
0000
0301
1000
0001
,
0100
0020
0000
0032
,
0023
0000
0000
0230
0000
0000
0000
0000
0320
0000
0000
0000
2030
0000
0000
0000
,
3020
0000
0000
0230
0000
0000
0000
0000
0000
0000
0000
0000
0000
0000
0000
0000
,
0302
0000
0000
0000
0000
0003
0000
0000
0000
0000
0000
0000
,
1000
0200
0000
0320
,
0032
0000
0000
0203
0000
0000
0000
0000
0320
0000
0000
0000
2030
0000
0000
0000
,
3020
0000
0000
0230
0000
0000
0000
0000
0000
0000
0000
0000
0000
0000
0000
0000
,
0302
0000
0000
0003
,
1001
0000
0010
0000
0001
1000
0010
0000
,
1000
0000
0000
0100
0000
0000
1000
0000
0001
0000
0010
0000
0100
0000
0000
0000
,
0010
0000
0000
0001
0000
0000
0100
0000
0001
0000
1000
0000
0001
0000
0000
0000
,
0010
1000
0010
0000
0100
0001
0010
0000
,
0000
0000
0100
1000
0001
0000
1000
0010
,
1000
0000
0000
0001
0000
0000
0100
0000
0010
0000
1000
0000
0100
0000
0000
0000
,
1000
0000
0000
0001
0000
0000
0010
0000
0100
0000
1000
0000
0001
0000
0000
0000
,
2002
3003
0220
0330
,
1000
0010
0001
0000
0001
0010
0100
0000
,
1000
0100
1000
0000
0001
0010
0100
1000
,
0010
1000
0100
0000
1000
0010
1000
0000
,
0001
0010
1000
0000
0010
0100
0001
0000
,
0010
0000
0001
1000
0100
0000
1000
0100
,
0010
0000
0001
1000
0010
0100
0010
0000
,
1000
0001
0010
0000
0001
0100
0001
0000
,
1000
0010
0100
0000
0101
0000
1100
0000
,
1001
0000
0000
1000
0100
0000
1000
0000
0001
0000
0000
0010
0100
0000
0010
0000
,
0001
0000
0000
0100
0010
0000
0100
0000
0001
0000
0000
1000
0010
0000
1000
0000
,
1001
0000
0000
0001
0010
0000
0001
0000
0100
0000
0000
0001
0010
0000
0100
0000
,
1000
0000
0000
0010
0100
0000
0010
0000
1000
0000
0001
0000
0100
0000
0000
0000
,
0110
0000
0001
0000
0001
0010
1000
0000
,
0010
0000
0000
0100
0000
0000
0100
0000
0010
0000
1000
0000
0001
0000
0000
0000
,
0010
0000
0000
0100
0000
0000
1000
0000
0100
0000
0000
0000
1100
0000
0000
0000
,
0110
0000
0000
0001
0000
0000
1000
0000
0010
0000
0001
0000
0100
0000
0000
0000
,
2002
3003
0000
0000
;

//---------------dance-single - ----------------
#NOTES:
     dance-single:
     :
     Medium:
     6:
     0.249959,0.368126,0.081382,0.325527,0.020345,172.000000,164.000000,8.000000,32.000000,0.000000,0.000000,0.249959,0.368126,0.081382,0.325527,0.020345,172.000000,164.000000,8.000000,32.000000,0.000000,0.000000:
0000
0000
0000
0000
,
0000
0000
0000
0000
,
0000
0000
0000
0000
,
0000
0000
0000
0000
,
0000
0000
0000
0000
,
0000
0000
0000
0000
,
0000
0000
0000
0000
,
0000
0000
0000
0000
,
2000
0000
3000
0002
0000
0003
0200
0000
,
0300
0020
0000
0030
0100
0000
0001
0000
,
0010
0000
0200
0000
0300
2000
0000
3000
,
0020
0000
0030
0200
0000
0300
0001
0000
,
1000
0000
0002
0000
0003
0020
0000
0030
,
0200
0000
0300
2000
0000
3000
0010
0000
,
1000
0000
0200
0000
0300
0020
0000
0030
,
0001
1000
0010
0100
,
0000
0020
0000
2030
,
3010
0000
0000
0200
0000
0000
0000
0000
0320
0000
0000
0000
2030
0000
0000
0000
,
3010
0000
0000
0200
0000
0000
0000
0000
0000
0000
0000
0000
0000
0000
0000
0000
,
0320
0000
0000
0000
0000
0030
0000
0000
0000
0000
0000
0000
,
0000
0200
0000
0302
,
0103
0000
0000
0020
0000
0000
0000
0000
0230
0000
0000
0000
0302
0000
0000
0000
,
0103
0000
0000
0020
0000
0000
0000
0000
0000
0000
0000
0000
0000
0000
0000
0000
,
2030
0000
0000
3000
,
1001
0100
0001
0100
,
1000
0100
0001
1000
,
0001
0010
1000
0010
,
0001
0000
1000
0000
0001
0100
1000
0000
,
0000
0010
1000
0100
,
0010
0100
1000
0001
,
0010
0100
0010
0001
,
2000
0000
0002
3003
,
1000
1000
1000
0000
0010
1000
0100
0000
,
1000
0100
0001
0000
0100
0001
0100
0000
,
0010
0001
0100
0000
0001
0001
0001
0000
,
0001
0001
0001
0000
0001
0001
0001
0000
,
0010
0000
1000
0000
0001
1000
0100
0000
,
0010
0100
1000
0000
0001
0010
1000
0000
,
0010
0100
0001
0000
1000
0100
0010
0000
,
0100
0100
0100
0000
1000
1000
0001
0000
,
1000
1100
0010
0110
,
0001
0010
1000
0000
0010
0000
0110
0000
,
1001
0000
0110
0000
0100
0001
0010
0000
,
0001
1000
0010
0000
1000
0100
0001
0000
,
1001
0000
0010
0000
1000
0001
0010
0000
,
0100
1000
0100
0000
0010
0001
0100
0000
,
0010
1000
0001
0000
0010
0100
0010
0000
,
0001
0100
0010
0000
1000
0100
0001
0000
,
2002
3003
0000
0000
;

//---------------dance-single - ----------------
#NOTES:
     dance-single:
     :
     Easy:
     4:
     0.178749,0.294501,0.040691,0.203455,0.000000,123.000000,119.000000,4.000000,20.000000,0.000000,0.000000,0.178749,0.294501,0.040691,0.203455,0.000000,123.000000,119.000000,4.000000,20.000000,0.000000,0.000000:
0000
0000
0000
0000
,
0000
0000
0000
0000
,
0000
0000
0000
0000
,
0000
0000
0000
0000
,
0000
0000
0000
0000
,
0000
0000
0000
0000
,
0000
0000
0000
0000
,
0000
0000
0000
0000
,
0020
0000
0000
0000
,
0000
0030
1000
0100
,
0020
0000
0000
0000
,
0000
0030
0001
0100
,
0020
0000
2030
0000
,
0000
0000
3001
0010
,
0200
0000
0000
0000
,
2300
0000
0000
0000
,
3001
0020
0000
0031
,
0010
0100
0010
0001
,
0010
0200
0000
0000
,
2300
0000
3000
0000
,
0000
0002
0000
1003
,
0001
0200
0301
1000
,
0001
0200
0000
0000
,
0320
0000
0000
0030
,
0100
1000
0000
1000
,
0010
0100
0000
0001
,
0010
0100
0000
1000
,
0001
1000
0000
0010
,
0100
0001
0000
0010
,
0001
1000
0000
0001
,
0010
0100
0000
1000
,
0010
0000
0100
0000
,
0001
0100
1000
0100
,
0001
0001
1000
0100
,
0001
0001
0100
0100
,
1000
1000
0001
1000
,
0100
0010
0010
0100
,
0010
0100
1000
0100
,
1000
0100
0100
0100
,
0001
0100
1000
0001
,
1001
0020
1030
0200
,
0310
0002
1003
0110
,
1001
0200
0301
2000
,
3100
0020
0031
1000
,
1001
0010
0010
0001
,
0010
0100
0010
0001
,
0010
0100
0100
0100
,
1000
1000
0001
1000
,
0200
0300
0000
0000
;

//---------------dance-single - ----------------
#NOTES:
     dance-single:
     :
     Beginner:
     1:
     0.108994,0.170902,0.040691,0.132246,0.000000,75.000000,71.000000,4.000000,13.000000,0.000000,0.000000,0.108994,0.170902,0.040691,0.132246,0.000000,75.000000,71.000000,4.000000,13.000000,0.000000,0.000000:
0000
0000
0000
0000
,
0000
0000
0000
0000
,
0000
0000
0000
0000
,
0000
0000
0000
0000
,
0000
0000
0000
0000
,
0000
0000
0000
0000
,
0000
0000
0000
0000
,
0000
0000
0000
0000
,
0020
0000
0000
0030
,
0000
0000
1000
1000
,
2000
0000
0000
3000
,
0000
0000
0001
0001
,
0002
0003
0200
0000
,
0000
0300
0010
0010
,
0020
0000
0000
0030
,
2000
0000
0000
3000
,
0000
0200
0300
0100
,
0100
0000
0001
0000
,
0010
0000
0000
0000
,
0001
0000
0000
0000
,
0000
2000
3000
1000
,
1000
0000
0010
0000
,
0100
0100
0000
0000
,
0001
0000
0000
0000
,
0000
0020
0030
0010
,
0010
0000
0100
0000
,
1000
0000
0000
0000
,
0000
0000
0001
0000
,
0000
0200
0300
0100
,
0100
0000
0010
0000
,
1000
2000
3000
0000
,
0002
0003
2000
3000
,
0000
0100
0000
0010
,
0000
0100
0000
1000
,
0000
0001
0000
1000
,
0000
0001
0000
0100
,
0000
0010
0000
0100
,
0000
0010
0000
1000
,
0000
0001
0000
0010
,
0000
0100
0100
0000
,
1001
0000
0100
0000
,
1000
0000
0001
0000
,
1001
0000
0010
0000
,
0001
0000
1000
0000
,
1001
0000
0000
0010
,
0010
0000
0001
0000
,
0010
0000
0000
0000
,
0100
0000
1000
0000
,
1001
0000
0000
0000
;
