#TITLE:Rain of Gold;
#SUBTITLE:;
#ARTIST:Young Empires;
#TITLETRANSLIT:;
#SUBTITLETRANSLIT:;
#ARTISTTRANSLIT:;
#GENRE:Orphan Black;
#CREDIT:;
#BANNER:Rain of Gold-bn.jpg;
#BACKGROUND:Rain of Gold-bg.jpg;
#LYRICSPATH:;
#CDTITLE:;
#MUSIC:Rain of Gold.mp3;
#OFFSET:-0.037000;
#SAMPLESTART:90.017387;
#SAMPLELENGTH:15.000000;
#LASTBEATHINT:232.000000;
#SELECTABLE:YES;
#BPMS:0.000000=128.000000
;
#STOPS:
;
#BGCHANGES:;
#KEYSOUNDS:;
#ATTACKS:;

//---------------dance-single - ----------------
#NOTES:
     dance-single:
     :
     Hard:
     8:
     0.406563,0.652195,0.496910,0.442702,0.063243,315.000000,260.000000,55.000000,49.000000,0.000000,0.000000,0.406563,0.652195,0.496910,0.442702,0.063243,315.000000,260.000000,55.000000,49.000000,0.000000,0.000000:
// measure 0
0000
0000
0000
0000
,  // measure 1
0000
0000
0000
0000
,  // measure 2
0000
0000
0000
0000
,  // measure 3
0000
0000
0000
0000
,  // measure 4
0100
1000
0001
1000
0001
0100
0000
0002
,  // measure 5
0000
1003
0001
1000
0000
0020
0000
0030
,  // measure 6
0100
0001
1000
0001
1000
0100
0000
2000
,  // measure 7
0000
3001
1000
0001
0000
0020
0000
0030
,  // measure 8
0001
0000
0000
0100
0000
0000
1000
0000
0100
0000
0001
0000
0000
0000
0100
0000
,  // measure 9
0000
0100
0000
0010
1000
0000
0001
0000
,  // measure 10
0010
0000
0100
1000
0100
0010
0000
0001
,  // measure 11
0000
1000
0000
0010
0100
0000
0010
0000
,  // measure 12
1000
0000
0000
0100
0000
0000
0001
0000
0100
0000
1000
0000
0000
0000
0100
0000
,  // measure 13
0000
0010
0000
0100
2000
0000
3001
0000
,  // measure 14
0100
0000
0010
1000
0010
0100
0000
0001
,  // measure 15
0000
1000
0000
0010
0200
0000
0301
0000
,  // measure 16
1000
0000
0010
0000
1000
0100
0010
0001
,  // measure 17
0000
0001
0010
1000
0000
1000
0010
0001
,  // measure 18
0100
0000
0010
0000
1000
0001
0100
0010
,  // measure 19
0000
0100
0001
0100
0000
0010
1000
0100
,  // measure 20
0010
0000
0100
0000
1000
0100
0010
0001
,  // measure 21
0000
1000
0010
1000
0000
0001
0010
0100
,  // measure 22
1000
0000
0001
0000
0010
0001
1000
0010
,  // measure 23
0000
0100
0010
0100
0000
0001
0000
0000
,  // measure 24
2001
0000
3100
1002
0000
0103
0000
0000
,  // measure 25
0010
1000
0020
0000
0000
0000
0130
0000
0001
0000
0000
0000
0101
0000
0000
0000
,  // measure 26
1000
0100
2000
0000
0000
0000
3001
0000
0010
0000
0000
0000
0110
0000
0000
0000
,  // measure 27
0001
1000
0002
0000
0000
0000
0103
0000
0010
0000
0000
0000
1001
0000
0000
0000
,  // measure 28
0010
0000
1002
0010
0003
2001
0100
3000
,  // measure 29
0001
0100
0002
0000
0000
0000
0103
0000
1000
0000
0000
0000
1100
0000
0000
0000
,  // measure 30
1000
0010
2000
0000
0000
0000
3010
0000
0100
0000
0000
0000
1001
0000
0000
0000
,  // measure 31
0100
0010
0200
0000
0000
0000
0301
0000
0010
0000
0000
0000
0011
0000
0000
0000
,  // measure 32
2200
0000
0000
0300
,  // measure 33
0200
0000
0000
3300
,  // measure 34
0002
0010
0000
0013
,  // measure 35
2000
0001
0000
3001
,  // measure 36
0100
0220
0330
1001
,  // measure 37
0110
2002
3003
0110
,  // measure 38
1001
0220
0330
1001
,  // measure 39
0110
2002
3003
0110
,  // measure 40
2010
3010
2010
3010
,  // measure 41
0102
0103
0102
0103
,  // measure 42
2001
3001
2001
3001
,  // measure 43
0021
0031
0021
0031
,  // measure 44
0110
0110
1100
1100
,  // measure 45
0101
0101
0110
0110
,  // measure 46
1000
1000
0001
0001
0100
0100
0010
0010
,  // measure 47
1010
1010
0110
0110
0101
0101
1001
1001
,  // measure 48
0010
0000
0002
0010
0003
2000
0100
3000
,  // measure 49
0100
1000
0200
0000
0000
0000
0310
0000
0001
0000
0000
0000
0011
0000
0000
0000
,  // measure 50
1000
0010
2000
0000
0000
0000
3001
0000
0100
0000
0000
0000
0110
0000
0000
0000
,  // measure 51
0001
1000
0002
0000
0000
0000
0013
0000
0100
0000
0000
0000
1001
0000
0000
0000
,  // measure 52
0100
0000
1002
0100
0003
2001
0010
3000
,  // measure 53
0001
0010
0002
0000
0000
0000
0013
0000
1000
0000
0000
0000
1010
0000
0000
0000
,  // measure 54
1000
0100
2000
0000
0000
0000
3100
0000
0010
0000
0000
0000
1001
0000
0000
0000
,  // measure 55
0010
0100
0020
0000
0000
0000
0031
0000
0100
0000
0000
0000
0101
0000
0000
0000
,  // measure 56
2002
0000
0000
0000
,  // measure 57
0000
0000
0000
3003
;

//---------------dance-single - ----------------
#NOTES:
     dance-single:
     :
     Medium:
     6:
     0.308471,0.443492,0.009035,0.027104,0.000000,239.000000,238.000000,1.000000,3.000000,0.000000,0.000000,0.308471,0.443492,0.009035,0.027104,0.000000,239.000000,238.000000,1.000000,3.000000,0.000000,0.000000:
// measure 0
0000
0000
0000
0000
,  // measure 1
0000
0000
0000
0000
,  // measure 2
0000
0000
0000
0000
,  // measure 3
0000
0000
0000
0000
,  // measure 4
1000
0100
0010
0001
,  // measure 5
1000
0001
0100
0010
,  // measure 6
1000
0010
1000
0100
,  // measure 7
0010
0001
1000
0001
,  // measure 8
1000
0010
1000
0000
0100
0000
0010
0000
,  // measure 9
0001
0010
0001
0000
0100
0000
0000
0000
,  // measure 10
0001
0000
1000
0001
1000
0000
0010
0000
,  // measure 11
0100
0000
0001
1000
0001
0000
0000
0000
,  // measure 12
0010
0001
0010
0000
0100
0000
1000
0000
,  // measure 13
0010
1000
0010
0000
0100
0000
0000
0000
,  // measure 14
0001
0000
1000
0001
1000
0000
0010
0000
,  // measure 15
0100
0000
0010
0100
0010
0000
0000
0000
,  // measure 16
1000
1000
0100
0010
,  // measure 17
0001
1000
0010
0100
,  // measure 18
0001
0001
1000
0010
,  // measure 19
1000
0100
0010
0001
,  // measure 20
1000
1000
0100
0010
,  // measure 21
0001
1000
0010
0100
,  // measure 22
0001
0001
1000
0010
,  // measure 23
0200
0000
0000
0300
,  // measure 24
0001
0000
0100
0001
0000
0100
0001
0000
,  // measure 25
1000
0010
1000
0010
1000
0000
0000
0000
,  // measure 26
1000
0100
1000
0100
1000
0000
0000
0000
,  // measure 27
1000
0010
1000
0010
1000
0000
0000
0000
,  // measure 28
0001
0000
1000
0100
0000
1000
0100
0000
,  // measure 29
0001
0010
0001
0010
0001
0000
0000
0000
,  // measure 30
0001
0100
0001
0100
0001
0000
0000
0000
,  // measure 31
0001
0010
0001
0010
0001
0000
0000
0000
,  // measure 32
1000
0010
0001
0010
,  // measure 33
1000
0100
0010
0001
,  // measure 34
1000
0010
1000
0100
,  // measure 35
0010
0001
0100
0001
,  // measure 36
0010
0001
0010
0001
0010
0000
0100
0000
,  // measure 37
1000
0010
0100
0001
,  // measure 38
1000
0010
1000
0010
1000
0000
0100
0000
,  // measure 39
0010
0001
1000
0001
,  // measure 40
0100
0010
0100
0010
,  // measure 41
1000
0010
1000
0001
,  // measure 42
0010
0001
0010
0001
,  // measure 43
0010
0001
0010
0100
,  // measure 44
1000
1000
0001
0001
,  // measure 45
0100
0100
0010
0010
,  // measure 46
1000
0010
1000
0010
1000
0010
1000
0010
,  // measure 47
1000
0001
1000
0001
1000
0001
1000
0001
,  // measure 48
1000
0000
0001
1000
0000
0001
1000
0000
,  // measure 49
0001
0100
0001
0100
0001
0000
0000
0000
,  // measure 50
1000
0100
1000
0100
1000
0000
0000
0000
,  // measure 51
0001
0100
0001
0100
0001
0000
0000
0000
,  // measure 52
0010
0000
0100
0010
0000
0100
0010
0000
,  // measure 53
0100
1000
0100
1000
0100
0000
0000
0000
,  // measure 54
0010
0001
0010
0001
0010
0000
0000
0000
,  // measure 55
0001
1000
0001
1000
0001
0000
0000
0000
,  // measure 56
2002
0000
0000
0000
,  // measure 57
0000
0000
0000
3003
;

//---------------dance-single - ----------------
#NOTES:
     dance-single:
     :
     Easy:
     3:
     0.227159,0.252972,0.090347,0.262007,0.000000,176.000000,166.000000,10.000000,29.000000,0.000000,0.000000,0.227159,0.252972,0.090347,0.262007,0.000000,176.000000,166.000000,10.000000,29.000000,0.000000,0.000000:
// measure 0
0000
0000
0000
0000
,  // measure 1
0000
0000
0000
0000
,  // measure 2
0000
0000
0000
0000
,  // measure 3
0000
0000
0000
0000
,  // measure 4
1000
1000
1000
0000
,  // measure 5
0002
0100
0103
0000
,  // measure 6
0010
0010
0010
0000
,  // measure 7
2000
0100
3100
0000
,  // measure 8
0001
0100
0001
0100
,  // measure 9
1000
0100
1000
0100
,  // measure 10
0010
0100
0010
0100
,  // measure 11
0001
0100
0001
0100
,  // measure 12
0010
1000
0010
1000
,  // measure 13
0001
1000
0001
1000
,  // measure 14
0010
0100
0010
0100
,  // measure 15
0001
0010
0001
0010
,  // measure 16
0200
0000
0300
1000
,  // measure 17
0010
0001
0010
1000
,  // measure 18
0200
0000
0300
0010
,  // measure 19
0001
1000
0010
0100
,  // measure 20
0002
0000
0003
1000
,  // measure 21
0010
0100
0010
1000
,  // measure 22
0200
0000
0300
0010
,  // measure 23
0002
0000
0000
0003
,  // measure 24
1001
0000
0000
1001
0000
0000
0000
0000
,  // measure 25
0010
0010
0200
0300
,  // measure 26
0001
0100
0020
0030
,  // measure 27
1000
0100
0020
0030
,  // measure 28
1001
0000
0000
1001
0000
0000
0000
0000
,  // measure 29
0010
0001
2000
3000
,  // measure 30
0010
1000
0002
0003
,  // measure 31
0010
0100
0020
0030
,  // measure 32
0002
0000
0103
0000
,  // measure 33
2000
0000
3100
0000
,  // measure 34
0002
0000
0103
0000
,  // measure 35
2000
0000
3100
0000
,  // measure 36
0001
0001
0000
0010
,  // measure 37
0100
0010
0000
0100
,  // measure 38
1000
0100
0000
1000
,  // measure 39
0001
1000
0000
1000
,  // measure 40
0010
1000
0010
1000
,  // measure 41
0001
0010
0001
0010
,  // measure 42
0001
0100
0001
0100
,  // measure 43
1000
0100
1000
0100
,  // measure 44
0001
0100
0001
0100
,  // measure 45
0010
1000
0010
1000
,  // measure 46
0001
0010
0100
1000
,  // measure 47
0001
0010
0100
1000
,  // measure 48
0001
0001
1000
1000
,  // measure 49
0010
0100
2002
3003
,  // measure 50
0010
0100
2002
3003
,  // measure 51
0010
0100
2002
3003
,  // measure 52
0010
0010
0001
0001
,  // measure 53
1000
0001
2002
3003
,  // measure 54
1000
0001
2002
3003
,  // measure 55
1000
0001
2002
3003
,  // measure 56
0100
0000
0000
0000
;

//---------------dance-single - ----------------
#NOTES:
     dance-single:
     :
     Beginner:
     1:
     0.131649,0.177081,0.054208,0.000000,0.000000,102.000000,96.000000,6.000000,0.000000,0.000000,0.000000,0.131649,0.177081,0.054208,0.000000,0.000000,102.000000,96.000000,6.000000,0.000000,0.000000,0.000000:
// measure 0
0000
0000
0000
0000
,  // measure 1
0000
0000
0000
0000
,  // measure 2
0000
0000
0000
0000
,  // measure 3
0000
0000
0000
0000
,  // measure 4
0010
0000
1000
0000
,  // measure 5
0001
0000
0100
0000
,  // measure 6
0010
0000
0100
0000
,  // measure 7
0001
0000
1000
0000
,  // measure 8
0010
0010
0010
0000
,  // measure 9
0100
0100
0100
0000
,  // measure 10
0001
0001
0001
0000
,  // measure 11
1000
1000
1000
0000
,  // measure 12
0010
0010
0010
0000
,  // measure 13
0100
0100
0100
0000
,  // measure 14
0001
0000
1000
0000
,  // measure 15
0010
0010
0010
0000
,  // measure 16
0000
0000
0000
1000
,  // measure 17
1000
1000
1000
1000
,  // measure 18
0000
0000
0000
0001
,  // measure 19
0001
0001
0001
0001
,  // measure 20
0000
0000
0000
0100
,  // measure 21
0100
0100
0100
0000
,  // measure 22
0000
0000
0000
0010
,  // measure 23
0010
0010
0010
0000
,  // measure 24
1001
0000
0000
0000
,  // measure 25
0010
0000
0100
0000
,  // measure 26
0001
0000
1000
0000
,  // measure 27
0010
0000
0100
0000
,  // measure 28
1001
0000
0000
0000
,  // measure 29
1000
0000
0001
0000
,  // measure 30
0100
0000
0010
0000
,  // measure 31
1000
0000
0001
0000
,  // measure 32
1001
0000
0000
0000
,  // measure 33
0010
0000
0000
0000
,  // measure 34
0001
0000
0000
0000
,  // measure 35
0010
0000
0000
0000
,  // measure 36
0100
0000
0000
0000
,  // measure 37
0010
0000
0000
0000
,  // measure 38
1000
0000
0000
0000
,  // measure 39
0001
0000
0000
0000
,  // measure 40
0100
0000
0000
0000
,  // measure 41
0010
0000
0000
0000
,  // measure 42
1000
0000
0000
0000
,  // measure 43
0001
0000
0000
0000
,  // measure 44
0010
0000
0000
0000
,  // measure 45
0100
0000
0000
0000
,  // measure 46
1000
0000
0001
0000
,  // measure 47
0100
0000
0100
0000
,  // measure 48
1001
0000
0000
0000
,  // measure 49
0010
0000
1000
0000
,  // measure 50
0100
0000
0010
0000
,  // measure 51
0001
0000
0100
0000
,  // measure 52
1001
0000
0000
0000
,  // measure 53
0100
0000
0010
0000
,  // measure 54
1000
0000
0001
0000
,  // measure 55
0010
0000
0100
0000
,  // measure 56
1001
0000
0000
0000
;
