#TITLE:Radioactive;
#SUBTITLE:;
#ARTIST:Imagine Dragons;
#TITLETRANSLIT:;
#SUBTITLETRANSLIT:;
#ARTISTTRANSLIT:;
#GENRE:Night Visions;
#CREDIT:;
#BANNER:Radioactive-bn.jpg;
#BACKGROUND:Radioactive-bg.jpg;
#LYRICSPATH:;
#CDTITLE:;
#MUSIC:Radioactive.mp3;
#OFFSET:-0.039000;
#SAMPLESTART:42.563999;
#SAMPLELENGTH:13.617000;
#LASTBEATHINT:284.998413;
#SELECTABLE:YES;
#DISPLAYBPM:137.000000;
#BPMS:0.000000=136.595001
;
#STOPS:58.000000=1.428000,
58.750000=0.769000
;
#BGCHANGES:;
#KEYSOUNDS:;
#ATTACKS:;

//---------------dance-single - ----------------
#NOTES:
     dance-single:
     :
     Hard:
     7:
     0.435623,0.428888,0.235736,0.030418,0.015209,366.000000,31.000000,4.000000,0.000000,0.000000,0.000000,0.435623,0.428888,0.235736,0.030418,0.015209,366.000000,31.000000,4.000000,0.000000,0.000000,0.000000:
0000
0000
0000
0000
,
0000
0000
0000
0000
,
0000
0000
0000
0000
,
0000
0000
0000
0000
,
0000
0000
0000
0000
,
0000
0000
0000
0000
,
0000
0000
0000
0000
,
0000
0000
0000
0000
,
1010
2000
0010
0000
0001
0000
0001
3001
,
0010
0002
0100
0000
1000
0000
1000
1003
,
0100
2000
0010
0010
3010
0000
0100
0001
,
0010
0002
0100
0100
0103
0000
0010
1000
,
0100
0000
1000
0010
0100
0001
0100
0010
,
1000
0000
0001
1000
0100
0100
0100
0000
,
0010
0000
0001
1000
1001
0000
0010
0000
,
1000
0100
0010
0001
0100
0010
1000
0000
,
0001
0010
0100
1000
0010
0100
0001
0000
,
1000
0010
1000
0100
0001
0100
1000
0000
,
0001
0010
0001
0100
0100
0000
0110
0000
,
0100
0010
1000
0001
1000
0100
0010
0000
,
1000
0010
0001
0000
0001
0100
0010
0000
,
0100
0000
0001
1000
0100
0010
0001
0000
,
1000
0110
0001
1000
,
0010
0110
0001
1000
,
0010
1001
1100
0101
,
0010
0110
0010
1000
,
0001
0000
0101
0000
0000
0000
0001
0100
,
0010
0100
0001
0000
1000
0000
0010
0000
,
1000
0001
1000
0000
0100
0000
1000
0100
,
0010
0100
1000
0000
0001
0000
0010
0000
,
0001
1000
0001
0000
0100
0000
0010
1000
,
0100
1000
0010
0000
0101
0000
0010
0001
,
0100
0001
0010
0000
1100
0000
0100
1000
,
0010
0100
0001
0000
0110
0000
0010
0001
,
0100
0010
1000
0000
0110
0000
1000
0010
,
0001
0010
1000
0000
0110
0000
0001
0100
,
1000
0100
0001
0000
0110
0000
1000
0100
,
0010
0001
1000
0000
0001
0000
0000
0001
,
0010
0100
1000
0000
0001
0000
1000
0000
,
0010
0000
0100
0000
0001
0000
0000
0100
0000
0000
1000
0000
0010
0000
0000
0000
,
1000
0000
0100
0000
0001
0000
0000
0010
0000
0000
1000
0000
0100
0000
1000
0000
,
0001
1000
0100
1000
0001
1000
0010
1000
,
0100
0010
0001
0100
0010
1000
0100
0000
,
0010
0000
0001
0000
0100
0000
0000
0001
0000
0000
0010
0000
1000
0000
0100
0000
,
0010
0000
0001
0000
1000
0000
0000
0100
0000
0000
0001
0000
0010
0000
0001
0000
,
1000
0001
0100
0001
1000
0010
0100
0010
,
1000
0100
0001
0000
1000
0000
1001
0000
,
1000
0100
0010
0001
0100
0010
1000
0000
,
0001
0010
0100
1000
0010
0100
0001
0000
,
1000
0010
1000
0100
0001
0100
1000
0000
,
0001
0010
0001
0100
0100
0000
0110
0000
,
0100
0010
1000
0001
1000
0100
0010
0000
,
1000
0010
0001
0000
0001
0100
0010
0000
,
0100
0000
0001
1000
0100
0010
0001
0000
,
1000
0110
0001
1000
,
0010
0110
0001
1000
,
0010
1001
1100
0101
,
0010
0110
0010
1000
,
0001
0000
0101
0000
0000
0000
0001
0100
,
0010
0100
0001
0000
1000
0000
0010
0000
,
1000
0001
1000
0000
0100
0000
1000
0100
,
0010
0100
1000
0000
0001
0000
0010
0000
,
0001
1000
0001
0000
0100
0000
0010
1000
,
0100
1000
0010
0000
0101
0000
0010
0001
,
0100
0001
0010
0000
1100
0000
0100
1000
,
0010
0100
0001
0000
0110
0000
0010
0001
,
0100
0010
1000
0000
0110
0000
1000
0010
,
0001
0010
1000
0000
0110
0000
0001
0100
,
1000
0100
0001
0000
0110
0000
1000
0100
,
0010
0001
1000
0000
0001
0000
0000
0001
,
0010
0100
1000
0000
0001
0000
0000
0000
;

//---------------dance-single - ----------------
#NOTES:
     dance-single:
     :
     Challenge:
     8:
     0.511667,0.482498,0.418241,0.083648,0.212923,405.000000,55.000000,11.000000,64.000000,0.000000,0.000000,0.511667,0.482498,0.418241,0.083648,0.212923,405.000000,55.000000,11.000000,64.000000,0.000000,0.000000:
0000
0000
0000
0000
,
0000
0000
0000
0000
,
0000
0000
0000
0000
,
0000
0000
0000
0000
,
0000
0000
0000
0000
,
0000
0000
0000
0000
,
0000
0000
0000
0000
,
0000
0000
0000
0000
,
1010
0000
0200
0000
0010
0010
0000
0000
0001
0000
0000
0000
0301
0000
0001
0000
,
0011
0000
0200
0000
0010
0010
0000
0000
1000
0000
0000
0000
1300
0000
1000
0000
,
0100
0000
2000
0000
0010
0000
0001
0000
3010
0000
0000
1000
0100
0000
0001
0000
,
0010
0000
0002
0000
0100
0000
1000
0000
0103
0000
0000
0001
0010
0000
1000
0000
,
0100
0000
0000
0200
1000
0000
0010
0000
1000
0000
0000
1000
0300
0000
0010
0000
,
0001
1000
0100
0001
0101
0110
1100
0000
,
0010
0000
0000
0000
0001
0000
0000
0000
0100
0000
0000
0000
1001
0000
0000
0000
0000
0000
0001
0000
0000
0100
0000
0000
,
1000
0000
0100
0000
0010
0000
1000
0100
0000
0000
0001
0000
0010
0000
0001
0000
,
0100
0000
0010
0000
0100
0000
0001
0010
0000
0000
1000
0000
0100
0000
1000
0000
,
0010
0000
0100
0000
0001
0000
0010
0100
0000
0000
1000
0000
0010
0000
0001
0000
,
0010
1000
1100
0110
0101
0000
0010
0001
,
0100
0000
0010
0000
1000
0000
0100
0001
0000
0000
0100
0000
1000
0000
0010
0000
,
0100
0001
1000
0010
1000
0100
1000
0010
,
0100
0001
1000
0010
0100
0001
1000
0001
,
0100
1000
0110
0000
0001
0000
1000
0100
,
0010
1100
0010
0100
,
0010
0101
1010
1100
,
0010
1001
0010
0100
,
0001
0000
1100
0000
0000
0000
0001
0100
,
1000
0010
0101
0000
0010
0000
0100
0000
,
1000
0010
0001
0000
0010
0000
1000
0100
,
0001
0010
1100
0000
0010
0000
0100
0000
,
0001
0000
0010
0000
1000
0000
0010
0000
1000
0001
1000
0001
0100
0000
0010
0000
,
1000
0100
0011
0000
1100
0000
0010
0001
,
0100
0000
0000
0010
0000
0000
0101
0000
0000
0000
0000
0000
1010
0000
0000
0000
0000
0000
000M
0000
0000
0010
0M00
0000
,
M001
0000
0000
0100
00M0
0000
100M
0000
00M0
0100
0000
0000
M110
0000
000M
0000
0000
0000
0M00
0000
0000
1000
0M0M
0000
,
0010
0000
000M
0100
M000
0000
00M1
0000
M000
0100
00M0
0000
0101
0000
0000
0000
0000
0000
1000
0000
0000
0010
0000
0000
,
0001
0100
1010
0000
0101
0000
0001
0100
,
1000
0000
0000
0010
0000
0000
0101
0000
0000
0000
0000
0000
1010
0000
0000
0000
0000
0000
0M00
0000
0000
0001
M000
0000
,
01M0
0000
0000
1000
000M
0000
0M10
0000
000M
0000
0000
0000
10M1
0000
0M00
0000
0000
0000
M000
0000
0000
0010
MM00
0000
,
0001
0000
0M00
1000
00M0
0000
010M
0000
00M0
0000
000M
0000
1100
0000
0000
0000
0000
0000
0010
0000
0000
1000
0000
0000
,
0200
0001
1300
0010
0100
0010
0001
1000
,
0020
0001
0130
0010
1000
0100
0010
0001
,
0200
1000
0310
0100
0001
1000
0010
1000
,
0200
0001
0310
0100
0010
0001
0100
0001
,
1000
0010
0200
1000
1300
0000
0100
0001
,
1000
0010
0200
0001
0301
0000
0010
0001
,
1000
0000
0101
0000
0010
1000
0100
0001
,
1000
0100
0001
0100
1000
0000
0001
0100
,
1000
0000
0100
0000
0010
0000
1000
0100
0000
0000
0001
0000
0010
0000
0001
0000
,
0100
0000
0010
0000
0100
0000
0001
0010
0000
0000
1000
0000
0100
0000
1000
0000
,
0010
0000
0100
0000
0001
0000
0010
0100
0000
0000
1000
0000
0010
0000
0001
0000
,
0010
1000
1100
0110
0101
0000
0010
0001
,
0100
0000
0010
0000
1000
0000
0100
0001
0000
0000
0100
0000
1000
0000
0010
0000
,
0100
0001
1000
0010
1000
0100
1000
0010
,
0100
0001
1000
0010
0100
0001
1000
0001
,
0100
1000
0110
0000
0001
0000
1000
0100
,
0010
1100
0010
0100
,
0010
0101
1010
1100
,
0010
1001
0010
0100
,
0001
0000
1100
0000
0000
0000
0001
0100
,
1000
0010
0101
0000
0010
0000
0100
0000
,
1000
0010
0001
0000
0010
0000
1000
0100
,
0001
0010
1100
0000
0010
0000
0100
0000
,
0001
0000
0010
0000
1000
0000
0010
0000
1000
0001
1000
0001
0100
0000
0010
0000
,
1000
0100
0011
0000
1100
0000
0010
0001
,
0100
0000
0000
0010
0000
0000
0101
0000
0000
0000
0000
0000
1010
0000
0000
0000
0000
0000
000M
0000
0000
0010
0M00
0000
,
M001
0000
0000
0100
00M0
0000
100M
0000
00M0
0100
0000
0000
M110
0000
000M
0000
0000
0000
0M00
0000
0000
1000
0M0M
0000
,
0010
0000
000M
0100
M000
0000
00M1
0000
M000
0100
00M0
0000
0101
0000
0000
0000
0000
0000
1000
0000
0000
0010
0000
0000
,
0001
0100
1010
0000
0101
0000
0001
0100
,
1000
0000
0000
0010
0000
0000
0101
0000
0000
0000
0000
0000
1010
0000
0000
0000
0000
0000
0M00
0000
0000
0001
M000
0000
,
01M0
0000
0000
1000
000M
0000
0M10
0000
000M
0000
0000
0000
10M1
0000
0M00
0000
0000
0000
M000
0000
0000
0010
MM00
0000
,
0001
0000
0M00
1000
00M0
0000
010M
0000
00M0
0000
000M
0000
1100
0000
0000
0000
0000
0000
0000
0000
0000
0000
0000
0000
;

//---------------dance-single - ----------------
#NOTES:
     dance-single:
     :
     Medium:
     6:
     0.357406,0.321666,0.045626,0.000000,0.000000,323.000000,6.000000,0.000000,0.000000,0.000000,0.000000,0.357406,0.321666,0.045626,0.000000,0.000000,323.000000,6.000000,0.000000,0.000000,0.000000,0.000000:
0000
0000
0000
0000
,
0000
0000
0000
0000
,
0000
0000
0000
0000
,
0000
0000
0000
0000
,
0000
0000
0000
0000
,
0000
0000
0000
0000
,
0000
0000
0000
0000
,
0000
0000
0000
0000
,
1000
0100
1000
0000
0010
0000
1000
0000
,
0001
0100
0001
0000
0010
0000
0001
0000
,
1000
0010
1000
0000
0100
0000
0010
0000
,
0001
0100
0001
0000
0010
0000
0100
0000
,
1000
0010
1000
0000
0100
0000
0010
0000
,
0001
1000
0001
0000
0100
0001
1000
0000
,
0010
1000
0010
0000
0100
0000
0010
1000
,
0010
0000
1000
0000
0100
0000
0010
0001
,
0010
0000
0100
0000
1000
0000
0001
0100
,
0001
0000
1000
0000
0010
0000
1000
0100
,
1000
0000
0001
1000
0100
0000
0010
0001
,
0100
0000
0001
0000
1000
0000
0001
0100
,
0001
0000
1000
0000
0010
0000
1000
0100
,
1000
0000
0001
0000
0010
0000
0001
0100
,
0001
1001
0100
0010
,
1000
0100
0010
0001
,
1000
1001
0000
0001
,
1000
0010
0100
0001
,
1000
0000
1001
0000
0000
0000
0001
1000
,
0100
1000
0001
0000
1000
0000
0001
0000
,
1000
0001
1000
0000
0001
0000
1000
0001
,
0100
0001
1000
0000
0001
0000
1000
0000
,
0001
1000
0001
0000
0010
0000
0001
1000
,
0001
1000
0100
0000
1000
0000
1000
0001
,
1000
0001
0100
0000
0001
0000
0001
1000
,
0001
1000
0010
0000
1000
0000
1000
0001
,
1000
0001
0010
0000
0001
0000
1000
0001
,
1000
0001
0100
0000
0001
0000
1000
0001
,
1000
0001
1000
0000
0100
0000
0010
0100
,
0010
0100
0010
0000
0100
0000
1000
0001
,
1000
0001
1000
0000
0001
0000
0100
0000
,
0000
0000
0010
1000
0010
0000
0100
0000
,
0100
0000
0010
1000
0001
0000
0010
0000
,
0010
0000
0100
1000
0001
0000
0100
0000
,
0100
0000
0010
1000
0100
0000
1000
0000
,
0000
0000
0001
0010
0100
0000
0010
0000
,
0001
0000
1000
0001
0100
0000
0010
1000
,
0010
0000
0100
0000
0001
0000
0010
0001
,
0010
0000
0100
0000
1000
0000
0010
1000
,
0010
0000
1000
0000
0100
0000
0010
0001
,
0010
0000
0100
0000
1000
0000
0001
0100
,
0001
0000
1000
0000
0010
0000
1000
0100
,
1000
0000
0001
1000
0100
0000
0010
0001
,
0100
0000
0001
0000
1000
0000
0001
0100
,
0001
0000
1000
0000
0010
0000
1000
0100
,
1000
0000
0001
0000
0010
0000
0001
0100
,
0001
1001
0100
0010
,
1000
0100
0010
0001
,
1000
1001
0000
0001
,
1000
0010
0100
0001
,
1000
0000
1001
0000
0000
0000
0001
1000
,
0100
1000
0001
0000
1000
0000
0001
0000
,
1000
0001
1000
0000
0001
0000
1000
0001
,
0100
0001
1000
0000
0001
0000
1000
0000
,
0001
1000
0001
0000
0010
0000
0001
1000
,
0001
1000
0100
0000
1000
0000
1000
0001
,
1000
0001
0100
0000
0001
0000
0001
1000
,
0001
1000
0010
0000
1000
0000
1000
0001
,
1000
0001
0010
0000
0001
0000
1000
0001
,
1000
0001
0100
0000
0001
0000
1000
0001
,
1000
0001
1000
0000
0100
0000
0010
0100
,
0010
0100
0010
0000
0100
0000
1000
0001
,
1000
0001
1000
0000
0001
0000
0000
0000
;

//---------------dance-single - ----------------
#NOTES:
     dance-single:
     :
     Easy:
     4:
     0.209664,0.213683,0.083648,0.000000,0.000000,182.000000,11.000000,0.000000,0.000000,0.000000,0.000000,0.209664,0.213683,0.083648,0.000000,0.000000,182.000000,11.000000,0.000000,0.000000,0.000000,0.000000:
// measure 0
0000
0000
0000
0000
,  // measure 1
0000
0000
0000
0000
,  // measure 2
0000
0000
0000
0000
,  // measure 3
0000
0000
0000
0000
,  // measure 4
0000
0000
0000
0000
,  // measure 5
0000
0000
0000
0000
,  // measure 6
0000
0000
0000
0000
,  // measure 7
0000
0000
0000
0000
,  // measure 8
1000
0100
0001
0000
,  // measure 9
0001
0100
1000
0000
,  // measure 10
1000
0001
0100
0000
,  // measure 11
1000
0001
1000
0000
,  // measure 12
0010
1000
0100
0000
,  // measure 13
0010
0001
1000
0000
,  // measure 14
0001
1000
0100
0000
,  // measure 15
0000
0001
0010
1000
,  // measure 16
0000
1000
0010
0001
,  // measure 17
0000
0001
0100
0010
,  // measure 18
1000
0100
0000
1000
,  // measure 19
0000
0010
1000
0100
,  // measure 20
0000
0010
0001
0100
,  // measure 21
0000
0001
0000
1000
,  // measure 22
0010
0100
0000
1001
,  // measure 23
0001
1000
0010
1000
,  // measure 24
0100
0010
0001
0001
,  // measure 25
1000
0010
0100
0001
,  // measure 26
1000
0001
0000
0010
,  // measure 27
0000
1001
0000
0100
,  // measure 28
0000
1001
0000
0010
,  // measure 29
0000
1001
0000
0100
,  // measure 30
0000
1001
0000
0001
,  // measure 31
0010
0100
1000
0001
,  // measure 32
0010
0100
1000
0001
,  // measure 33
0000
1000
0000
0001
,  // measure 34
0000
1000
0000
0010
,  // measure 35
1000
0100
0010
0001
,  // measure 36
1000
0100
0010
0001
,  // measure 37
0000
1000
0000
0010
,  // measure 38
0000
0100
0000
0001
,  // measure 39
0000
1000
0010
1000
,  // measure 40
0000
0001
0010
0001
,  // measure 41
0000
1000
0100
0010
,  // measure 42
0000
0001
0100
0010
,  // measure 43
0000
1000
0001
1000
,  // measure 44
0000
0010
0100
0010
,  // measure 45
0000
1000
0000
0100
,  // measure 46
0000
0010
0000
1001
,  // measure 47
0000
0001
0010
1000
,  // measure 48
0000
1000
0010
0001
,  // measure 49
0000
0001
0100
0010
,  // measure 50
1000
0100
0000
1000
,  // measure 51
0000
0010
1000
0100
,  // measure 52
0000
0010
0001
0100
,  // measure 53
0000
0001
0000
1000
,  // measure 54
0010
0100
0000
1001
,  // measure 55
0001
1000
0010
1000
,  // measure 56
0100
0010
0001
0001
,  // measure 57
1000
0010
0100
0001
,  // measure 58
1000
0001
0000
0010
,  // measure 59
0000
1001
0000
0100
,  // measure 60
0000
1001
0000
0010
,  // measure 61
0000
1001
0000
0100
,  // measure 62
0000
1001
0000
0001
,  // measure 63
0010
0100
1000
0001
,  // measure 64
0010
0100
1000
0001
,  // measure 65
0000
1000
0000
0001
,  // measure 66
0000
1000
0000
0010
,  // measure 67
1000
0100
0010
0001
,  // measure 68
1000
0100
0010
0001
,  // measure 69
0000
1000
0000
0010
,  // measure 70
0000
0100
0000
0000
;

//---------------dance-single - ----------------
#NOTES:
     dance-single:
     :
     Beginner:
     2:
     0.135793,0.133552,0.045626,0.000000,0.000000,119.000000,6.000000,0.000000,0.000000,0.000000,0.000000,0.135793,0.133552,0.045626,0.000000,0.000000,119.000000,6.000000,0.000000,0.000000,0.000000,0.000000:
0000
0000
0000
0000
,
0000
0000
0000
0000
,
0000
0000
0000
0000
,
0000
0000
0000
0000
,
0000
0000
0000
0000
,
0000
0000
0000
0000
,
0000
0000
0000
0000
,
0000
0000
0000
0000
,
1000
0000
0100
0000
,
0010
0000
0100
0000
,
0010
0000
0001
0000
,
1000
0000
0001
0000
,
0100
0000
0010
0000
,
1000
0000
0100
0000
,
0010
0000
1001
0000
,
0000
0010
0000
1000
,
0000
0010
0000
0001
,
0000
0010
0000
0100
,
0000
1000
0000
0001
,
0000
1000
0000
0010
,
0000
0100
0000
0001
,
0000
0010
0000
0100
,
0000
1000
0000
1001
,
0000
0000
0010
0010
,
0000
0000
1000
1000
,
0000
0000
0010
0010
,
0000
0000
0100
0100
,
0000
0000
0001
0001
,
0000
0000
0010
0010
,
0000
0000
0000
0001
,
0000
1000
0000
1001
,
0000
0000
0100
0100
,
0000
0000
0010
0010
,
0000
0000
1000
1000
,
0000
0000
0001
0001
,
0000
0000
0010
0010
,
0000
0000
0100
0000
,
0000
1000
0000
0000
,
0000
0001
0000
0010
,
0000
0001
0000
0100
,
0000
1000
0000
0100
,
0000
0001
0000
1000
,
0000
0010
0000
1000
,
0000
0100
0000
0010
,
0000
0001
0000
0100
,
0000
0010
0000
1000
,
0000
0001
0000
1001
,
0000
0010
0000
1000
,
0000
0010
0000
0001
,
0000
0010
0000
0100
,
0000
1000
0000
0001
,
0000
1000
0000
0010
,
0000
0100
0000
0001
,
0000
0010
0000
0100
,
0000
1000
0000
1001
,
0000
0000
0010
0010
,
0000
0000
1000
1000
,
0000
0000
0010
0010
,
0000
0000
0100
0100
,
0000
0000
0001
0001
,
0000
0000
0010
0010
,
0000
0000
0000
0001
,
0000
1000
0000
1001
,
0000
0000
0100
0100
,
0000
0000
0010
0010
,
0000
0000
1000
1000
,
0000
0000
0001
0001
,
0000
0000
0010
0010
,
0000
0000
0100
0000
,
0000
1000
0000
0000
,
0000
0001
0000
0000
;
