#TITLE:Primal Judgement (The Bowl of Embers);
#SUBTITLE:;
#ARTIST:Nobuo Uematsu;
#TITLETRANSLIT:;
#SUBTITLETRANSLIT:;
#ARTISTTRANSLIT:;
#GENRE:A Realm Reborn;
#CREDIT:;
#BANNER:Primal Judgement-bn.jpg;
#BACKGROUND:Primal Judgement-bg.jpg;
#LYRICSPATH:;
#CDTITLE:;
#MUSIC:Primal Judgement.mp3;
#OFFSET:-0.037000;
#SAMPLESTART:30.037382;
#SAMPLELENGTH:12.000002;
#LASTBEATHINT:378.000000;
#SELECTABLE:YES;
#BPMS:0.000000=80.000000
,32.000000=160.000000
,240.000000=320.000000
,368.000000=160.000000
;
#STOPS:
;
#BGCHANGES:;
#KEYSOUNDS:;
#ATTACKS:;

//---------------dance-single - ----------------
#NOTES:
     dance-single:
     :
     Challenge:
     11:
     0.735641,0.925393,0.136310,0.015146,1.048829,680.000000,662.000000,18.000000,2.000000,0.000000,0.000000,0.735641,0.925393,0.136310,0.015146,1.048829,680.000000,662.000000,18.000000,2.000000,0.000000,0.000000:
0000
0000
0000
0000
,
0000
0000
0000
0000
,
0000
0000
0000
0000
,
0000
0000
0000
0000
,
1001
0000
0000
0010
1000
0001
0010
0000
0000
0100
0000
0000
,
1001
0000
0000
0000
0000
0000
0100
0000
0001
0000
0010
0000
1000
0000
0000
0001
0000
0000
0100
0000
0000
0000
0000
0000
,
0110
0000
0000
0001
0010
0100
1000
0000
0000
0001
0000
0000
,
1001
0000
0000
0000
0000
0000
0010
0000
0001
0000
1000
0000
0010
0000
0000
0010
0000
0000
0100
0000
0000
0000
0000
0000
,
1001
0000
0000
0010
0001
0100
0010
0000
0000
0000
0000
0000
,
1000
0100
0001
0100
0000
0000
0000
1000
0100
1000
0000
0000
,
0001
0000
0000
0010
0001
0010
0100
0000
0000
0000
0000
0000
,
1000
0010
0001
0010
0000
0000
0000
0100
0001
0100
0000
0000
,
0001
0100
0010
1000
0010
0100
0001
0010
0100
1000
0100
0010
,
0001
1000
0010
0001
1000
0100
0001
1000
0010
0001
1000
0100
,
0001
0010
0100
1000
0010
0100
0001
0010
0100
1000
0010
0100
,
0001
0010
1000
0001
0100
1000
0001
0010
1000
0001
0100
1000
,
0001
0010
0001
0100
0010
1000
0010
0100
0001
1000
0000
0000
,
0010
1000
0010
0100
0001
0010
1000
0010
0001
0100
0000
0000
,
0010
1000
0100
0010
0001
1000
1000
0010
0001
0010
0000
0100
,
0001
0010
0100
1000
0100
0010
0001
1000
0010
0001
0010
1000
,
0100
0000
0000
0010
0001
0100
0010
0000
1000
0010
1000
0100
,
0001
0100
1000
0010
0000
0100
0001
0100
0010
1000
0000
1000
,
0001
0000
0001
0010
0100
1000
0010
0000
0010
0001
0010
1000
,
0001
0100
1000
0100
0000
0100
0010
1000
0001
0010
0100
1000
,
0010
0000
1000
0001
1000
0010
0100
0000
0100
0001
0000
0001
,
0010
0100
0010
0001
0000
1000
0100
0000
0010
1000
0010
0001
,
0100
0000
0010
0001
0010
0100
1000
0000
1000
0010
0000
1000
,
0001
1000
0010
0100
0000
0100
0001
0000
1000
0010
0100
0001
,
0010
0000
0010
0100
1000
0100
0010
0000
0001
1000
0000
0001
,
0010
0001
0100
0010
0000
1000
0001
0000
1000
0010
1000
0100
,
0001
0000
0001
0100
1000
0010
0100
0000
0100
0001
0000
1000
,
0010
0001
0010
1000
0000
0001
0100
1000
0100
0001
1000
0010
,
0100
0000
0001
0010
0001
1000
0010
0000
0001
0010
0000
1000
,
0100
0001
0100
0010
0001
1000
0010
0000
0100
0001
0000
1000
,
0010
0000
1000
0100
0010
1000
0010
0000
0001
0100
0010
0001
,
0010
1000
0001
1000
0000
1000
0100
0010
0001
0100
0000
0010
,
1000
0000
1000
0001
0010
0100
1000
0000
1000
0010
0000
0010
,
1000
0001
1000
0100
0000
0100
0010
0000
0001
0100
1000
0100
,
0010
0000
0000
0011
0000
0000
1010
0001
0010
0110
0000
0000
,
1010
0001
0100
0001
0000
0000
1001
0100
0010
1000
0010
0001
,
0101
0000
0000
1001
0000
0000
1000
0001
0100
0001
0000
0000
,
0001
1000
0010
1000
0000
0000
1000
0010
0001
1000
0100
0001
,
1000
0000
0000
1001
0000
0000
0001
0100
1000
0100
0000
0000
,
0001
0010
1000
0010
0000
0000
0001
0100
1000
0100
0001
1000
,
0010
0000
0000
0100
0000
0000
0001
0010
1000
0010
0000
0000
,
0100
1000
0100
0010
0000
0000
0001
0100
1000
0001
0010
1000
,
0001
0000
0000
0010
0000
0000
1000
0010
0001
0010
0000
0000
,
0001
1000
0100
0001
0000
0000
1000
0010
0100
1000
0001
0100
,
0010
0000
0000
1000
0000
0000
0001
0010
0100
1000
0000
0000
,
1000
0010
0001
0010
0000
0000
1000
0001
0100
0010
1000
0001
,
0010
0000
0000
0100
0000
0000
1000
0100
0001
0100
0000
0000
,
1000
0010
0001
0010
0000
0000
0100
0001
0100
0010
1000
0010
,
0100
0000
0000
0001
0000
0000
1000
0010
0001
0100
0000
0000
,
1000
0100
0001
0010
0000
0000
0100
1000
0001
0010
1000
0001
,
0100
0000
0000
0010
0000
0000
1000
0100
0001
1000
0000
0000
,
0010
0001
0100
0010
0000
0000
0100
1000
0100
0001
1000
0010
,
1010
0011
0101
1100
,
0100
0001
1000
0100
0001
1000
0100
0001
1000
0100
0001
1000
,
0010
0001
1000
0010
0001
1000
0010
0001
1000
0010
0001
1000
,
0010
0000
0000
0000
0001
0000
0000
0000
0100
0000
0000
0000
0010
0000
0000
0000
0001
0000
0000
0000
0100
0000
0000
0000
0010
0000
0000
0000
0000
0000
1000
0000
0000
0100
0000
0000
0010
0000
0000
0001
0000
0000
0100
0000
0000
0010
0000
0000
,
1000
0100
1000
0100
1000
0000
0000
0000
,
0001
0010
0001
0010
0001
0000
0000
0000
,
1000
0010
1000
0010
1000
0000
0000
0000
,
0001
0100
0001
0100
0001
0000
0000
0000
,
1000
0010
0100
0001
0010
0000
0000
0000
,
0100
1000
0001
0100
0010
0000
0000
0000
,
1000
0100
0001
0100
1000
0000
0000
0000
,
0010
0001
0010
0100
1000
0000
0000
0000
,
0010
1000
0010
0100
0001
0000
0000
0000
,
1000
0010
0100
0001
0010
0000
0000
0000
,
0001
0100
1000
0100
0001
0000
0000
0000
,
1000
0010
0100
1000
0100
0000
0000
0000
,
0010
0001
0100
0010
0100
0000
0000
0000
,
0001
1000
0010
0100
0001
0000
0000
0000
,
1000
0100
0001
0100
1000
0000
0000
0000
,
0010
1000
0100
0010
0001
0000
0000
0000
,
1000
0010
0100
0001
0010
0000
0000
0000
,
0100
1000
0001
0100
0010
0000
0000
0000
,
1000
0010
0100
0001
0010
0000
0000
0000
,
0001
0010
1000
0010
0001
0000
0000
0000
,
1000
0100
0010
0100
1000
0000
0000
0000
,
0001
0010
0100
1000
0100
0000
0000
0000
,
0010
0001
1000
0010
0100
0000
0000
0000
,
0010
1000
0001
0010
0100
0000
0000
0000
,
1000
0100
0010
0001
0100
0000
0000
0000
,
0010
1000
0001
0010
0100
0000
0000
0000
,
1000
0100
0010
0001
1000
0000
0000
0000
,
0001
0010
1000
0010
0001
0000
0000
0000
,
1000
0100
0010
0001
0100
0000
0000
0000
,
0010
1000
0010
0001
0100
0000
0000
0000
,
1000
0100
0001
0100
0010
0000
0000
0000
,
1000
0001
0100
0010
0100
0000
0000
0000
,
2002
0000
0000
0000
,
0000
0000
0000
0000
,
3003
0000
0000
0000
;

//---------------dance-single - ----------------
#NOTES:
     dance-single:
     :
     Hard:
     9:
     0.596086,0.676249,0.666404,0.030291,0.378639,551.000000,463.000000,88.000000,4.000000,0.000000,0.000000,0.596086,0.676249,0.666404,0.030291,0.378639,551.000000,463.000000,88.000000,4.000000,0.000000,0.000000:
0000
0000
0000
0000
,
0000
0000
0000
0000
,
0000
0000
0000
0000
,
0000
0000
0000
0000
,
1000
0000
0000
0100
0010
0100
1001
0000
0000
0010
0000
0000
,
0001
0000
0000
0000
0000
0000
0100
0000
0010
0000
0100
0000
0010
0000
0000
1000
0000
0000
0100
0000
0000
0000
0000
0000
,
0010
0000
0000
0001
1000
0010
0110
0000
0000
0100
0000
0000
,
0001
0000
0000
0000
0000
0000
1000
0000
0100
0000
0010
0000
0001
0000
0000
1000
0000
0000
0010
0000
0000
0000
0000
0000
,
1001
0000
0000
0001
0010
0001
0010
0000
0000
0000
0000
0000
,
1000
0100
1000
0100
0000
0000
0000
0010
0001
0100
0000
0000
,
1001
0000
0000
0001
0100
0001
0100
0000
0000
0000
0000
0000
,
0010
1000
0010
1000
0000
0000
0000
1000
0100
1000
0000
0000
,
0001
0000
0001
0010
0000
0010
0100
0000
0100
1000
0000
1000
,
0010
0000
0010
1000
0000
1000
0100
0000
0100
0001
0000
0001
,
0010
0000
0010
0001
0000
0001
0100
0000
0100
1000
0000
1000
,
0010
0000
0010
1000
0000
1000
0100
0000
0100
0010
0000
0000
,
2001
0010
0001
0100
,
0001
0010
3100
0110
,
1000
0000
1000
0010
0000
0010
1000
0000
1000
0100
0000
0100
,
0001
0000
0001
0100
0000
0100
1000
0000
1000
0001
0000
0000
,
1002
0010
1000
0100
,
0010
1000
0103
0110
,
0001
0000
0001
1000
0000
1000
0010
0000
0010
0100
0000
0100
,
0001
0000
0001
0010
0000
0010
0100
0000
0100
1000
0000
0000
,
0101
0000
0000
1000
0000
0001
1000
0000
0010
0100
0000
0000
,
0001
0000
0010
0001
0000
1000
0010
0000
0100
0001
0000
0000
,
1100
0000
0000
0010
0000
0100
0010
0000
1000
0100
0000
0000
,
0010
0000
0001
0100
0000
0010
1000
0000
0001
0010
0000
0000
,
1001
0000
0000
0010
0000
0001
0100
0000
0010
1000
0000
0000
,
0001
0000
0010
0001
0000
1000
0010
0000
0100
0001
0000
0000
,
1100
0000
0000
0010
0000
0100
0010
0000
1000
0100
0000
0000
,
0010
0000
0001
0010
0000
0001
0100
0000
0010
1000
0000
0000
,
0110
0000
0000
0001
0000
1000
0001
0000
0100
0010
0000
0000
,
1000
0000
0001
0010
0000
0100
1000
0000
0001
0100
0000
0000
,
0110
0000
0000
0010
0000
1000
0010
0000
0100
0001
0000
0000
,
1000
0000
0010
0001
0000
0010
1000
0000
0001
1000
0000
0000
,
1001
0000
0000
0010
0000
0001
0010
0000
0100
1000
0000
0000
,
0001
0000
1000
0010
0000
0100
0001
0000
1000
0010
0000
0000
,
1010
0000
0000
1001
0000
0000
1000
0010
1000
0010
0000
0000
,
1000
0100
1000
0100
0000
0000
0010
0001
0010
0001
0010
0001
,
1000
0000
0000
0001
0000
0000
0100
0001
0100
0001
0000
0000
,
1000
0010
1000
0010
0000
0000
1000
0100
1000
0100
1000
0100
,
1000
0000
0010
0100
0001
0000
0010
0001
,
1000
0101
1010
1100
,
0010
0000
0001
1000
0010
0000
0100
0001
,
1000
0110
1001
0000
,
0010
0000
0001
0100
1000
0000
1000
0100
,
0001
0110
1001
1010
,
0110
0011
1010
1100
,
0101
1001
0011
0110
,
1100
0000
0001
0010
1000
0000
1000
0100
,
0001
1010
0011
0110
,
1001
0000
0100
0001
0010
0000
1000
0100
,
0010
0110
1001
0000
,
1010
0000
0001
1000
0010
0000
0100
0001
,
1000
0001
0010
0100
,
0011
0110
1100
0110
,
0011
1010
0110
1010
,
1001
1010
1001
0101
,
1100
0110
0011
1010
,
1000
0001
1000
0000
1001
0000
0000
0000
,
0001
0100
0001
0000
0101
0000
0000
0000
,
1000
0010
1000
0000
1010
0000
0000
0000
,
0010
0100
0010
0000
0110
0000
0000
0000
,
0001
0010
0001
0000
0101
0000
0000
0000
,
1000
0100
1000
0000
1010
0000
0000
0000
,
1000
0100
1000
0000
1100
0000
0000
0000
,
0100
0010
0100
0000
1001
0000
0000
0000
,
0010
0001
0010
0000
0110
0000
0000
0000
,
0001
0100
0001
0000
1001
0000
0000
0000
,
1000
0010
1000
0000
1001
0000
0000
0000
,
0001
0010
0001
0000
0011
0000
0000
0000
,
0001
0100
0001
0000
0110
0000
0000
0000
,
1000
0100
1000
0000
0101
0000
0000
0000
,
0010
0100
0010
0000
1001
0000
0000
0000
,
0010
1000
0010
0000
1100
0000
0000
0000
,
1000
0001
0100
0000
0110
0000
0000
0000
,
0001
1000
0010
0000
1010
0000
0000
0000
,
1000
0100
0010
0000
0110
0000
0000
0000
,
0001
1000
0100
0000
0101
0000
0000
0000
,
0001
1000
0010
0000
1010
0000
0000
0000
,
1000
0010
0100
0000
0110
0000
0000
0000
,
0001
1000
0010
0000
0011
0000
0000
0000
,
1000
0001
0100
0000
1100
0000
0000
0000
,
0100
1000
0010
0000
1100
0000
0000
0000
,
0010
0001
0100
0000
0011
0000
0000
0000
,
1000
0001
0010
0000
0110
0000
0000
0000
,
0001
1000
0100
0000
1001
0000
0000
0000
,
0100
0001
1000
0000
0101
0000
0000
0000
,
0010
1000
0001
0000
1010
0000
0000
0000
,
0100
0010
0100
0010
0100
0000
0000
0000
,
1000
0001
1000
0001
1000
0000
0000
0000
,
2002
0000
0000
0000
,
0000
0000
0000
0000
,
3003
0000
0000
0000
;

//---------------dance-single - ----------------
#NOTES:
     dance-single:
     :
     Medium:
     7:
     0.452203,0.640657,0.378639,0.121164,0.223397,418.000000,368.000000,50.000000,16.000000,0.000000,0.000000,0.452203,0.640657,0.378639,0.121164,0.223397,418.000000,368.000000,50.000000,16.000000,0.000000,0.000000:
// measure 0
0000
0000
0000
0000
,  // measure 1
0000
0000
0000
0000
,  // measure 2
0000
0000
0000
0000
,  // measure 3
0000
0000
0000
0000
,  // measure 4
1000
0000
0000
0001
1000
0001
1000
0000
0000
0010
0000
0000
,  // measure 5
0100
0000
0000
0000
0000
0000
0001
0000
1000
0000
0001
0000
0100
0000
0000
0001
0000
0000
0100
0000
0000
0000
0000
0000
,  // measure 6
0010
0000
0000
1000
0001
1000
0001
0000
0000
0100
0000
0000
,  // measure 7
0010
0000
0000
0000
0000
0000
1000
0000
0100
0000
1000
0000
0100
0000
0000
0010
0000
0000
0001
0000
0000
0000
0000
0000
,  // measure 8
1001
0000
0000
0001
0000
0010
0001
0000
0000
0000
0000
0000
,  // measure 9
1000
0000
0010
1000
0000
0000
0000
0000
0001
0100
0000
0000
,  // measure 10
0010
0000
0000
1000
0000
0001
1000
0000
0000
0000
0000
0000
,  // measure 11
0010
0000
0100
0010
0000
0000
0000
0000
1000
0100
0000
0000
,  // measure 12
0010
0000
0000
0001
0000
1000
0001
0000
0000
0000
0000
0000
,  // measure 13
0100
0000
0010
0100
0000
0000
0000
0000
0001
1000
0000
0000
,  // measure 14
0010
0000
0000
1000
0000
0001
1000
0000
0000
0000
0000
0000
,  // measure 15
0010
0000
0100
0010
0000
0000
0000
0000
1000
0001
0000
0000
,  // measure 16
0010
0001
0100
0010
,  // measure 17
1000
0001
0010
0100
,  // measure 18
1000
0000
0000
0010
0000
0000
1000
0000
0100
1000
0000
0000
,  // measure 19
0001
0000
0010
0001
0000
0000
0100
0000
0000
0110
0000
0000
,  // measure 20
1001
0000
0000
0010
0000
0000
1000
0000
0001
1000
0000
0000
,  // measure 21
0010
0000
1000
0001
0000
0000
0010
0000
0000
0110
0000
0000
,  // measure 22
0001
0000
0000
1000
0000
0000
0001
0000
0100
0001
0000
0000
,  // measure 23
1000
0000
0010
1000
0000
0000
0100
0000
0100
0010
0000
0000
,  // measure 24
1001
0000
0000
0001
0000
1000
0001
0000
0000
0010
0000
0000
,  // measure 25
0001
0000
1000
0001
0000
0000
0100
0000
0010
0100
0000
0000
,  // measure 26
0010
0000
0000
1000
0000
0010
1000
0000
0000
0100
0000
0000
,  // measure 27
0010
0000
0001
0010
0000
0000
0100
0000
1000
0100
0000
0000
,  // measure 28
0010
0000
0000
0001
0000
1000
0001
0000
0000
0100
0000
0000
,  // measure 29
0010
0000
1000
0010
0000
0000
0100
0000
0001
1000
0000
0000
,  // measure 30
0010
0000
0000
0100
0000
0001
0010
0000
0000
0100
0000
0000
,  // measure 31
1000
0000
0010
1000
0000
0000
0100
0000
0010
0100
0000
0000
,  // measure 32
1000
0000
0000
0001
0000
1000
0010
0000
0000
0100
0000
0000
,  // measure 33
0001
0000
0010
0001
0000
0000
1000
0000
0010
1000
0000
0000
,  // measure 34
0001
0000
0000
1000
0000
0010
0100
0000
0000
0001
0000
0000
,  // measure 35
1000
0000
0001
0100
0000
0000
0010
0000
1000
0100
0000
0000
,  // measure 36
1001
0000
0000
0010
0000
0001
1000
0000
0000
0100
0000
0000
,  // measure 37
0010
0000
0100
1000
0000
0000
0010
0000
0000
0100
0000
0000
,  // measure 38
0010
0000
0000
1000
0000
0000
0001
1000
0001
1000
0000
0000
,  // measure 39
0010
1000
0010
1000
0000
0000
0001
0100
0001
0100
0000
0000
,  // measure 40
0101
0000
0000
1001
0000
0000
0001
1000
0001
1000
0000
0000
,  // measure 41
0010
1000
0010
1000
0000
0000
0100
1000
0100
1000
0000
0000
,  // measure 42
0002
0000
0003
0010
0200
0000
0300
1000
,  // measure 43
0010
0100
0010
1000
,  // measure 44
0002
0000
0003
1000
0200
0000
0300
0010
,  // measure 45
0200
0000
0000
0300
,  // measure 46
2000
0000
3000
0001
0020
0000
0030
0100
,  // measure 47
1000
0001
0100
0010
,  // measure 48
1010
0110
1001
0110
,  // measure 49
0011
0110
1001
0110
,  // measure 50
2000
0000
3000
0001
0200
0000
0300
0010
,  // measure 51
1000
0100
0010
0100
,  // measure 52
2000
0000
3000
0001
0020
0000
0030
0100
,  // measure 53
2000
0000
0000
3000
,  // measure 54
0020
0000
0030
0100
0002
0000
0003
1000
,  // measure 55
0010
1000
0001
1000
,  // measure 56
1010
1001
1100
1001
,  // measure 57
0101
1001
0011
1001
,  // measure 58
0101
1001
1010
0110
,  // measure 59
0011
0110
1010
1001
,  // measure 60
0101
0100
0010
0000
,  // measure 61
1000
0001
0010
0000
,  // measure 62
0100
1000
0001
0000
,  // measure 63
0010
0001
1000
0000
,  // measure 64
0010
1000
0001
0000
,  // measure 65
0100
0001
1000
0000
,  // measure 66
0010
1000
0100
0000
,  // measure 67
0010
0001
1000
0000
,  // measure 68
0010
1000
0001
0000
,  // measure 69
0100
0001
1000
0000
,  // measure 70
0010
1000
0100
0000
,  // measure 71
0010
0001
0100
0000
,  // measure 72
0010
1000
0001
0000
,  // measure 73
0010
0001
1000
0000
,  // measure 74
0010
1000
0010
0000
,  // measure 75
0100
0001
1000
0000
,  // measure 76
0101
0001
0100
0000
,  // measure 77
1010
1000
0010
0000
,  // measure 78
0110
0100
0010
0000
,  // measure 79
1001
1000
0001
0000
,  // measure 80
0011
0010
0001
0000
,  // measure 81
1100
0100
1000
0000
,  // measure 82
0101
0100
0001
0000
,  // measure 83
1001
1000
0001
0000
,  // measure 84
0110
1000
0001
0000
,  // measure 85
1100
0001
0100
0000
,  // measure 86
1010
0001
0010
0000
,  // measure 87
0101
1000
0100
0000
,  // measure 88
0110
0001
0010
0000
,  // measure 89
1001
0100
0010
0000
,  // measure 90
0110
1000
0001
0000
,  // measure 91
1001
0010
0100
0000
,  // measure 92
2002
0000
0000
0000
,  // measure 93
0000
0000
0000
0000
,  // measure 94
3003
0000
0000
0000
;

//---------------dance-single - ----------------
#NOTES:
     dance-single:
     :
     Easy:
     5:
     0.332120,0.640657,0.431648,0.681550,0.000000,307.000000,250.000000,57.000000,90.000000,0.000000,0.000000,0.332120,0.640657,0.431648,0.681550,0.000000,307.000000,250.000000,57.000000,90.000000,0.000000,0.000000:
// measure 0
0000
0000
0000
0000
,  // measure 1
0000
0000
0000
0000
,  // measure 2
0000
0000
0000
0000
,  // measure 3
0000
0000
0000
0000
,  // measure 4
0010
1000
0100
0010
,  // measure 5
0001
0000
1000
0000
0010
1000
0100
0000
,  // measure 6
0010
1000
0100
0010
,  // measure 7
0001
0000
1000
0000
0010
0100
0001
0000
,  // measure 8
1001
0001
0100
0000
,  // measure 9
0001
0010
0000
1001
,  // measure 10
0010
0001
0100
0000
,  // measure 11
0010
1000
0000
1001
,  // measure 12
0010
1000
0010
0100
,  // measure 13
0001
0010
0100
0100
,  // measure 14
1000
0100
0010
0001
,  // measure 15
1000
0010
0100
0001
,  // measure 16
2002
0000
0000
0000
,  // measure 17
0000
0000
3003
0000
,  // measure 18
0010
1000
0100
0001
,  // measure 19
0100
1000
0010
0100
,  // measure 20
0220
0000
0000
0000
,  // measure 21
0000
0000
0330
0000
,  // measure 22
0001
0100
0010
1000
,  // measure 23
0001
0010
0001
0100
,  // measure 24
1001
0010
0100
0010
,  // measure 25
1000
0100
0010
0001
,  // measure 26
1000
1010
0001
0011
,  // measure 27
1000
1010
0001
0011
,  // measure 28
1000
0001
0100
0010
,  // measure 29
1000
0100
0001
0100
,  // measure 30
1000
1100
0001
0101
,  // measure 31
1000
1100
0001
0101
,  // measure 32
1000
0100
0010
0100
,  // measure 33
0010
0001
0100
0010
,  // measure 34
1000
0001
0010
0100
,  // measure 35
1000
0001
0100
0010
,  // measure 36
1000
1100
0010
0110
,  // measure 37
0001
1001
0010
0110
,  // measure 38
0101
0101
1000
1000
,  // measure 39
1010
1010
0100
0100
,  // measure 40
0011
0110
1100
1100
,  // measure 41
0110
0110
0011
0011
,  // measure 42
1001
0000
0000
0010
0100
0000
0000
1000
,  // measure 43
0010
0100
0010
1000
,  // measure 44
0001
0000
0000
1000
0100
0000
0000
0010
,  // measure 45
0200
0000
0000
0300
,  // measure 46
1000
0000
0000
0001
0010
0000
0000
0100
,  // measure 47
1000
0001
0100
0010
,  // measure 48
2000
3001
0200
0301
,  // measure 49
0020
0130
0002
0103
,  // measure 50
1000
0000
0000
0001
0100
0000
0000
0010
,  // measure 51
1000
0100
0010
0100
,  // measure 52
1000
0000
0000
0001
0010
0000
0000
0100
,  // measure 53
2000
0000
0000
3000
,  // measure 54
0010
0000
0000
0100
0001
0000
0000
1000
,  // measure 55
0010
1000
0001
1000
,  // measure 56
0020
0130
2000
3001
,  // measure 57
0200
0301
0020
0130
,  // measure 58
0002
0103
2000
3010
,  // measure 59
0200
0310
2000
3001
,  // measure 60
0202
0000
0303
0000
,  // measure 61
2020
0000
3030
0000
,  // measure 62
2002
0000
0000
0000
,  // measure 63
3003
0000
0020
0000
,  // measure 64
2030
0000
3200
0000
,  // measure 65
0320
0000
0032
0000
,  // measure 66
2003
0000
3020
0000
,  // measure 67
2030
0000
3100
0000
,  // measure 68
0220
0000
0330
0000
,  // measure 69
2002
0000
3003
0000
,  // measure 70
0220
0000
0000
0000
,  // measure 71
0330
0000
0002
0000
,  // measure 72
0203
0000
0320
0000
,  // measure 73
2030
0000
3002
0000
,  // measure 74
0203
0000
0320
0000
,  // measure 75
2030
0000
0000
3000
,  // measure 76
2002
0000
3003
0000
,  // measure 77
0022
0000
0033
0000
,  // measure 78
2002
0000
3003
0000
,  // measure 79
0000
0000
2020
3030
,  // measure 80
0220
0330
0202
0303
,  // measure 81
0220
0330
2020
3030
,  // measure 82
2002
3003
0220
0330
,  // measure 83
2002
3003
0220
0330
,  // measure 84
2002
0000
3003
0000
,  // measure 85
0022
0000
0033
0000
,  // measure 86
2002
0000
0000
0000
,  // measure 87
3003
0000
0020
0000
,  // measure 88
2030
0000
3200
0000
,  // measure 89
0320
0000
0031
0000
,  // measure 90
0202
0303
2002
3003
,  // measure 91
2200
3300
2002
3003
,  // measure 92
0220
0000
0000
0000
,  // measure 93
0000
0000
0000
0000
,  // measure 94
0330
0000
0000
0000
;

//---------------dance-single - ----------------
#NOTES:
     dance-single:
     :
     Beginner:
     3:
     0.167683,0.320328,0.121164,0.106019,0.000000,155.000000,139.000000,16.000000,14.000000,0.000000,0.000000,0.167683,0.320328,0.121164,0.106019,0.000000,155.000000,139.000000,16.000000,14.000000,0.000000,0.000000:
// measure 0
0000
0000
0000
0000
,  // measure 1
0000
0000
0000
0000
,  // measure 2
0000
0000
0000
0000
,  // measure 3
0000
0000
0000
0000
,  // measure 4
0010
0000
0110
0000
,  // measure 5
1000
0000
1001
0000
,  // measure 6
0010
0000
0110
0000
,  // measure 7
0010
0000
1001
0000
,  // measure 8
0001
0000
0010
0000
,  // measure 9
0001
0000
1000
0000
,  // measure 10
0010
0000
0100
0000
,  // measure 11
0001
0000
0010
0000
,  // measure 12
0100
0000
1000
0000
,  // measure 13
0001
0000
1000
0000
,  // measure 14
0010
0000
0100
0000
,  // measure 15
0001
0000
0010
0000
,  // measure 16
2002
0000
0000
0000
,  // measure 17
0000
0000
3003
0000
,  // measure 18
0010
0000
1000
0000
,  // measure 19
0001
0000
0100
0000
,  // measure 20
0220
0000
0000
0000
,  // measure 21
0000
0000
0330
0000
,  // measure 22
0001
0000
0010
0000
,  // measure 23
0100
0000
1000
0000
,  // measure 24
2002
0000
0000
0000
,  // measure 25
0000
0000
3003
0000
,  // measure 26
0100
0000
0001
0000
,  // measure 27
0010
0000
1000
0000
,  // measure 28
0220
0000
0000
0000
,  // measure 29
0000
0000
0330
0000
,  // measure 30
0001
0000
0010
0000
,  // measure 31
0100
0000
1000
0000
,  // measure 32
2002
0000
0000
0000
,  // measure 33
0000
0000
3003
0000
,  // measure 34
0010
0000
0001
0000
,  // measure 35
1000
0000
0010
0000
,  // measure 36
0220
0000
0000
0000
,  // measure 37
0000
0000
0330
0000
,  // measure 38
1001
0000
1001
0000
,  // measure 39
0110
0000
0110
0000
,  // measure 40
0001
0000
1000
0000
,  // measure 41
0010
0000
0100
0000
,  // measure 42
1001
0000
0010
0000
,  // measure 43
0001
0000
0010
0000
,  // measure 44
1000
0000
0100
0000
,  // measure 45
0010
0000
0000
0000
,  // measure 46
0001
0000
1000
0000
,  // measure 47
0010
0000
0100
0000
,  // measure 48
0001
0000
0010
0000
,  // measure 49
0100
0000
1000
0000
,  // measure 50
0010
0000
1000
0000
,  // measure 51
0001
0000
0010
0000
,  // measure 52
0100
0000
1000
0000
,  // measure 53
0001
0000
0000
0000
,  // measure 54
1000
0000
0010
0000
,  // measure 55
0100
0000
0001
0000
,  // measure 56
0010
0000
0100
0000
,  // measure 57
0010
0000
0100
0000
,  // measure 58
1000
0000
0001
0000
,  // measure 59
0100
0100
0100
0100
,  // measure 60
0100
0000
0000
0000
,  // measure 61
0010
0000
0000
0000
,  // measure 62
1000
0000
0000
0000
,  // measure 63
0001
0000
0000
0000
,  // measure 64
0010
0000
0010
0000
,  // measure 65
0010
0000
0010
0000
,  // measure 66
0010
0000
0010
0000
,  // measure 67
0010
0000
0000
0000
,  // measure 68
0100
0000
0000
0000
,  // measure 69
1000
0000
0000
0000
,  // measure 70
0001
0000
0000
0000
,  // measure 71
0010
0000
0000
0000
,  // measure 72
0100
0000
0100
0000
,  // measure 73
0100
0000
0100
0000
,  // measure 74
0100
0000
0100
0000
,  // measure 75
0100
0000
0000
0000
,  // measure 76
1000
0000
0000
0000
,  // measure 77
0010
0000
0000
0000
,  // measure 78
0100
0000
0000
0000
,  // measure 79
0001
0000
0000
0000
,  // measure 80
1000
0000
1000
0000
,  // measure 81
1000
0000
1000
0000
,  // measure 82
1000
0000
1000
0000
,  // measure 83
1000
0000
0000
0000
,  // measure 84
0010
0000
0000
0000
,  // measure 85
1000
0000
0000
0000
,  // measure 86
0001
0000
0000
0000
,  // measure 87
0010
0000
0000
0000
,  // measure 88
0100
0000
0100
0000
,  // measure 89
0100
0000
0100
0000
,  // measure 90
0100
0000
0100
0000
,  // measure 91
0100
0000
0000
0000
,  // measure 92
2002
0000
0000
0000
,  // measure 93
0000
0000
0000
0000
,  // measure 94
3003
0000
0000
0000
;
