#TITLE:Open Eye Signal;
#SUBTITLE:;
#ARTIST:Jon Hopkins;
#TITLETRANSLIT:;
#SUBTITLETRANSLIT:;
#ARTISTTRANSLIT:;
#GENRE:Immunity;
#CREDIT:;
#BANNER:Open Eye Signal-bn.jpg;
#BACKGROUND:Open Eye Signal-bg.jpg;
#LYRICSPATH:;
#CDTITLE:;
#MUSIC:Open Eye Signal.mp3;
#OFFSET:-0.499000;
#SAMPLESTART:25.476234;
#SAMPLELENGTH:23.510204;
#LASTBEATHINT:289.000000;
#SELECTABLE:YES;
#BPMS:0.000000=122.500008
;
#STOPS:
;
#BGCHANGES:;
#KEYSOUNDS:;
#ATTACKS:;

//---------------dance-single - ----------------
#NOTES:
     dance-single:
     :
     Hard:
     9:
     0.597419,0.570350,0.158983,0.000000,0.362895,605.000000,582.000000,23.000000,0.000000,0.000000,0.000000,0.597419,0.570350,0.158983,0.000000,0.362895,605.000000,582.000000,23.000000,0.000000,0.000000,0.000000:
0000
0000
0000
0000
,
0000
0000
0000
0000
0000
0000
0010
1000
,
0100
1000
0010
0100
0010
0000
1000
0100
,
1000
0001
0100
0001
1000
0000
0001
0010
,
0100
0010
0001
0100
0010
0100
0001
0100
,
0001
0000
1000
0010
0100
0010
1000
0100
,
0001
0100
1000
0010
1000
0000
0001
0100
,
0010
0100
0001
0010
1000
0010
0100
1000
,
0100
0000
1000
0010
0001
0010
1000
0010
,
0100
0001
0100
0010
1000
0000
0001
0100
,
0010
1000
0100
0010
0100
1000
0010
1000
,
0100
0000
0010
0001
1000
0010
0001
0010
,
1000
0001
0100
0001
1000
0000
0001
0100
,
1000
0100
0001
0010
0100
0010
0001
1000
,
0010
0000
0100
0001
0010
0100
1000
0010
,
0001
0000
0010
0000
1000
0000
0100
0000
0001
0000
0100
0000
1000
0100
0000
0010
,
0000
0001
0100
0000
0010
0000
1000
0000
0001
0000
1000
0000
0010
0000
0100
0000
,
0010
0000
1000
0000
0001
0100
0000
0010
0000
1000
0100
0000
0010
0000
0001
0000
,
1000
0000
0010
0000
1000
0000
0001
0000
1000
0000
0100
0000
0010
0001
0000
0100
,
0000
0010
1000
0000
0001
0000
1000
0000
0010
0000
0100
0000
0001
0000
0010
0000
,
0100
0000
1000
0000
0001
0010
0000
0001
0000
1000
0100
0000
0010
0000
0100
0000
,
1000
0000
0001
0000
0100
0000
0001
0000
1000
0000
0010
0000
1000
0001
0000
0100
,
0000
0001
1000
0000
0010
0000
0100
0000
0001
0000
1000
0000
0100
0000
1000
0000
,
0001
0000
0010
0000
0001
0100
0000
0010
0000
1000
0100
0000
1000
0000
0010
0000
,
0100
0000
0001
0000
0010
0000
0100
0000
0010
0000
0001
0000
1000
0010
0000
0100
,
0000
0001
0010
0000
0100
0000
0010
0000
0001
0000
1000
0000
0100
0000
1000
0000
,
0001
0000
0100
0000
0001
1000
0000
0100
0000
1000
0010
0000
0100
0000
0001
0000
,
1000
0000
0100
0000
0001
0000
0100
0000
1000
0000
0010
0000
0100
0001
0000
1000
,
0000
0010
0100
0000
0001
0000
1000
0000
0001
0000
0010
0000
0100
0000
1000
0000
,
0001
0000
1000
0000
0010
1000
0000
0100
0000
1000
0001
0000
0100
0000
1000
0000
,
0100
0000
0001
0000
1000
0000
0010
0000
1000
0000
0001
0000
0010
0001
0000
1000
,
0000
0100
0010
0000
0100
0000
1000
0000
0001
0000
1000
0000
0010
0000
0100
0000
,
0001
1000
0001
0000
0101
0000
1000
0010
,
1000
0000
0001
0000
1100
0000
0010
1000
,
0010
0000
0000
0000
0000
0100
0000
0001
0000
1000
0100
0000
0010
0000
0100
0000
,
1000
0000
0001
0000
0000
0000
1000
0000
0010
0000
1000
0000
0000
0001
0000
0100
,
0000
0010
1000
0000
0001
0000
1000
0000
0100
0000
0010
0000
0100
0000
1000
0000
,
0001
0000
1000
0000
0001
0010
0000
0100
0000
1000
0100
0000
0010
0000
0001
0000
,
1000
0000
0010
0000
0100
0000
0001
0000
0100
0000
0010
0000
1000
0010
0000
0100
,
0000
0001
0100
0000
0010
0000
1000
0000
0010
0000
0100
0000
0001
0000
0100
0000
,
0010
0000
1000
0000
0001
0010
0000
0100
0000
1000
0010
0000
0001
0000
0010
0000
,
1000
0000
0001
0000
0100
0000
1000
0000
0001
0000
0010
0000
1000
0010
0000
0100
,
0000
0001
0010
0000
0100
0000
1000
0000
0001
0000
0010
0000
1000
0000
0001
0000
,
0100
0000
1000
0000
0001
0010
0000
0100
0000
1000
0010
0000
0100
0000
0001
0000
,
1000
0000
0010
0000
0001
0000
1000
0000
0100
0000
0001
0000
1000
0010
0000
0100
,
0000
0001
0010
0000
0100
0000
0001
0000
1000
0000
0010
0000
0001
0000
1000
0000
,
0100
0000
0001
0000
1000
0100
0000
0001
0000
1000
0010
0000
0001
0000
1000
0000
,
0100
0000
0001
0000
1000
0000
0010
0000
0001
0000
1000
0000
0001
0100
0000
1000
,
0000
0001
0010
0000
1000
0000
0001
0000
0100
0000
0010
0000
1000
0000
0100
0000
,
1000
0000
0001
0000
0100
0010
0000
1000
0000
0010
0100
0000
0001
0000
1000
0000
,
0101
0000
1000
0000
0010
0000
1000
0000
0001
0000
0100
0000
0001
0010
0000
0100
,
0000
1000
0001
0000
1000
0000
0010
0000
1001
0000
0100
0000
0001
0000
0001
0000
,
1000
0000
1000
0000
0010
1000
0000
0001
0000
1000
0100
0000
1000
0000
0001
0000
,
1010
0000
0100
0000
0001
0000
0010
0000
1000
0000
0010
0000
0001
0100
0000
0010
,
0000
0100
1000
0000
0100
0000
0001
0000
1100
0000
0001
0000
1000
0000
0010
0000
,
0001
0000
0010
0000
1000
0010
0000
0001
0000
1000
0100
0000
0001
0000
0010
0000
,
0110
0000
1000
0000
0001
0000
0100
0000
1000
0000
0010
0000
0001
0010
0000
1000
,
0000
0001
0100
0000
1000
0000
0001
0000
0110
0000
0001
0000
1000
0000
0010
0000
,
0001
0000
1000
0000
0100
0001
0000
1000
0000
0010
0001
0000
0010
0000
1000
0000
,
0101
0000
1000
0000
0010
0000
0001
0000
0010
0000
1000
0000
0001
0010
0000
1000
,
0000
0001
0100
0000
1000
0000
0001
0000
0110
0000
1000
0000
0001
0000
0010
0000
,
1001
0000
0010
0000
0001
0100
0000
0010
0000
1000
0100
0000
0010
0000
0100
0000
,
1001
0000
0010
0000
0001
0000
0100
0000
1001
0000
0010
0000
1000
0100
0000
0001
,
0000
0100
0010
0000
0001
0000
1000
0000
1001
0000
0100
0000
0010
0000
1000
0000
,
0011
0000
1000
0000
0001
0010
0100
1000
0000
1000
0010
0000
1000
0000
0001
0000
,
1100
0000
0010
0000
0100
0000
0010
0000
0101
0000
0010
0000
1000
0100
0010
0001
,
0000
0100
0010
0000
0100
0000
0001
0000
1100
0000
0010
0000
0100
0000
1000
0000
,
0011
0000
0100
0000
0010
0001
1000
0100
0000
0001
0100
0000
0010
0000
0001
0000
,
1010
0000
0001
0000
0010
0000
0001
0000
1100
0000
0001
0000
1000
0100
1000
0001
,
0000
0001
0100
0000
0010
0000
0100
0000
1001
0000
0100
0000
0010
0000
1000
0000
,
0110
0001
0010
0100
0010
0100
1000
0001
,
1000
0001
0100
0010
0100
0010
0001
0000
;

//---------------dance-single - ----------------
#NOTES:
     dance-single:
     :
     Medium:
     7:
     0.382151,0.347169,0.076035,0.000000,0.000000,387.000000,376.000000,11.000000,0.000000,0.000000,0.000000,0.382151,0.347169,0.076035,0.000000,0.000000,387.000000,376.000000,11.000000,0.000000,0.000000,0.000000:
0000
0000
0000
0000
,
0000
0000
0000
0010
,
1000
0000
0001
0000
0010
0000
0001
0100
,
0001
0010
0100
1000
,
0010
0000
1000
0100
1000
0000
0010
0000
,
0100
0000
0001
0000
1000
0000
0010
0100
,
0001
1000
0100
0001
,
0100
0000
1000
0001
1000
0000
0010
0000
,
0100
0000
0001
0000
0010
0000
0100
1000
,
0001
0010
0001
1000
,
0010
0000
1000
0001
0100
0000
0010
0000
,
0100
0000
0001
0000
0010
0000
0100
1000
,
0100
0010
0001
1000
,
0010
0000
1000
0001
0100
0000
0010
0000
,
0100
0000
0001
0000
0010
0000
0100
1000
,
0100
0010
0001
1000
,
0010
0000
0100
0001
0100
0000
0010
0000
,
1000
0000
0001
0010
0100
1000
0010
0000
,
0010
0000
1000
0000
0001
0000
1000
0010
,
0100
0001
0010
0000
0010
0000
0100
0000
,
0100
0000
1000
0100
0010
0001
0100
0000
,
0100
0000
0010
0000
0010
0000
1000
0001
,
0100
0010
1000
0000
1000
0000
1100
0000
,
1100
0000
0001
1000
0001
0000
0100
0000
,
0010
1000
1100
1100
,
0010
0000
0100
0001
0100
0000
0010
0000
,
0100
0000
0101
0000
0101
0000
0010
0100
,
1000
0010
0010
1010
,
1010
0000
0100
0001
1000
0000
0010
0000
,
0100
0000
0001
0000
0001
0000
0010
0001
,
1000
0000
0010
0000
0100
0000
0001
1000
,
0100
0000
0010
0010
0010
0000
0100
0000
,
1000
0001
0100
1000
,
0100
0001
0001
0010
,
0010
0000
1000
0000
1000
0000
0000
0100
,
0100
0000
0001
0000
0010
0000
0000
1000
,
1000
0000
0100
0000
0010
0000
0001
0100
,
0001
0000
0010
0100
1000
0100
0010
0000
,
0010
0000
0100
1000
0100
0000
0010
0001
,
0100
0001
0010
0000
0010
0000
0100
1000
,
0100
0000
0010
0001
1000
0001
0010
0000
,
0010
0000
0100
1000
0100
0000
0010
0001
,
0100
0010
1000
0000
0010
0000
0100
0010
,
0100
0000
0010
1000
0001
0100
0010
0000
,
0010
0000
1000
0001
0100
0000
0010
1000
,
0100
1000
0010
0000
0100
0000
0010
1000
,
0001
0000
0010
0001
0100
0001
0010
0000
,
0100
0000
0010
0001
1000
0000
0001
0100
,
0010
1000
0100
0000
0010
0000
0100
1000
,
0100
0000
0010
0001
1000
0001
0010
0000
,
0100
0000
1000
0010
0100
0000
0001
1000
,
0100
1000
0001
0000
0010
0000
0001
0100
,
0010
0000
0100
0001
1000
0010
0100
0000
,
0001
0000
0010
0100
0010
0000
0001
1000
,
0100
1000
0001
0000
1000
0000
0010
1000
,
0010
0000
0100
0001
0010
0000
0010
0001
,
1000
0010
1000
0000
1000
0100
0001
0000
,
0001
0100
1000
0010
1000
0000
1000
0100
,
1000
0000
1000
0100
0001
0000
0001
0100
,
1000
0010
1000
0000
1000
0010
0001
0000
,
0001
0010
1000
0100
1000
0000
0100
0010
,
0100
0000
0010
0001
0010
0000
0001
0100
,
0001
0000
0001
0100
1000
0000
1000
0010
,
0001
0000
0001
0001
0001
0000
1000
0100
,
0001
0000
0100
0100
0100
0000
0001
0100
,
1000
0000
1000
0100
1000
0000
1000
1000
,
1000
0000
1000
0100
0001
0000
0001
0100
,
1000
0000
1000
0010
1000
0000
1000
0100
,
0001
0000
0001
0100
0001
0000
0001
1000
,
0001
0000
0001
0010
0100
0000
0100
1000
,
0010
0000
0010
0100
0001
0000
0001
0000
,
1100
1000
0101
1001
;

//---------------dance-single - ----------------
#NOTES:
     dance-single:
     :
     Easy:
     5:
     0.290316,0.347169,0.241930,0.000000,0.000000,294.000000,259.000000,35.000000,0.000000,0.000000,0.000000,0.290316,0.347169,0.241930,0.000000,0.000000,294.000000,259.000000,35.000000,0.000000,0.000000,0.000000:
// measure 0
0000
0000
0000
0000
,  // measure 1
0000
0000
0000
1000
,  // measure 2
1000
0100
0001
0100
,  // measure 3
0000
0010
0010
1000
,  // measure 4
0001
1000
0000
0100
,  // measure 5
0100
0010
0100
0010
,  // measure 6
0000
0001
0001
1000
,  // measure 7
0010
1000
0000
0100
,  // measure 8
0100
0010
0100
0001
,  // measure 9
0000
0010
0010
1000
,  // measure 10
0100
1000
0000
0001
,  // measure 11
0001
0100
1000
0100
,  // measure 12
0000
0010
0010
0001
,  // measure 13
1000
0001
0000
0100
,  // measure 14
0100
0010
1000
0100
,  // measure 15
0000
0010
0010
0001
,  // measure 16
1000
0010
0000
0100
,  // measure 17
0100
0001
0100
1000
,  // measure 18
0000
0000
0010
0010
0010
0000
0100
0000
,  // measure 19
0001
0000
1000
0000
0000
0000
0010
0010
,  // measure 20
0010
1000
0100
0001
,  // measure 21
0000
0000
0010
0010
0010
0000
0100
0000
,  // measure 22
1000
0000
0100
0000
0000
0000
0010
0010
,  // measure 23
0010
0001
0100
1000
,  // measure 24
0000
0000
0010
0010
0010
0000
1000
0000
,  // measure 25
0001
0000
1000
0000
0000
0000
0100
0100
,  // measure 26
0100
0010
0001
0100
,  // measure 27
0000
0000
0010
0010
0010
0000
1000
0000
,  // measure 28
0001
0000
0010
0000
0000
0000
0100
0100
,  // measure 29
0100
1000
0100
0001
,  // measure 30
0100
1000
0100
0001
,  // measure 31
0000
0001
0000
1000
,  // measure 32
0000
1000
0000
0010
,  // measure 33
0000
0100
0000
0010
,  // measure 34
0000
0100
0000
0100
,  // measure 35
0000
0010
0000
0100
,  // measure 36
0000
0010
0000
1000
,  // measure 37
1000
0100
0001
0010
,  // measure 38
0110
0100
1000
0100
,  // measure 39
0010
0001
1001
0010
,  // measure 40
1000
0100
0010
0001
,  // measure 41
1001
0001
0100
1000
,  // measure 42
0010
0100
1001
0100
,  // measure 43
0010
1000
0100
0010
,  // measure 44
1001
0100
1000
0001
,  // measure 45
0010
0100
1001
0010
,  // measure 46
0001
0100
1000
0100
,  // measure 47
1001
0100
1000
0010
,  // measure 48
0001
0100
1001
0001
,  // measure 49
1000
0001
1100
1000
,  // measure 50
1000
0010
0100
0010
,  // measure 51
1000
0101
1000
0010
,  // measure 52
0010
0100
0001
1100
,  // measure 53
0010
0100
0010
1000
,  // measure 54
0001
1100
0010
0100
,  // measure 55
0010
0100
0011
1000
,  // measure 56
0010
0100
0010
0100
,  // measure 57
1010
0100
0010
0100
,  // measure 58
1100
1100
0001
0010
,  // measure 59
0100
0110
0110
1000
,  // measure 60
0001
1000
0100
1001
,  // measure 61
0101
0001
0100
1000
,  // measure 62
1100
1001
0010
1000
,  // measure 63
1010
1001
0010
0001
,  // measure 64
0101
1001
0010
1000
,  // measure 65
0100
1100
1001
0100
,  // measure 66
0001
1000
0100
0110
,  // measure 67
1001
0010
1000
0100
,  // measure 68
0010
0011
0011
1000
,  // measure 69
0010
0100
0001
0101
,  // measure 70
0101
1000
0100
0001
,  // measure 71
0100
1000
0100
1001
;

//---------------dance-single - ----------------
#NOTES:
     dance-single:
     :
     Beginner:
     2:
     0.180707,0.347169,0.124421,0.000000,0.000000,183.000000,165.000000,18.000000,0.000000,0.000000,0.000000,0.180707,0.347169,0.124421,0.000000,0.000000,183.000000,165.000000,18.000000,0.000000,0.000000,0.000000:
// measure 0
0000
0000
0000
0000
,  // measure 1
0000
0000
0000
0010
,  // measure 2
0000
1000
0000
0100
,  // measure 3
0000
0010
0000
0001
,  // measure 4
0000
1000
0000
0100
,  // measure 5
0000
0010
0000
0001
,  // measure 6
0000
1000
0000
0100
,  // measure 7
0000
0010
0010
0010
,  // measure 8
0000
0100
0000
1000
,  // measure 9
0000
0001
0000
0100
,  // measure 10
0000
0010
0000
1000
,  // measure 11
0000
0001
0000
0010
,  // measure 12
0000
0100
0000
1000
,  // measure 13
0000
0001
0000
0100
,  // measure 14
0000
0010
0000
0001
,  // measure 15
0000
1000
0000
0001
,  // measure 16
0000
0100
0000
0010
,  // measure 17
0010
0010
0000
1000
,  // measure 18
0000
0100
0000
0010
,  // measure 19
0000
0001
0000
1000
,  // measure 20
0000
0100
0000
0010
,  // measure 21
0000
0001
0000
1000
,  // measure 22
0000
0010
0010
0010
,  // measure 23
0000
0100
0000
0001
,  // measure 24
0000
1000
0000
0100
,  // measure 25
0000
0010
0000
0001
,  // measure 26
0000
0100
0000
0010
,  // measure 27
0000
1000
0000
0100
,  // measure 28
0000
0010
0000
0001
,  // measure 29
0000
1000
0000
0010
,  // measure 30
0000
0100
0000
0001
,  // measure 31
0000
0010
0000
0010
,  // measure 32
0000
0100
0000
0100
,  // measure 33
0000
1000
0000
0100
,  // measure 34
0000
0001
0000
0010
,  // measure 35
0000
0100
0000
1000
,  // measure 36
0000
0001
0000
0100
,  // measure 37
0100
0100
0000
0010
,  // measure 38
0000
1000
0000
0001
,  // measure 39
0000
0010
0010
0010
,  // measure 40
0000
0100
0000
1000
,  // measure 41
1000
1000
0000
0001
,  // measure 42
0000
0100
0100
0100
,  // measure 43
0000
0010
0000
1000
,  // measure 44
0000
0001
0001
0001
,  // measure 45
0000
0010
0000
0100
,  // measure 46
0100
0100
0000
1000
,  // measure 47
0000
0010
0000
0100
,  // measure 48
0100
0100
0000
0010
,  // measure 49
0000
1000
0000
0100
,  // measure 50
0100
0100
0000
0010
,  // measure 51
0000
0001
0001
0001
,  // measure 52
0000
1000
1000
1000
,  // measure 53
0000
0001
0000
1000
,  // measure 54
1000
1000
0000
1001
,  // measure 55
0000
0010
0010
0010
,  // measure 56
0000
0110
0000
0100
,  // measure 57
0100
0100
0000
1001
,  // measure 58
0000
0010
0010
0010
,  // measure 59
0000
1001
0000
0100
,  // measure 60
0000
0001
0001
0001
,  // measure 61
0000
1000
0000
0010
,  // measure 62
0010
0010
0000
1001
,  // measure 63
0000
0100
0100
0100
,  // measure 64
0000
0110
0000
0010
,  // measure 65
0010
0010
0000
1001
,  // measure 66
0000
0110
0110
0110
,  // measure 67
0000
1001
0000
1001
,  // measure 68
1001
1001
0000
0110
,  // measure 69
0000
0110
0110
0110
,  // measure 70
0000
0100
0000
0100
,  // measure 71
0000
0100
0000
0100
;
