#TITLE:On The Break;
#SUBTITLE:;
#ARTIST:Darwin;
#TITLETRANSLIT:;
#SUBTITLETRANSLIT:;
#ARTISTTRANSLIT:;
#GENRE:DDR X;
#CREDIT:;
#BANNER:On The Break-bn.jpg;
#BACKGROUND:On The Break-bg.jpg;
#LYRICSPATH:;
#CDTITLE:;
#MUSIC:On The Break.mp3;
#OFFSET:-0.059;
#SAMPLESTART:69.206;
#SAMPLELENGTH:13.420;
#SELECTABLE:YES;
#BPMS:0.000=170.000
,156.000=85.000
,172.000=170.000
;
#STOPS:92.000=1.412
;
#BGCHANGES:;
#KEYSOUNDS:;
#ATTACKS:;

//---------------dance-single - ----------------
#NOTES:
     dance-single:
     :
     Hard:
     10:
     0.636,0.718,0.495,0.212,0.318,370.000,49.000,21.000,0.000,0.000,0.000,0.636,0.718,0.495,0.212,0.318,370.000,49.000,21.000,0.000,0.000,0.000: // measure 0
0000
0000
0000
0000
,  // measure 1
0000
0000
0000
0000
,  // measure 2
0000
0000
0000
0000
,  // measure 3
0000
0000
0000
0000
,  // measure 4
1000
0010
1000
0000
0001
0010
0001
0000
0100
0000
0000
0000
0100
0000
0000
0000
,  // measure 5
0001
0100
0001
0000
1000
0100
1000
0000
0010
0000
0000
0000
0010
0000
0000
0000
,  // measure 6
0100
0001
0100
0000
0010
0000
0000
0000
1000
0001
1000
0000
0100
0000
0000
0000
,  // measure 7
2002
0000
0000
3003
,  // measure 8
0110
0000
0000
0100
0000
0000
0100
0000
0001
0000
0000
0001
0000
0000
0001
0000
,  // measure 9
1000
0000
0000
1000
0000
0000
1000
0000
0010
0000
1000
0000
0100
0000
0000
0000
,  // measure 10
0010
0000
0000
0010
0000
0000
0010
0000
0001
0000
0000
0001
0000
0000
0001
0000
,  // measure 11
0200
0000
0000
0000
0301
1000
0100
0000
,  // measure 12
1000
0000
0000
1000
0000
0000
1000
0000
0010
0000
0000
0010
0000
0000
0010
0000
,  // measure 13
0100
0000
0000
0100
0000
0000
0100
0000
0001
0000
1000
0000
0010
0000
0000
0000
,  // measure 14
0100
0000
0000
0100
0000
0000
0100
0000
0010
0000
0000
0010
0000
0000
0010
0000
,  // measure 15
0002
0000
1003
1001
,  // measure 16
1001
1000
1100
0000
0000
0010
0110
0000
,  // measure 17
1001
0001
0011
0000
0000
0100
1100
0000
,  // measure 18
1010
0001
0101
0000
0000
0010
0110
0000
,  // measure 19
1000
0001
0010
1000
,  // measure 20
0011
1000
1100
0000
0000
0010
0110
0000
,  // measure 21
1001
0100
1010
0000
0000
0100
0101
0000
,  // measure 22
1010
0010
0100
0000
0011
0010
0100
0000
,  // measure 23
1000
0000
0100
0010
0000
0100
1000
0000
0001
0000
0010
1000
0000
0010
0100
0000
,  // measure 24
1000
0000
0100
0001
0000
0100
0010
0000
0100
0000
1000
0000
0001
0000
0000
0000
,  // measure 25
0010
0000
0001
0010
0000
0001
0100
0000
0010
0000
0100
0001
0000
1000
0100
0000
,  // measure 26
1000
0000
0010
0100
0000
0001
0010
0000
0100
0000
1000
0000
0001
0000
0000
0000
,  // measure 27
0010
0000
0100
0001
0000
0100
1000
0000
0010
0000
0100
0000
0001
0000
0000
0000
,  // measure 28
1000
0000
0100
0010
0000
0001
0010
0000
0100
0000
1000
0000
0010
0000
0000
0000
,  // measure 29
1000
0000
0001
0100
0000
0010
1000
0000
0001
0000
0010
0001
0000
1000
0100
0000
,  // measure 30
0010
0100
1000
0010
,  // measure 31
0011
0000
0101
0000
0100
1000
0100
0001
,  // measure 32
1000
0010
1000
0100
0010
0001
0010
0000
,  // measure 33
0101
0000
1100
0000
0010
1000
0010
0100
,  // measure 34
0001
0010
0001
1000
0100
0001
0100
0000
,  // measure 35
1100
0000
1010
0000
0001
0010
0001
0010
,  // measure 36
0101
0000
1100
0000
0010
1000
0010
1000
,  // measure 37
0011
1100
1010
0101
,  // measure 38
2002
0000
0000
3003
,  // measure 39
0020
0100
0032
0100
2003
0100
3020
0001
,  // measure 40
0230
1000
0302
0010
2003
0010
3100
0100
,  // measure 41
0012
1000
0103
0010
2100
0001
3010
0010
,  // measure 42
0102
0100
1003
1000
0120
0100
0031
0002
,  // measure 43
2000
0000
0000
3003
,  // measure 44
1001
0000
0000
0000
0110
0000
0000
0001
0100
0000
0001
0000
0010
0000
0000
0000
,  // measure 45
0001
0000
1000
0000
0010
0000
0000
0100
0010
0000
1000
0000
0100
0000
0010
0000
,  // measure 46
0101
0000
0000
0000
1100
0000
0000
0010
0100
0000
1000
0000
0001
0000
0000
0000
,  // measure 47
0100
0000
0001
0000
1000
0000
0000
0001
0010
0000
0001
0000
0100
0000
1000
0000
,  // measure 48
1010
0000
0000
0000
0011
0000
0000
0100
1000
0000
0001
0000
0100
0000
0000
0000
,  // measure 49
0010
0000
0100
0000
0001
0000
0000
1000
0100
0000
0001
0000
0100
0000
1000
0000
,  // measure 50
0110
0000
0000
0000
1001
0000
0000
0010
0100
0000
0001
0000
0010
0000
0000
0000
,  // measure 51
1000
0001
1000
0000
0110
0110
0110
0000
,  // measure 52
0001
0000
1000
0000
0100
0010
0000
0100
1000
0000
0010
0000
0100
0000
0000
0000
,  // measure 53
1000
0000
0001
0000
0010
0100
0000
0010
0001
0000
0100
0000
0010
0000
0000
0000
,  // measure 54
1000
0000
0100
0000
0001
0100
0000
0010
0001
0000
1000
0000
0010
0000
0100
0000
,  // measure 55
0001
0000
1000
0000
0001
0010
0000
0100
1000
0000
0010
0000
0100
0000
0000
0000
,  // measure 56
0010
0000
0001
0000
0010
1000
0000
0100
0001
0000
0100
0000
1000
0001
0000
0100
,  // measure 57
0010
0000
0100
0000
0001
0010
0000
0001
1000
0000
0010
0000
1000
0001
0000
0010
,  // measure 58
0100
0000
0010
0000
0001
0100
0000
0010
0100
0000
1000
0000
0100
0001
0000
0001
,  // measure 59
0010
0100
1000
0010
0100
0001
0010
0000
,  // measure 60
2002
0000
0000
0000
,  // measure 61
0000
0000
0000
3003
;

//---------------dance-single - ----------------
#NOTES:
     dance-single:
     :
     Beginner:
     1:
     0.131,0.121,0.030,0.000,0.000,88.000,3.000,0.000,0.000,0.000,0.000,0.131,0.121,0.030,0.000,0.000,88.000,3.000,0.000,0.000,0.000,0.000:
0000
0000
0000
0000
,
0000
0000
0000
0000
,
0000
0000
0000
0000
,
0000
0000
0000
0000
,
0010
0000
0000
0000
,
0010
0000
0000
0000
,
0010
0000
0010
0000
,
1001
0000
0000
0000
,
0100
0000
0000
0000
,
0000
0000
0000
0000
,
0010
0000
0000
0000
,
0000
0000
0000
0000
,
1000
0000
0000
0000
,
0000
0000
0000
0000
,
0001
0000
0000
0000
,
0000
0000
0000
0000
,
0001
0000
0000
0100
,
0000
0000
0000
0010
,
0000
0000
0000
0100
,
0000
0000
0000
0001
,
0000
0000
0000
0100
,
0000
0000
0000
1000
,
0000
0000
0000
0100
,
0000
1000
0000
0100
,
0000
0001
0000
0001
,
0000
0100
0000
0100
,
0000
0010
0000
0100
,
0000
1000
0000
0001
,
0000
0001
0000
0010
,
0000
0100
0000
0100
,
0000
0000
0000
0000
,
0001
0001
0000
0000
,
1000
1000
0000
0000
,
0001
0001
0000
0000
,
0010
0010
0000
0000
,
1000
1000
0000
0000
,
0100
0100
0000
0000
,
0010
0000
0010
0000
,
1001
0000
0000
0000
,
0010
0000
1000
0000
,
0100
0000
0001
0000
,
0010
0000
1000
0000
,
0100
0000
0010
0000
,
1000
0000
0000
0000
,
0000
0001
0000
0010
,
0000
1000
0000
0010
,
0000
1000
0000
0001
,
0000
1000
0000
0010
,
0000
0001
0000
0100
,
0000
1000
0000
0001
,
0000
1000
0000
0010
,
0000
0100
0100
0000
,
0000
0010
0000
0001
,
0000
1000
0000
0010
,
0000
0001
0000
1000
,
0000
0001
0000
0010
,
0000
1000
0000
0100
,
0000
1000
0000
1000
,
0000
0010
0000
0001
,
0001
0000
1000
0000
,
1001
0000
0000
0000
;

//---------------dance-single - ----------------
#NOTES:
     dance-single:
     :
     Easy:
     6:
     0.404,0.499,0.324,0.354,0.000,213.000,32.000,35.000,0.000,0.000,0.000,0.404,0.499,0.324,0.354,0.000,213.000,32.000,35.000,0.000,0.000,0.000:
0000
0000
0000
0000
,
0000
0000
0000
0000
,
0000
0000
0000
0000
,
0000
0000
0000
0000
,
0100
0100
1000
0010
,
0100
0100
0001
0010
,
0100
0001
0010
1000
,
2002
0000
0000
3003
,
0020
0000
0002
0030
,
2000
3003
0100
0010
,
0200
0000
0002
0300
,
0020
0033
0001
0010
,
2000
0000
0200
3000
,
0020
0330
0001
0100
,
0020
0000
0200
0030
,
0002
0300
1003
1001
,
0001
0000
0010
0000
0000
0100
0010
0000
,
1000
0000
0100
0000
0000
0010
1000
0000
,
0100
0000
0010
0000
0000
0100
0010
0000
,
1000
0001
0100
1000
,
0001
0000
0010
0000
0000
0100
0010
0000
,
0001
0000
1000
0000
0000
0010
0001
0000
,
1000
1000
0001
0001
,
1000
0000
1000
0000
0001
0100
0010
0000
,
1000
0000
0001
0000
0010
1000
0001
0000
,
0100
0010
0100
0010
,
1000
0000
0100
0000
0010
1000
0001
0000
,
0100
0000
1000
0000
0100
0010
0001
0000
,
1000
0000
0001
0000
0010
1000
0100
0000
,
1000
0010
0001
0010
,
0100
0010
1000
0000
,
0101
0101
0010
0010
,
1000
1000
0100
0100
,
0011
0011
0100
0100
,
0001
0001
0010
0010
,
1100
1100
0001
0001
,
1010
1010
0100
0100
,
0110
0110
1001
0110
,
2002
0000
0000
3003
,
0200
0302
2003
3200
,
0320
0032
2003
3020
,
0230
0320
2030
3200
,
0320
0032
0203
0302
,
2000
0000
0000
3003
,
1001
0110
0010
0100
,
0001
0000
0100
0000
1000
0010
0100
0000
,
0011
1010
0010
0001
,
0010
0000
1000
0000
0100
0001
0010
0000
,
1100
0101
1000
0010
,
0100
0000
0001
0000
0010
0001
0010
0000
,
0110
1001
0010
0100
,
1000
0010
0001
0000
,
1001
0110
0010
0100
,
1000
0000
0100
0000
0001
0010
0100
0000
,
1010
0011
0010
1000
,
0010
0000
0001
0000
0100
1000
0010
0000
,
0101
1100
0001
0010
,
0100
0000
1000
0000
0010
1000
0010
0000
,
0110
1001
0010
0100
,
0001
0010
1000
0100
,
2002
0000
0000
0000
,
0000
0000
0000
3003
;

//---------------dance-single - ----------------
#NOTES:
     dance-single:
     :
     Medium:
     8:
     0.534,0.468,0.445,0.324,0.121,294.000,44.000,32.000,0.000,0.000,0.000,0.534,0.468,0.445,0.324,0.121,294.000,44.000,32.000,0.000,0.000,0.000:
0000
0000
0000
0000
,
0000
0000
0000
0000
,
0000
0000
0000
0000
,
0000
0000
0000
0000
,
0010
0000
0010
0000
0001
1000
0100
0000
,
0010
0000
0010
0000
1000
0001
0100
0000
,
0010
1000
0100
0000
0010
0001
0100
0000
,
2002
0000
0000
3003
,
0100
0000
0000
0100
0000
0000
0100
0000
1000
0000
0000
1000
0000
0000
1000
0000
,
0001
0000
0000
0001
0000
0000
0001
0000
0010
0000
0001
0000
0100
0000
0000
0000
,
0010
0000
0000
0010
0000
0000
0010
0000
1000
0000
0000
1000
0000
0000
1000
0000
,
0200
0000
0000
0000
1300
0001
0100
0000
,
0001
0000
0000
0001
0000
0000
0001
0000
0010
0000
0000
0010
0000
0000
0010
0000
,
0100
0000
0000
0100
0000
0000
0100
0000
1000
0000
0001
0000
0010
0000
0000
0000
,
0100
0000
0000
0100
0000
0000
0100
0000
0010
0000
0000
0010
0000
0000
0010
0000
,
2000
0000
3001
1001
,
1000
0001
0100
0000
0000
0010
0110
0000
,
0001
1000
0010
0000
0000
0100
0101
0000
,
0010
1000
0100
0000
0000
0010
0110
0000
,
0001
1000
0010
0001
,
1000
0001
0100
0000
0000
0010
0110
0000
,
1000
0100
0001
0000
0000
0100
1100
0000
,
0001
0010
0001
0000
1000
0010
1000
0000
,
0001
0100
0002
0000
1003
0010
0200
0000
,
0301
0100
2000
0000
3100
0001
1000
0000
,
0010
1000
0200
0000
0310
0001
0200
0000
,
0301
1000
0020
0000
0130
0001
1000
0000
,
0010
0100
0002
0000
0013
0100
2000
0000
,
3001
0100
2000
0000
3100
0001
0010
0000
,
0001
1000
0200
0000
1300
0001
0200
0000
,
0310
0100
0001
0010
,
1010
0000
1100
0000
0100
0001
0100
0000
,
0001
0010
0001
0000
0010
1000
0010
0000
,
1100
0000
0101
0000
0010
0001
0010
0000
,
1000
0010
1000
0000
0100
1000
0100
0000
,
0101
0000
0011
0000
1000
0010
1000
0000
,
1100
0000
0101
0000
0010
0001
0010
0000
,
1010
0101
0011
1100
,
2002
0000
0000
3003
,
0020
2030
3002
0023
,
0230
2300
3002
0103
,
2010
3100
0102
0013
,
2100
3001
0120
2030
,
0002
0000
0000
3003
,
1001
0000
0000
0000
0110
0000
0000
1000
0100
0000
1000
0000
0010
0000
0000
0000
,
1000
0000
0001
0000
0010
0000
0000
0100
0010
0000
0001
0000
0100
0000
0000
0000
,
1100
0000
0000
0000
0101
0000
0000
0010
0100
0000
0001
0000
1000
0000
0000
0000
,
0100
0000
1000
0000
0001
0000
0000
1000
0010
0000
1000
0000
0100
0000
0000
0000
,
0011
0000
0000
0000
1010
0000
0000
0100
0001
0000
1000
0000
0100
0000
0000
0000
,
0010
0000
0100
0000
1000
0000
0000
0001
0100
0000
1000
0000
0100
0000
0000
0000
,
0110
0000
0000
0000
1001
0000
0000
0010
0100
0000
1000
0000
0010
0000
0000
0000
,
0001
1000
0110
0110
,
1001
0000
0000
0000
0110
0000
0000
0001
0100
0000
0001
0000
0010
0000
0000
0000
,
0001
0000
1000
0000
0010
0000
0000
0100
0010
0000
1000
0000
0100
0000
0000
0000
,
0101
0000
0000
0000
1100
0000
0000
0010
0100
0000
1000
0000
0001
0000
0000
0000
,
0100
0000
0001
0000
1000
0000
0000
0001
0010
0000
0001
0000
0100
0000
0000
0000
,
1010
0000
0000
0000
0011
0000
0000
0100
1000
0000
0001
0000
0100
0000
0000
0000
,
0010
0000
0100
0000
0001
0000
0000
1000
0100
0000
0001
0000
0100
0000
0000
0000
,
0110
0000
0000
0000
1001
0000
0000
0010
0100
0000
0001
0000
0010
0000
0000
0000
,
1100
0001
0010
1000
,
2002
0000
0000
0000
,
0000
0000
0000
3003
;

//---------------dance-double - ----------------
#NOTES:
     dance-double:
     :
     Easy:
     5:
     0.337,0.343,0.051,0.101,0.000,218.000,5.000,10.000,0.000,0.000,0.000,0.337,0.343,0.051,0.101,0.000,218.000,5.000,10.000,0.000,0.000,0.000:
00000000
00000000
00000000
00000000
,
00000000
00000000
00000000
00000000
,
00000000
00000000
00000000
00000000
,
00000000
00000000
00000000
00000000
,
00100000
00100000
00010000
00010000
,
00001000
00001000
00000100
00000100
,
00010000
00010000
00000010
00000010
,
00002002
00000000
00000000
00003003
,
00000100
00000000
00010000
00000000
,
00100000
00000000
01000000
00010000
,
10000000
00000000
00100000
00000000
,
00001000
00000000
00010000
00001000
,
00000100
00000000
00000001
00000000
,
00001000
00000000
00000010
00000001
,
00000100
00000000
00001000
00000000
,
00010000
00000000
01000000
10000000
,
00100000
00000000
10000000
00000000
00000000
00010000
01000000
00000000
,
00100000
00000000
00010000
00000000
00000000
00001000
00000010
00000000
,
00000001
00000000
00001000
00000000
00000000
00000010
00000100
00000000
,
00001000
00000000
00000100
00000000
00000000
00000001
00000010
00000000
,
00001000
00000000
00010000
00000000
00000000
00100000
10000000
00000000
,
00010000
00000000
00100000
00000000
00000000
01000000
00100000
00000000
,
10000000
00100000
00010000
00001000
,
00000010
00000001
00000100
00001000
,
00010000
00000000
00100000
00000000
01000000
00010000
10000000
00000000
,
00100000
00010000
00100000
10000000
,
01000000
00000000
00010000
00000000
00001000
00000010
00000001
00000000
,
00000100
00001000
00000100
00000010
,
00001000
00000000
00000001
00000000
00000010
00010000
00001000
00000000
,
00010000
01000000
10000000
01000000
,
00100000
00010000
00001000
00000010
,
00000001
00000001
00000100
00000100
,
00001000
00000000
00001000
00000000
00010000
00001000
00010000
00000000
,
00100000
00100000
10000000
10000000
,
01000000
00000000
01000000
00000000
00010000
00001000
00010000
00000000
,
00000010
00000000
00000010
00000000
00000001
00000100
00000001
00000000
,
00001000
00000000
00001000
00000000
00100000
00010000
00100000
00000000
,
10000000
10000000
01000000
01000000
,
20020000
00000000
00000000
30030000
,
00100000
00010000
00001000
00000100
,
00001000
00010000
01000000
00001000
,
00000100
00000001
00001000
00010000
,
01000000
10000000
00100000
00010000
,
00022000
00000000
00000000
00033000
,
00000100
00000000
00000100
00000000
00000001
00000010
00000001
00000000
,
00000001
00000010
00001000
00010000
,
00100000
00000000
00100000
00000000
10000000
01000000
10000000
00000000
,
00010000
01000000
00001000
00000100
,
00000010
00000000
00000010
00000000
00000100
00001000
00000010
00000000
,
00000100
00001000
00010000
01000000
,
00100000
00000000
00100000
00000000
00010000
10000000
00010000
00000000
,
00100000
00010000
00022000
00033000
,
01000000
00000000
01000000
00000000
10000000
00100000
10000000
00000000
,
10000000
00100000
00010000
00001000
,
00000010
00000000
00000010
00000000
00000001
00000100
00000001
00000000
,
00001000
00000100
00010000
01000000
,
00100000
00000000
00100000
00000000
01000000
00010000
00100000
00000000
,
01000000
00010000
00001000
00000100
,
00000010
00000000
00000010
00000000
00001000
00000001
00001000
00000000
,
00000010
00001000
00010000
01000000
,
20020000
00000000
00000000
00000000
,
00000000
00000000
00000000
30030000
;

//---------------dance-double - ----------------
#NOTES:
     dance-double:
     :
     Medium:
     7:
     0.435,0.406,0.061,0.101,0.126,285.000,6.000,10.000,0.000,0.000,0.000,0.435,0.406,0.061,0.101,0.126,285.000,6.000,10.000,0.000,0.000,0.000:
00000000
00000000
00000000
00000000
,
00000000
00000000
00000000
00000000
,
00000000
00000000
00000000
00000000
,
00000000
00000000
00000000
00000000
,
00000100
00000000
00000100
00000000
00000001
00000010
00001000
00000000
,
00010000
00000000
00010000
00000000
00100000
10000000
01000000
00000000
,
00010000
00001000
00000100
00000000
00001000
00010000
01000000
00000000
,
20020000
00000000
00000000
30030000
,
00100000
00000000
00010000
00000000
,
00001000
00000000
00000000
00000000
00000010
00000100
00001000
00000000
,
00000001
00000000
00000100
00000000
,
00000010
00000000
00001000
00010000
,
00100000
00000000
00010000
00000000
,
00001000
00000000
00000000
00000000
00010000
01000000
10000000
00000000
,
00100000
00000000
01000000
00000000
,
00010000
00000000
10000000
10010000
,
01000000
00000000
00000000
01000000
00000000
00000000
01000000
00000000
00010000
00000000
00000000
00010000
00000000
00000000
00010000
00000000
,
00001000
00000000
00000000
00001000
00000000
00000000
00001000
00000000
00000010
00000000
00000001
00000000
00001000
00000000
00000000
00000000
,
00000010
00000000
00000000
00000010
00000000
00000000
00000010
00000000
00000100
00000000
00000000
00000100
00000000
00000000
00000100
00000000
,
00001000
00000000
00000000
00001000
00000000
00000000
00001000
00000000
00010000
00000000
00001000
00000000
00000100
00000000
00000000
00000000
,
00000001
00000000
00000000
00000001
00000000
00000000
00000001
00000000
00000010
00000000
00000000
00000010
00000000
00000000
00000010
00000000
,
00001000
00000000
00000000
00001000
00000000
00000000
00001000
00000000
00010000
00000000
01000000
00000000
00100000
00000000
00000000
00000000
,
00010000
00000000
00000000
00010000
00000000
00000000
00010000
00000000
10000000
00000000
00000000
10000000
00000000
00000000
10000000
00000000
,
01000000
00100000
00010000
00000000
01000000
00001000
00010000
00000000
,
00000010
00001000
00000100
00000000
00000010
00000000
00000001
00000000
,
00000100
00000001
00001000
00000000
00000100
00001000
00000010
00000000
,
00010000
00001000
00100000
00000000
00010000
00000000
10000000
00000000
,
00100000
01000000
00010000
00000000
00100000
01000000
10000000
00000000
,
00010000
00001000
00000010
00000000
00000001
00000000
00000100
00000000
,
00001000
00000001
00000010
00000000
00000001
00001000
00000010
00000000
,
00010000
00100000
10000000
01000000
,
10000000
00100000
10000000
00000000
00100000
00010000
00100000
00000000
,
00010000
00001000
00010000
00000000
00001000
00000000
00000010
00000000
,
00000001
00000100
00000001
00000000
00000100
00001000
00000100
00000000
,
00001000
00010000
00001000
00000000
01000000
00000000
10000000
00000000
,
00100000
01000000
00100000
00000000
00010000
00000000
00001000
00000000
,
00000010
00000100
00000010
00000000
00001000
00000000
00010000
00000000
,
01000000
10000000
01000000
00000000
01000000
00010000
01000000
00000000
,
20020000
00000000
00000000
30030000
,
01000000
00000000
00010000
00000000
00001000
00000010
00000001
00000100
,
00001000
00000000
00010000
00000000
00100000
00010000
00001000
00000000
,
00000010
00000000
00000001
00000000
00001000
00010000
01000000
10000000
,
00100000
00000000
00010000
00000000
00000010
00010000
00100000
00001000
,
00022000
00000000
00000000
00033000
,
00000010
00000000
00000000
00000000
00000010
00000000
00000000
00000001
00000010
00000000
00000001
00000000
00000100
00000000
00000000
00000000
,
00000001
00000000
00001000
00000000
00000100
00000000
00000000
00000010
00001000
00000000
00010000
00000000
00100000
00000000
00000000
00000000
,
10000000
00000000
00000000
00000000
10000000
00000000
00000000
01000000
00100000
00000000
00010000
00000000
10000000
00000000
00000000
00000000
,
00100000
00000000
01000000
00000000
00001000
00000000
00000000
00100000
00010000
00000000
10000000
00000000
01000000
00000000
00000000
00000000
,
00010000
00000000
00000000
00000000
00010000
00000000
00000000
00001000
00000010
00000000
00000001
00000000
00000010
00000000
00000000
00000000
,
00000100
00000000
00000010
00000000
00000001
00000000
00000000
00001000
00000010
00000000
00000100
00000000
00001000
00000000
00000000
00000000
,
00010000
00000000
00000000
00000000
00010000
00000000
00000000
01000000
00100000
00000000
00010000
00000000
10000000
00000000
00000000
00000000
,
00100000
01000000
02200000
03300000
,
01000000
00000000
00000000
00000000
01000000
00000000
00000000
10000000
01000000
00000000
10000000
00000000
00100000
00000000
00000000
00000000
,
10000000
00000000
00010000
00000000
00100000
00000000
00000000
01000000
00010000
00000000
00001000
00000000
00000100
00000000
00000000
00000000
,
00000001
00000000
00000000
00000000
00000001
00000000
00000000
00000010
00000100
00000000
00001000
00000000
00000001
00000000
00000000
00000000
,
00000100
00000000
00000010
00000000
00010000
00000000
00000000
00000100
00001000
00000000
00000001
00000000
00000010
00000000
00000000
00000000
,
00001000
00000000
00000000
00000000
00001000
00000000
00000000
00010000
01000000
00000000
10000000
00000000
01000000
00000000
00000000
00000000
,
00100000
00000000
01000000
00000000
10000000
00000000
00000000
00010000
01000000
00000000
00100000
00000000
00010000
00000000
00000000
00000000
,
00001000
00000000
00000000
00000000
00001000
00000000
00000000
00000010
00000100
00000000
00001000
00000000
00000001
00000000
00000000
00000000
,
00000100
00001000
00010000
00100000
,
20020000
00000000
00000000
00000000
,
00000000
00000000
00000000
30030000
;

//---------------dance-double - ----------------
#NOTES:
     dance-double:
     :
     Hard:
     10:
     0.556,0.593,0.152,0.101,0.273,360.000,15.000,10.000,0.000,0.000,0.000,0.556,0.593,0.152,0.101,0.273,360.000,15.000,10.000,0.000,0.000,0.000:
00000000
00000000
00000000
00000000
,
00000000
00000000
00000000
00000000
,
00000000
00000000
00000000
00000000
,
00000000
00000000
00000000
00000000
,
10000000
00100000
10000000
00000000
00010000
00100000
00010000
00000000
01000000
00000000
00000000
00000000
00001000
00000000
00000000
00000000
,
00010000
00000010
00010000
00000000
00000100
00001000
00000100
00000000
00000010
00000000
00000000
00000000
00000001
00000000
00000000
00000000
,
00000100
00010000
00000100
00000000
00001000
00000000
00000000
00000000
00000010
00010000
00000010
00000000
00000100
00000000
00000000
00000000
,
00002002
00000000
00000000
00003003
,
00000100
00000000
00001000
00000000
,
00100000
00000000
00000000
00000000
01000000
00100000
00010000
00000000
,
10000000
00000000
00100000
00000000
,
01000000
00000000
00100000
00011000
,
00000001
00000000
00001000
00000000
,
00010000
00000000
00000000
00000000
00001000
00000010
00000001
00000000
,
00000100
00000000
00000010
00000000
,
00001000
00000000
00000001
00001001
,
00000010
00000000
00000000
00000010
00000000
00000000
00000010
00000000
00001000
00000000
00000000
00001000
00000000
00000000
00001000
00000000
,
00010000
00000000
00000000
00010000
00000000
00000000
00010000
00000000
01000000
00000000
10000000
00000000
00010000
00000000
00000000
00000000
,
01000000
00000000
00000000
01000000
00000000
00000000
01000000
00000000
00100000
00000000
00000000
00100000
00000000
00000000
00100000
00000000
,
00010000
00000000
00000000
00010000
00000000
00000000
00010000
00000000
00001000
00000000
00010000
00000000
00100000
00000000
00000000
00000000
,
10000000
00000000
00000000
10000000
00000000
00000000
10000000
00000000
01000000
00000000
00000000
01000000
00000000
00000000
01000000
00000000
,
00010000
00000000
00000000
00010000
00000000
00000000
00010000
00000000
00001000
00000000
00000010
00000000
00000100
00000000
00000000
00000000
,
00001000
00000000
00000000
00001000
00000000
00000000
00001000
00000000
00000001
00000000
00000000
00000001
00000000
00000000
00000001
00000000
,
00000010
00000000
00000100
00001000
00000000
00000100
00001000
00000000
00000010
00000000
00010000
00001000
00000000
00010000
00001000
00000000
,
01000000
00000000
00010000
00100000
00000000
00010000
00100000
00000000
01000000
00000000
00000000
00000000
10000000
00000000
00000000
00000000
,
00100000
00000000
10000000
00010000
00000000
10000000
00010000
00000000
00100000
00000000
00010000
01000000
00000000
00010000
01000000
00000000
,
00001000
00000000
00010000
00000100
00000000
00010000
00000100
00000000
00001000
00000000
00000000
00000000
00000001
00000000
00000000
00000000
,
00000100
00000000
00000010
00001000
00000000
00000010
00001000
00000000
00000100
00000000
00000010
00000000
00000001
00000000
00000000
00000000
,
00001000
00000000
00010000
01000000
00000000
00010000
01000000
00000000
10000000
00000000
00000000
00000000
00100000
00000000
00000000
00000000
,
00010000
00000000
10000000
01000000
00000000
10000000
01000000
00000000
00100000
00000000
00010000
01000000
00000000
00010000
01000000
00000000
,
00001000
00000100
00000001
00000010
,
00000010
00000001
00000010
00000001
00000100
00000001
00000100
00000001
,
00000010
00000001
00000100
00001000
00010000
01000000
10010000
00000000
,
00100000
10000000
00100000
10000000
01000000
10000000
01000000
10000000
,
00100000
10000000
01000000
00010000
00001000
00000100
00001001
00000000
,
00000010
00000001
00000100
00001000
00010000
01000000
10010000
00000000
,
00100000
10000000
01000000
00010000
00001000
00000100
00001001
00000000
,
00001010
00000001
00000010
00000000
00000011
00001000
00000010
00000000
,
00002002
00000000
00000000
00003003
,
00000010
00000000
00001000
00000000
00010000
01000000
10000000
00100000
,
00010000
00000000
00001000
00000000
00000100
00001000
00010000
00000000
,
01000000
00000000
10000000
00000000
00010000
00001000
00000010
00000001
,
00000100
00000000
00001000
00000000
01000000
00001000
00000100
00010000
,
00022000
00000000
00000000
00033000
,
01000000
00000000
00100000
00000000
01000000
00000000
10000000
00100000
01000000
00000000
00010000
00000000
00100000
00000000
00000000
00000000
,
01000000
00000000
10000000
00000000
00010000
00000000
00100000
01000000
00010000
00000000
00001000
00000000
00000010
00000000
00000001
00000000
,
00000100
00000000
00000001
00000000
00000010
00000000
00000100
00010000
00001000
00000000
00000010
00000000
00000001
00000000
00000000
00000000
,
00000100
00000000
00000010
00000000
00010000
00000000
00001000
00000100
00000001
00000000
00001000
00000000
00000010
00000000
00010000
00000000
,
00001000
00000000
00100000
00000000
00010000
00000000
10000000
00100000
01000000
00000000
00010000
00000000
01000000
00000000
00000000
00000000
,
00100000
00000000
10000000
00000000
00010000
00000000
00100000
00001000
00010000
00000000
00000100
00000000
00000010
00000000
00000001
00000000
,
00001000
00000000
00000010
00000000
00001000
00000000
00000100
00000010
00000100
00000000
00001000
00000000
00000001
00000000
00000000
00000000
,
00010100
00101000
20020000
30030000
,
00100000
00000000
10000000
00000000
00100000
00000000
10000000
01000000
00100000
00000000
00001000
00000000
00000010
00000000
00000001
00000000
,
00000100
00000000
00000001
00000000
00001000
00000000
00000100
00000010
00001000
00000000
00010000
00100000
01000000
00000000
00010000
00000000
,
10000000
00000000
01000000
00000000
10000000
00000000
00100000
01000000
00001000
00000000
00010000
00000000
00000100
00000000
00000010
00000000
,
00001000
00000000
00010000
00000000
00001000
00000000
00000100
00000001
00001000
00000000
00000100
00000010
00000001
00000000
00000100
00000000
,
00001000
00000000
00010000
00000000
00001000
00000000
00100000
01000000
10000000
00000000
00100000
00000000
01000000
00000000
00001000
00000000
,
00010000
00000000
00100000
00000000
10000000
00000000
00010000
00100000
01000000
00000000
00100000
00001000
00010000
00000000
00000010
00000000
,
00001000
00000000
00000100
00000000
00000010
00000000
00000100
00010000
00000010
00000000
00000100
00000000
00000001
00000000
00000010
00000000
,
00000100
00001000
00010000
01000000
,
20020000
00000000
00000000
00000000
,
00000000
00000000
00000000
30030000
;

//---------------dance-single - ----------------
#NOTES:
     dance-single:
     :
     Challenge:
     12:
     0.852,0.937,0.698,0.202,0.864,501.000,69.000,20.000,0.000,0.000,0.000,0.852,0.937,0.698,0.202,0.864,501.000,69.000,20.000,0.000,0.000,0.000: // measure 0
0000
0000
0000
0000
,  // measure 1
0000
0000
0000
0000
,  // measure 2
0000
0000
0000
0000
,  // measure 3
0000
0000
0000
0000
,  // measure 4
1000
0100
1000
0100
1000
0100
1000
0000
0010
0000
1000
0001
0010
0000
0001
0000
,  // measure 5
0001
0100
0001
0100
0001
0100
0001
0100
0010
0000
1000
0001
0010
0000
0100
0000
,  // measure 6
1000
0100
1000
0100
1000
0100
1000
0000
0001
0100
0001
0100
0001
0100
0001
0000
,  // measure 7
2002
0000
0000
3003
,  // measure 8
0010
0000
1000
0010
0000
0010
0000
1000
0100
0000
0100
0010
0000
0010
0001
1000
,  // measure 9
0100
0000
0100
1000
0000
1000
0000
0100
0010
0000
0001
0000
0100
0000
0010
1000
,  // measure 10
0001
0000
1000
0010
0000
0010
0000
1000
0100
0000
0010
0100
0000
0100
1000
0001
,  // measure 11
0100
0000
0100
0010
0000
1000
0000
0001
0100
0000
0001
0000
1000
0000
0010
1000
,  // measure 12
0001
0000
0001
0010
0000
0010
0000
0001
0100
0000
0100
0010
0000
0010
1000
0001
,  // measure 13
0100
0000
0100
0010
0000
0010
0000
1000
0001
0000
1000
0000
0100
0000
1000
0001
,  // measure 14
0010
0000
0001
0010
0000
0010
0000
0001
1000
0000
0010
1000
0000
1000
0001
0100
,  // measure 15
0001
0000
0001
0010
0000
0100
0000
0100
1000
0000
0001
0000
1000
0000
0001
0010
,  // measure 16
0001
0000
0100
0010
0000
1000
0000
0001
0010
0000
0001
0100
0000
0010
1000
0100
,  // measure 17
0010
0000
0001
1000
0000
0010
0000
0100
0001
0000
0010
0000
0100
0000
1000
0010
,  // measure 18
0100
0000
0001
0010
0000
0100
0000
1000
0010
0000
1000
0100
0000
0010
0001
0100
,  // measure 19
0010
0000
1000
0001
0000
1000
0000
0010
0100
0000
0001
0000
0010
0000
0001
1000
,  // measure 20
0010
0000
0100
0001
0000
0010
0000
0100
1000
0000
0010
0100
0000
0001
1000
0100
,  // measure 21
0010
0000
0001
1000
0000
0010
0000
0100
0001
0000
0010
0000
0100
0000
1000
0010
,  // measure 22
1000
0000
0001
0100
0000
0010
0000
1000
0001
0000
1000
0100
0000
0010
0001
0100
,  // measure 23
0010
0000
1000
0100
0000
1100
0000
0100
0010
0000
0001
0100
0000
0001
0100
0010
,  // measure 24
1000
0000
1000
0001
0000
0110
0000
0100
0001
0000
1000
0000
1001
0000
1000
0010
,  // measure 25
1000
0000
0001
0010
0000
0110
0000
0100
1000
0000
0001
0100
0000
0010
1000
0001
,  // measure 26
0100
0000
0010
1000
0000
0101
0000
0100
0001
0000
0010
0000
0110
0000
0100
1000
,  // measure 27
0001
0000
1000
0010
0000
0110
0000
1000
0001
0000
1000
0100
0000
0010
0001
1000
,  // measure 28
0100
0000
0010
0100
0000
1001
0000
0100
0010
0000
0001
0000
1001
0000
0001
0100
,  // measure 29
0010
0000
1000
0010
0000
0110
0000
0100
0001
0000
1000
0010
0000
1000
0001
0100
,  // measure 30
0002
0000
0000
0003
,  // measure 31
1100
0000
0101
0000
1000
0010
0100
0001
,  // measure 32
0010
0100
0010
0001
1000
0100
0010
0001
,  // measure 33
0101
0000
1100
0000
0001
0010
0100
1000
,  // measure 34
0010
0100
0001
1000
0010
0100
0010
1000
,  // measure 35
1100
0000
0101
0000
1000
0100
0001
0100
,  // measure 36
0011
0000
1100
0000
0010
0001
0010
1000
,  // measure 37
0101
1010
1100
0011
,  // measure 38
2002
0000
0000
0000
0000
0000
0000
3003
,  // measure 39
0020
0100
0032
0100
2003
0100
3020
0001
,  // measure 40
0230
1000
0302
0010
2003
0010
3100
0100
,  // measure 41
0012
1000
0103
0010
2100
0001
3010
0010
,  // measure 42
0102
0100
1003
1000
0120
0100
0031
0002
,  // measure 43
2000
0000
0000
0000
0000
0000
3003
0000
0001
1000
0010
0100
0001
1000
0010
0100
,  // measure 44
0001
0000
0100
0000
0010
0000
1000
0010
0000
1010
0000
1000
0010
0000
0110
0000
,  // measure 45
0000
0000
1010
0000
1010
0000
1000
0001
0000
0000
1001
0000
0110
0000
0001
0000
,  // measure 46
0011
0000
0000
0000
0101
0000
0000
0011
0000
0001
0100
0000
0110
0000
0010
0000
,  // measure 47
0000
0000
1100
0000
1100
0000
0100
0010
0000
0011
0000
0001
0100
0000
0000
0010
,  // measure 48
1000
0000
0100
0000
1001
0000
0100
0001
0000
1001
0000
0100
0010
0000
0110
0000
,  // measure 49
0000
0000
1010
0000
1010
0000
1000
0010
0000
0000
0110
0000
1010
0000
0000
0000
,  // measure 50
0101
0000
0000
0000
0101
0000
0000
1001
0000
1000
0100
0000
0110
0000
0100
0000
,  // measure 51
0000
1100
1100
0000
0110
0000
0110
0000
,  // measure 52
1001
0000
0100
0000
0010
0000
1000
0010
0000
0010
0001
0000
1010
0000
0001
0000
,  // measure 53
0010
0000
0001
0000
0100
0000
1000
0100
0000
0100
0010
0000
1100
0000
0010
0000
,  // measure 54
0100
0000
0010
0000
1001
0000
0010
0100
0000
0100
0010
0000
0101
0000
0010
0000
,  // measure 55
0001
0000
0010
0000
0110
0000
0100
1000
0000
0010
0100
0000
1010
0000
1000
0001
,  // measure 56
0100
0000
0010
0000
0110
0000
0100
0001
0010
0001
0100
0000
0110
0000
1000
0000
,  // measure 57
0010
0000
0100
0000
0110
0000
0010
1000
0100
0010
0001
0000
1001
0000
0001
0000
,  // measure 58
1000
0000
0010
0000
0110
0000
1000
0001
0100
0010
0100
0000
0110
0000
0100
0001
,  // measure 59
1000
0010
0100
0001
1000
0010
0100
0001
0010
0100
1000
0001
0010
0100
1000
0002
,  // measure 60
2000
0000
0000
0000
,  // measure 61
0000
0000
0000
3003
;
