#TITLE:You Cannot Go Back;
#SUBTITLE:;
#ARTIST:OMORI;
#TITLETRANSLIT:;
#SUBTITLETRANSLIT:;
#ARTISTTRANSLIT:;
#GENRE:OMORI;
#CREDIT:[Ness];
#BANNER:OMORI - You Cannot Go Back (for TapMania).png;
#BACKGROUND:OMORI - You Cannot Go Back (for TapMania)-bg.png;
#LYRICSPATH:;
#CDTITLE:;
#MUSIC:OMORI - You Cannot Go Back (for TapMania).mp3;
#OFFSET:-0.040000;
#SAMPLESTART:59.618141;
#SAMPLELENGTH:13.241379;
#LASTBEATHINT:357.000000;
#SELECTABLE:YES;
#BPMS:0.000000=145.000000
;
#STOPS:205.500000=0.414000
;
#BGCHANGES:;
#KEYSOUNDS:;
#ATTACKS:;

//---------------dance-single - ----------------
#NOTES:
     dance-single:
     :
     Challenge:
     10:
     0.679871,0.836357,0.254354,0.113790,0.896933,711.000000,673.000000,38.000000,17.000000,370.000000,0.000000,0.679871,0.836357,0.254354,0.113790,0.896933,711.000000,673.000000,38.000000,17.000000,370.000000,0.000000:
0000
0000
0000
0000
,
0000
0000
0000
0000
,
0000
0000
0000
0000
,
0000
0000
0000
0000
,
0000
0000
0000
0000
,
0000
0000
0000
0000
,
0000
0000
0000
0000
,
0000
0000
0000
0000
,
0000
0000
0000
0000
,
0000
0000
0000
0000
,
0000
0000
0000
0000
,
0000
0000
0000
0000
,
1001
0000
0000
1000
0001
0000
0010
0001
0100
0000
0000
0100
0010
0000
0000
0010
,
1000
0000
0001
1000
0100
0000
0000
0100
0001
0000
0000
0001
0010
0000
0100
0010
,
1000
0000
0000
1000
0001
0000
0000
0001
1000
0000
0010
1000
0100
0000
0000
0100
,
0010
0000
0000
0010
1000
0000
0100
1000
0010
0000
0000
0010
0001
0000
0000
0001
,
1000
0000
0000
1000
0001
0000
0010
0001
0100
0000
0000
0100
0010
0000
0000
0010
,
1000
0000
0001
1000
0100
0000
0000
0100
0001
0000
0000
0001
0010
0000
0100
0010
,
1000
0000
0000
1000
0001
0000
0000
0001
0100
0000
0010
0100
1000
0000
0000
1000
,
0010
0000
0000
0010
0001
0000
0100
0001
1000
0000
0000
1000
0100
0000
0000
0100
,
0001
0000
0100
0001
1000
0000
0100
1000
0010
0000
0001
0010
0100
0000
1000
0100
,
0001
0000
0100
0001
0010
0000
1000
0010
0100
0000
0001
0100
1000
0000
0100
1000
,
0010
0000
0100
0010
0001
0000
1000
0001
1000
0000
0010
1000
0100
0000
0001
0100
,
0010
0000
1000
0010
0001
0000
0100
0001
1000
0000
0001
1000
0010
0000
1000
0010
,
0100
0000
0000
0110
0000
0000
0001
0100
0010
1000
0010
0100
0001
1000
0010
0100
,
0001
0000
0000
1001
0000
0000
0100
1000
0010
0100
0001
0010
0100
1000
0001
0100
,
0010
0000
0000
1010
0000
0000
1000
0010
0100
1000
0100
0001
1000
0010
0100
0001
,
0010
0000
0000
0011
0000
0000
0001
0010
0100
1000
0010
0100
1000
0100
0010
1000
,
0100
0010
0001
1000
MMMM
0010
0100
0001
,
MMMM
1000
0100
0001
1MM0
0010
0100
1000
,
0MM1
M100
0010
1M00
0001
M010
010M
10M0
,
0001
M010
010M
10M0
0010
010M
00M1
1M00
,
01M0
M001
1M00
001M
M001
01M0
001M
M100
,
10M0
0M01
001M
01M0
0M01
010M
1M00
M100
,
0M10
10M0
M001
010M
0M10
10M0
M010
00M1
,
0100
0000
0000
0110
0000
0000
0001
1000
0010
0100
0001
0010
0100
1000
0100
0010
,
0001
0000
0100
1000
0010
0000
0100
0000
MMMM
0000
0001
0010
1000
0000
0010
0000
,
MMMM
0000
0001
0100
1000
0000
0200
0000
M0MM
0000
0300
0000
1001
0000
0000
0000
,
0001
0000
1000
0010
0100
0000
0001
0000
MMMM
0000
1000
0100
0001
0000
0100
0000
,
MMMM
0000
0010
0001
0100
0000
0002
0000
MMM0
0000
1003
0000
0010
0000
M100
0000
,
0001
0M10
100M
0010
0100
10M0
0M01
10M0
,
010M
M010
0001
1M00
001M
M100
00M1
1M00
,
001M
0M01
001M
10M0
M001
010M
0M10
10M0
,
M100
0000
0000
0000
MM10
0000
0000
0000
0MM1
0000
0000
0000
10MM
0100
1000
0001
,
0010
0000
0000
0110
0000
0000
0001
1000
0010
0100
0010
1000
0001
0100
0001
1000
,
0100
0000
0000
0101
0000
0000
1000
0100
0010
0100
1000
0010
0100
0001
0010
0100
,
0010
0000
0000
1010
0000
0000
0001
0100
0010
1000
0010
0100
1000
0100
0001
0100
,
0010
0000
0000
1100
0000
0000
0001
0100
0001
1000
0100
0010
0001
1000
0001
1000
,
0100
0000
M0MM
0100
M0MM
0000
MM10
0001
0010
0001
1000
0100
10M0
010M
10M0
010M
,
10M0
0000
0MMM
1000
0MMM
0000
M0M1
0100
0001
0100
0010
1000
001M
1M00
001M
1M00
,
001M
0000
MM0M
0010
MM0M
0000
M1M0
0001
01M0
0001
10M0
0M01
10M0
0M01
10M0
0M01
,
0010
0000
MM0M
0010
MM0M
0000
M11M
0000
0000
0000
0000
0000
M101
M000
M000
M001
,
M0M0
0000
000M
000M
000M
000M
00MM
00M0
00M0
00M0
M0M0
M000
M110
M000
M000
0010
,
000M
0000
M000
M000
M000
M000
M011
0000
0000
0000
0010
1000
010M
000M
000M
100M
,
00MM
0000
0M00
0M00
0M00
0M00
0MM0
00M0
00M0
00M0
01MM
100M
001M
000M
000M
010M
,
M00M
0000
0000
0000
0000
0000
00M1
0000
0000
00M0
0000
0000
00M0
0000
0000
10M0
0000
0000
0MM0
0000
0000
0000
0000
0000
010M
0000
0000
0010
0000
0000
M001
0000
0000
0000
0000
0000
0201
0000
0000
0000
0000
0000
0000
0000
00MM
2000
0000
0000
,
00MM
0000
0000
0000
00MM
0000
0000
0000
00MM
0000
0000
0000
00MM
0000
0000
0000
00MM
0000
3300
0000
00MM
0000
0000
0000
0000
0000
0000
0000
MMMM
0000
0000
0000
0000
0000
0000
0000
1200
0000
0000
0000
000M
0000
0000
0000
M00M
0020
0000
0000
,
M00M
0000
0000
0000
M00M
0000
0000
0000
M00M
0000
0000
0000
M030
0000
0000
0000
M000
0000
0002
0000
M000
0000
0000
0000
M303
0000
0000
0000
0000
0000
0010
0000
0000
0002
0000
0000
M200
0000
0000
0000
0000
0000
0003
0000
00M0
2000
0000
0000
,
00M0
0000
0000
0000
00MM
0000
0000
0000
00MM
0000
0000
0000
00MM
0000
0000
0000
00MM
0000
3300
0000
00MM
0000
0000
0000
0000
0000
0000
0000
0000
0000
M10M
0000
0000
0010
0000
0000
1000
0000
0000
0000
0000
0000
0000
0000
0000
0100
0000
0000
,
0000
0000
0001
0000
0MM0
1000
0000
0000
0001
1000
0100
0010
0001
0000
0M01
1000
,
0010
0000
001M
0100
0001
0000
M0M1
0100
0010
0000
0M10
0001
0010
0000
001M
1000
,
0001
0000
00M1
1000
0100
0000
010M
0010
0M01
0000
00M1
1000
0010
0000
M010
0100
,
0001
0000
00M1
1000
0100
0000
010M
0010
0001
0000
00M1
1000
0010
0000
0M10
1000
,
0001
0000
M001
0010
0100
0000
010M
0010
0M01
0000
00M0
1000
0M10
0000
010M
0000
,
00M1
1M00
010M
10M0
0M10
M001
0M10
100M
,
00M1
0000
M100
0000
001M
0000
1M00
0000
01M0
0000
M010
0000
010M
0000
10M0
0001
,
0100
0000
001M
1000
0100
0000
M010
0001
1M00
0000
0010
0100
M001
0000
0010
0100
,
0000
0000
10M1
0000
0000
0100
000M
0000
0010
0001
1000
0001
0100
0000
0010
0100
,
0000
0000
0020
0000
0M00
0000
0001
0000
1030
0000
0000
0000
1100
0000
0010
0200
,
0000
0000
00M1
0000
0000
0000
1000
0000
0301
0000
1000
0001
0021
0000
0000
100M
,
0000
0000
0031
0010
0100
1000
0010
0100
0001
1000
0100
0010
0001
0000
1000
0020
,
0M00
0000
0031
0010
0100
0001
1000
0010
0100
0001
0100
0010
1000
0000
0000
1000
,
001M
0000
0100
0001
0010
0000
M000
0010
0100
0000
1000
0001
0100
0000
0000
0010
,
100M
0000
0100
1000
0001
0000
0000
0100
M010
0000
0100
0001
1000
0000
0000
0001
,
M010
0000
0100
1000
0010
0000
0000
1000
0M01
0000
0010
0001
0100
0000
0000
0001
,
10M0
0000
0100
0010
0001
0000
0000
0100
001M
1000
0001
0010
0100
0000
1000
0010
,
010M
0000
0001
1000
0100
0000
0010
0001
M100
0000
0001
0100
0010
0000
1000
0001
,
01M0
0000
0010
1000
0100
0000
0010
0001
1M00
0000
0001
0010
0100
0000
1000
0010
,
010M
0000
0010
1000
0001
0000
1000
0100
001M
0000
0001
1000
0100
0000
0010
0001
,
M100
0000
0010
1000
0001
0000
1000
0100
10M0
0001
0010
0100
1000
0000
0000
M0M1
,
0000
0000
M11M
0000
0000
0000
0010
0000
1001
0000
0000
0000
11MM
0000
0000
M1M1
,
0000
0000
M11M
0000
0000
0000
0010
0000
1001
0000
0000
0000
M1M1
0000
0000
11MM
,
0000
0000
0020
0M00
M000
000M
0130
0000
1001
0000
0000
0000
11MM
0000
0000
MM11
,
0000
0000
01M0
100M
01M0
00M1
01M0
10M0
00M1
1M00
00M1
1M00
00M1
0000
0000
0102
,
0000
00M0
1M03
0000
0000
0000
0010
0000
MMMM
0000
0000
0000
1010
0000
0000
1MM2
,
0000
0000
M013
0M00
0000
0000
0100
0000
MMMM
0000
0000
0000
1100
0000
0000
0101
,
0000
0110
0000
0000
MMMM
0000
0000
0000
,
0000
0000
0000
1001
,
0000
0000
0000
0000
,
0000
MMMM
0000
0000
;

//---------------dance-single - ----------------
#NOTES:
     dance-single:
     :
     Hard:
     8:
     0.492453,0.646093,0.368144,0.153951,0.240967,515.000000,460.000000,55.000000,23.000000,0.000000,0.000000,0.492453,0.646093,0.368144,0.153951,0.240967,515.000000,460.000000,55.000000,23.000000,0.000000,0.000000:
// measure 0
0000
0000
0000
0000
,  // measure 1
0000
0000
0000
0000
,  // measure 2
0000
0000
0000
0000
,  // measure 3
0000
0000
0000
0000
,  // measure 4
0000
0000
0000
0000
,  // measure 5
0000
0000
0000
0000
,  // measure 6
0000
0000
0000
0000
,  // measure 7
0000
0000
0000
0000
,  // measure 8
0000
0000
0000
0000
,  // measure 9
0000
0000
0000
0000
,  // measure 10
0000
0000
0000
0000
,  // measure 11
0000
0000
0000
0000
,  // measure 12
1010
0000
1000
0010
0001
0000
0101
0000
,  // measure 13
0001
0100
1000
0000
1100
0000
0100
1000
,  // measure 14
0010
0000
1010
0000
0010
0001
0100
0000
,  // measure 15
0101
0000
0100
1000
0001
0000
0010
0000
,  // measure 16
1010
0000
0100
0010
1000
0000
1100
0000
,  // measure 17
0100
0001
1000
0000
0101
0000
0010
0001
,  // measure 18
0100
0000
0011
0000
0001
1000
0010
0000
,  // measure 19
0110
0000
1000
0010
0001
0100
0001
0000
,  // measure 20
0020
1000
0030
1001
0000
0010
0002
0100
,  // measure 21
0003
1100
0000
0001
0200
0010
0300
0011
,  // measure 22
0000
1000
0020
0100
0030
1010
0000
0100
,  // measure 23
2000
0010
3000
0101
0000
1000
0001
0100
,  // measure 24
0010
0000
0000
1010
0000
0000
1001
0000
0000
0000
1000
0000
0100
0000
0010
0000
,  // measure 25
0011
0000
0000
0101
0000
0000
1001
0000
0000
0000
0010
0000
0100
0000
0010
0000
,  // measure 26
1100
0000
0000
0101
0000
0000
0110
0000
0000
0000
1000
0000
0100
0000
0010
0000
,  // measure 27
0011
0000
0000
1010
0000
0000
1001
0000
0000
0000
0000
0000
0110
0000
0000
0000
,  // measure 28
1000
0001
0100
0010
0000
1000
0010
0001
,  // measure 29
0000
0001
0100
0010
1000
0100
0010
0001
,  // measure 30
1000
0001
0100
0001
1000
0010
1000
0100
,  // measure 31
0010
0100
1000
0001
0010
0100
0010
0001
,  // measure 32
0100
0010
1000
0001
1000
0010
1000
0100
,  // measure 33
0010
0100
1000
0001
1000
0010
1000
0001
,  // measure 34
0100
0010
0100
0001
0010
0001
0100
0010
,  // measure 35
1000
0000
0000
0001
0000
0000
1001
0000
0000
0000
0000
0000
1000
0001
1000
0001
,  // measure 36
1000
0100
0010
0101
0000
0010
0100
1010
,  // measure 37
0000
0100
0010
1000
0000
0000
0000
0000
,  // measure 38
0001
0100
0010
1100
0000
1000
0010
0101
,  // measure 39
0000
1000
0001
0100
0000
0010
1000
0100
,  // measure 40
1000
0001
1000
0010
1000
0100
1000
0001
,  // measure 41
0010
0001
0100
0001
1000
0001
0010
0100
,  // measure 42
1000
0010
0100
0001
0010
0100
1000
0100
,  // measure 43
0010
0000
0100
0000
0001
0000
0100
0000
0010
0000
0100
0000
1000
0100
1000
0100
,  // measure 44
1000
0000
0000
0001
0000
0000
0101
0000
0000
0000
0000
0000
0001
0000
1000
0000
,  // measure 45
0010
0000
0000
0110
0000
0000
1001
0000
0000
0000
0000
0000
1000
0000
0010
0000
,  // measure 46
1010
0000
0000
1100
0000
0000
0011
0000
0000
0000
0000
0000
0001
0000
1000
0000
,  // measure 47
0110
0000
0000
0101
0000
0000
1100
0000
0000
0000
0000
0000
1000
0001
1000
0001
,  // measure 48
2000
0000
0000
0001
0000
0000
3100
0000
0000
0000
0000
0000
0010
0000
0001
0000
,  // measure 49
0200
0000
0000
0010
0000
0000
0301
0000
0000
0000
0000
0000
1000
0000
0001
0000
,  // measure 50
0020
0000
0000
1000
0000
0000
0130
0000
0000
0000
0000
0000
1000
0000
0010
0000
,  // measure 51
0002
0000
0000
1000
0000
0000
0103
0000
0000
0000
0000
0000
0002
0000
0000
0000
,  // measure 52
0023
0100
0030
0020
0000
0032
0000
0003
,  // measure 53
1000
0200
0000
0000
0300
0000
2000
0000
,  // measure 54
3020
0100
0030
0020
0000
2030
0000
3000
,  // measure 55
0001
0020
0000
0130
1000
0001
0201
0000
,  // measure 56
0000
1000
0300
1020
,  // measure 57
0000
0001
0030
1200
,  // measure 58
0000
0010
0300
1002
,  // measure 59
0000
0000
0000
0000
0000
0000
0000
0000
0013
0100
0010
0100
0010
0000
0001
0000
,  // measure 60
1000
0010
0000
0001
0010
1000
0000
1000
,  // measure 61
0010
0001
0000
0000
1001
0000
1000
0100
,  // measure 62
1000
0001
0000
0001
0100
1000
0000
1000
,  // measure 63
0100
0001
0000
1000
0010
0100
0001
0010
,  // measure 64
0001
0100
0010
0100
1000
0100
0010
0100
,  // measure 65
0001
0010
0100
0010
1000
0010
0100
0010
,  // measure 66
0001
0000
0100
0000
1000
0000
0100
0000
0001
0000
0100
0000
0010
0000
0010
1000
,  // measure 67
0000
1000
0001
0000
0001
0010
0000
0010
0001
1000
0001
1000
0001
0000
0010
0100
,  // measure 68
0000
0000
1010
0000
0000
0000
0100
0000
0010
0000
0000
0000
1000
0000
0001
0100
,  // measure 69
0000
0000
1001
0000
0000
0000
1000
0000
0100
0000
0000
0000
0010
0000
0001
0010
,  // measure 70
0000
0000
1010
0000
0000
0000
0100
0000
0010
0000
0000
0000
1000
0000
0001
0100
,  // measure 71
0000
0000
1001
0000
0000
0000
0100
0000
0010
1000
0010
1000
0010
0000
0000
0010
,  // measure 72
0100
0000
0000
0100
0001
0000
0000
0001
0010
0000
0000
0010
0100
0000
0000
0100
,  // measure 73
1000
0000
0000
1000
0010
0000
0000
0010
0001
0000
0000
0001
0010
0000
0000
0010
,  // measure 74
0100
0000
0000
0100
0001
0000
0000
0001
0100
0000
0000
0100
1000
0000
0000
1000
,  // measure 75
0010
0000
0000
0010
0100
0000
0000
0100
0001
1000
0001
1000
0001
0000
0000
0001
,  // measure 76
0010
0000
0000
0010
0100
0000
0000
0100
1000
0000
0000
1000
0100
0000
0000
0100
,  // measure 77
0010
0000
0000
0010
0001
0000
0000
0001
1000
0000
0000
1000
0010
0000
0000
0010
,  // measure 78
0100
0000
0000
0100
0001
0000
0000
0001
0010
0000
0000
0010
0100
0000
0000
0100
,  // measure 79
1000
0000
0000
1000
0001
0000
0000
0001
0100
0000
0000
0000
0001
0000
0000
1000
,  // measure 80
0000
0000
0100
0000
0000
0000
0010
0000
0100
0000
0000
0000
1000
0000
0000
0010
,  // measure 81
0000
0000
1001
0000
0000
0000
0010
0000
0001
0000
0000
0000
0100
0000
0000
0010
,  // measure 82
0000
0000
1100
0000
0000
0000
0001
0000
0100
0000
0010
0000
1000
0000
0000
0001
,  // measure 83
0000
0000
0010
0000
0000
0000
0100
0000
1000
0000
0100
0000
1001
0000
0000
0100
,  // measure 84
0000
0000
0010
0000
0000
0000
0000
0000
0001
0000
0000
0000
1001
0000
0000
0010
,  // measure 85
0000
0000
0100
0000
0000
0000
0000
0000
1000
0000
0000
0000
0001
0000
0000
1000
,  // measure 86
0000
0100
0000
0000
0001
0000
0000
0000
,  // measure 87
0000
0000
0000
1001
;

//---------------dance-single - ----------------
#NOTES:
     dance-single:
     :
     Medium:
     6:
     0.317465,0.411150,0.120484,0.227580,0.100403,332.000000,314.000000,18.000000,34.000000,0.000000,0.000000,0.317465,0.411150,0.120484,0.227580,0.100403,332.000000,314.000000,18.000000,34.000000,0.000000,0.000000:
// measure 0
0000
0000
0000
0000
,  // measure 1
0000
0000
0000
0000
,  // measure 2
0000
0000
0000
0000
,  // measure 3
0000
0000
0000
0000
,  // measure 4
0000
0000
0000
0000
,  // measure 5
0000
0000
0000
0000
,  // measure 6
0000
0000
0000
0000
,  // measure 7
0000
0000
0000
0000
,  // measure 8
0000
0000
0000
0000
,  // measure 9
0000
0000
0000
0000
,  // measure 10
0000
0000
0000
0000
,  // measure 11
0000
0000
0000
0000
,  // measure 12
2001
0000
3000
0020
0000
0030
0002
0000
,  // measure 13
0003
0200
0000
0300
2000
0000
3000
0020
,  // measure 14
0000
0030
0200
0000
0300
0002
0000
0003
,  // measure 15
0020
0000
0030
2000
0000
3000
0000
0000
,  // measure 16
0002
0000
0003
0020
0000
0030
2000
0000
,  // measure 17
3000
0200
0000
0300
0002
0000
0003
0020
,  // measure 18
0000
0030
0200
0000
0300
2000
0000
3000
,  // measure 19
0020
0000
0030
0002
0000
0003
0000
0000
,  // measure 20
2000
0000
3001
0200
0001
0300
0020
0000
,  // measure 21
0130
0002
0100
0003
2000
0000
3010
0002
,  // measure 22
0010
0003
0200
0000
0301
0020
0001
0030
,  // measure 23
2000
0000
3010
0200
0010
0300
0010
0000
,  // measure 24
0110
0000
0000
0100
0000
0000
0010
0000
0000
0000
0000
0000
1000
0000
0000
0000
,  // measure 25
0001
0000
0000
1000
0000
0000
0100
0000
0000
0000
0000
0000
0010
0000
0000
0000
,  // measure 26
0001
0000
0000
0100
0000
0000
0001
0000
0000
0000
0000
0000
1000
0000
0000
0000
,  // measure 27
0100
0000
0000
1000
0000
0000
0100
0000
0000
0000
0000
0000
0010
0000
0000
0000
,  // measure 28
1001
0000
0010
0000
0001
0100
0001
0000
,  // measure 29
1000
0100
0001
0100
,  // measure 30
0010
1000
0100
0000
1000
0010
1000
0000
,  // measure 31
0001
0010
0001
0000
0100
0010
0100
0000
,  // measure 32
1001
0000
0010
0000
0001
0100
0010
0000
,  // measure 33
1000
0100
1000
0000
0001
0010
0001
0000
,  // measure 34
0100
0000
0010
0000
1000
0001
0010
0000
,  // measure 35
0100
0000
0000
0010
0000
0000
1001
0000
0000
0000
0000
0000
0000
0000
0000
0000
,  // measure 36
0001
0100
0001
0100
0000
0010
1000
0010
,  // measure 37
0000
1000
0001
1000
0000
0000
0000
0000
,  // measure 38
0001
0010
0001
0010
0000
0100
1000
0100
,  // measure 39
0000
0010
0100
0010
0000
0000
0001
0000
,  // measure 40
0100
0010
1000
0000
0010
0100
0001
0000
,  // measure 41
1000
0010
1000
0000
0001
0010
0001
0000
,  // measure 42
1000
0100
1000
0000
0001
0100
0001
0000
,  // measure 43
1000
0010
1000
0000
0001
0010
0001
0000
,  // measure 44
1000
0000
0000
0001
0000
0000
0100
0000
0000
0000
0000
0000
0010
0000
0000
0000
,  // measure 45
0100
0000
0000
0001
0000
0000
0100
0000
0000
0000
0000
0000
1000
0000
0000
0000
,  // measure 46
0010
0000
0000
1000
0000
0000
0010
0000
0000
0000
0000
0000
0100
0000
0000
0000
,  // measure 47
0001
0000
0000
0010
0000
0000
0001
0000
0000
0000
0000
0000
1000
0000
0000
0000
,  // measure 48
0100
0000
0000
0100
0000
0000
0000
0000
0000
0000
0000
0000
0000
0000
0000
0000
,  // measure 49
0010
0000
0000
0010
0000
0000
0000
0000
0000
0000
0000
0000
0000
0000
0000
0000
,  // measure 50
0001
0000
0000
0001
0000
0000
0000
0000
0000
0000
0000
0000
0000
0000
0000
0000
,  // measure 51
1000
0000
0000
1000
0000
0000
1000
0000
0000
0000
0000
0000
0100
0000
0000
0100
,  // measure 52
0000
0000
0000
0000
0000
0000
0000
0000
0000
0000
0000
0000
0010
0000
0000
0010
,  // measure 53
0000
0000
0000
0000
0000
0000
0001
0000
0000
0000
0000
0000
1000
0000
0000
1000
,  // measure 54
0000
0000
0000
0000
0000
0000
0000
0000
0000
0000
0000
0000
0100
0000
0000
0100
,  // measure 55
0000
0000
0100
0000
0000
0100
0000
0000
0100
0000
0000
0000
2100
0000
0000
0000
,  // measure 56
0000
0000
3000
0012
,  // measure 57
0000
0000
0003
0201
,  // measure 58
0000
0000
0300
1020
,  // measure 59
0000
0000
0000
0000
0030
0000
1000
0100
,  // measure 60
1000
0001
0000
0010
0001
0010
0000
0100
,  // measure 61
0010
0100
0000
0000
0000
0000
1000
0001
,  // measure 62
0100
0010
0000
0100
0010
0100
0000
0010
,  // measure 63
1000
0010
0000
0000
1000
0000
0001
1000
,  // measure 64
0100
0000
0010
0001
0100
0000
0010
1000
,  // measure 65
0100
0000
0100
1000
0001
0000
0100
0010
,  // measure 66
1000
0000
0000
0000
1000
0000
0010
0000
0001
0000
0000
0000
0001
0000
0000
0010
,  // measure 67
0000
0000
1000
0000
0000
0010
0000
0000
0100
0000
0001
0000
0100
0000
0000
0010
,  // measure 68
0000
0000
0100
0000
0000
0000
0000
0000
0001
0000
0000
0000
0001
0000
0000
1000
,  // measure 69
0000
0000
0100
0000
0000
0000
0000
0000
0010
0000
0000
0000
0100
0000
0000
1000
,  // measure 70
0000
0000
0010
0000
0000
0000
0000
0000
0100
0000
0000
0000
0001
0000
0000
1000
,  // measure 71
0000
0100
0000
0000
0010
0000
0001
0000
,  // measure 72
0101
1000
1001
0010
,  // measure 73
1010
1000
1100
0100
,  // measure 74
1001
0010
1001
0100
,  // measure 75
0110
0000
0001
0000
1001
0000
0010
0001
,  // measure 76
0100
0001
0000
1000
0010
0100
0000
0010
,  // measure 77
1000
0100
0000
1000
0001
1000
0000
0100
,  // measure 78
0010
0100
0000
0010
0001
0010
0000
0100
,  // measure 79
1000
0000
0001
0000
0000
0000
0100
0000
0010
0000
0100
0000
0010
0000
0000
1000
,  // measure 80
0000
0000
0100
0000
0000
0000
0000
0000
1000
0000
0000
0000
0001
0000
0000
1000
,  // measure 81
0000
0100
0000
0000
0010
0000
0001
0100
,  // measure 82
0000
0000
0001
0000
0000
0000
0000
0000
1000
0000
0000
0000
0010
0000
0000
0100
,  // measure 83
0000
0000
0010
0000
0000
0000
0000
0000
1000
0000
0000
0000
0100
0000
0000
0010
,  // measure 84
0000
0000
0001
0000
0000
0000
0000
0000
1000
0000
0000
0000
0001
0000
0000
0010
,  // measure 85
0000
0000
0001
0000
0000
0000
0000
0000
0100
0000
0000
0000
1000
0000
0000
0001
,  // measure 86
0000
0100
0000
0000
1000
0000
0000
0000
,  // measure 87
0000
0000
0000
1001
;

//---------------dance-single - ----------------
#NOTES:
     dance-single:
     :
     Easy:
     4:
     0.244792,0.293679,0.046855,0.066935,0.000000,256.000000,249.000000,7.000000,10.000000,0.000000,0.000000,0.244792,0.293679,0.046855,0.066935,0.000000,256.000000,249.000000,7.000000,10.000000,0.000000,0.000000:
// measure 0
0000
0000
0000
0000
,  // measure 1
0000
0000
0000
0000
,  // measure 2
0000
0000
0000
0000
,  // measure 3
0000
0000
0000
0000
,  // measure 4
0000
0000
0000
0000
,  // measure 5
0000
0000
0000
0000
,  // measure 6
0000
0000
0000
0000
,  // measure 7
0000
0000
0000
0000
,  // measure 8
0000
0000
0000
0000
,  // measure 9
0000
0000
0000
0000
,  // measure 10
0000
0000
0000
0000
,  // measure 11
0000
0000
0000
0000
,  // measure 12
1001
1000
1000
0100
,  // measure 13
0100
0100
0010
0010
,  // measure 14
0010
0001
0001
0001
,  // measure 15
0100
0100
0100
0000
,  // measure 16
0101
0001
0001
0010
,  // measure 17
0010
0010
0100
0100
,  // measure 18
0100
1000
1000
1000
,  // measure 19
0001
0001
0001
0000
,  // measure 20
1100
1000
1000
0010
,  // measure 21
0010
0010
0001
0001
,  // measure 22
0001
0100
0100
0100
,  // measure 23
1000
1000
1000
0000
,  // measure 24
1001
0000
0010
0010
,  // measure 25
0001
0000
1000
0001
,  // measure 26
0100
0000
1000
1000
,  // measure 27
0010
0000
0100
1000
,  // measure 28
0001
0100
0001
0001
,  // measure 29
1000
1000
0001
0001
,  // measure 30
1000
0100
1000
0100
,  // measure 31
0010
0001
0010
0001
,  // measure 32
1000
0100
1000
1000
,  // measure 33
0001
0001
0100
0100
,  // measure 34
0001
0100
0001
1000
,  // measure 35
0010
0010
0100
0000
,  // measure 36
0001
0010
1000
0010
,  // measure 37
0001
1000
0100
0000
,  // measure 38
1000
0100
0001
0100
,  // measure 39
1000
0001
0100
0010
,  // measure 40
1000
0010
1000
0001
,  // measure 41
1000
0100
1000
0001
,  // measure 42
0100
0001
1000
0001
,  // measure 43
0010
0001
1000
0001
,  // measure 44
0100
0000
0000
0000
,  // measure 45
0010
1000
0100
0000
,  // measure 46
1000
0100
1000
0000
,  // measure 47
0001
1000
0100
0000
,  // measure 48
0010
0010
0001
0000
,  // measure 49
0100
0100
0010
0000
,  // measure 50
1000
1000
0001
0000
,  // measure 51
0010
0001
0000
0001
,  // measure 52
0200
0000
0300
0100
,  // measure 53
0200
0000
0300
1000
,  // measure 54
2000
0000
3000
0010
,  // measure 55
0020
0000
0030
0200
,  // measure 56
0000
0000
0300
0200
,  // measure 57
0000
0000
0300
2002
,  // measure 58
0000
0000
3003
0022
,  // measure 59
0000
0000
0033
1000
,  // measure 60
0100
1000
0001
0010
,  // measure 61
0100
1000
0000
0001
,  // measure 62
0010
0001
1000
0100
,  // measure 63
0001
0010
0100
1000
,  // measure 64
0100
0001
0100
1000
,  // measure 65
0010
1000
0001
0100
,  // measure 66
1000
0100
0001
0010
,  // measure 67
0001
1000
0001
0100
,  // measure 68
0000
0010
0010
1000
,  // measure 69
0000
0100
0100
0010
,  // measure 70
0000
0001
0100
0001
,  // measure 71
0000
1000
1000
0100
,  // measure 72
0100
0001
0001
1000
,  // measure 73
1000
0010
0010
0100
,  // measure 74
0100
0001
0001
0010
,  // measure 75
0010
0100
0100
1000
,  // measure 76
0100
1000
0001
1000
,  // measure 77
0010
1000
0001
0100
,  // measure 78
0001
1000
0001
0010
,  // measure 79
0001
0010
0100
1000
,  // measure 80
0000
0001
1000
0100
,  // measure 81
0000
0010
0100
0010
,  // measure 82
0000
0001
0100
1000
,  // measure 83
0000
0010
1000
0001
,  // measure 84
0100
0001
0000
1000
,  // measure 85
0100
1000
0000
0010
,  // measure 86
0100
0001
0000
0000
,  // measure 87
0000
0000
0000
1001
;

//---------------dance-single - ----------------
#NOTES:
     dance-single:
     :
     Beginner:
     1:
     0.111878,0.176207,0.013387,0.000000,0.000000,117.000000,115.000000,2.000000,0.000000,0.000000,0.000000,0.111878,0.176207,0.013387,0.000000,0.000000,117.000000,115.000000,2.000000,0.000000,0.000000,0.000000:
// measure 0
0000
0000
0000
0000
,  // measure 1
0000
0000
0000
0000
,  // measure 2
0000
0000
0000
0000
,  // measure 3
0000
0000
0000
0000
,  // measure 4
0000
0000
0000
0000
,  // measure 5
0000
0000
0000
0000
,  // measure 6
0000
0000
0000
0000
,  // measure 7
0000
0000
0000
0000
,  // measure 8
0000
0000
0000
0000
,  // measure 9
0000
0000
0000
0000
,  // measure 10
0000
0000
0000
0000
,  // measure 11
0000
0000
0000
0000
,  // measure 12
0001
0000
0000
1000
,  // measure 13
0000
0000
0100
0000
,  // measure 14
0000
0010
0000
0000
,  // measure 15
0001
0000
0000
0000
,  // measure 16
0100
0000
0000
0010
,  // measure 17
0000
0000
1000
0000
,  // measure 18
0000
0100
0000
0000
,  // measure 19
0010
0000
0000
0000
,  // measure 20
0001
0000
0000
1000
,  // measure 21
0000
0000
0010
0000
,  // measure 22
0000
0100
0000
0000
,  // measure 23
0001
0000
0000
0000
,  // measure 24
1001
0000
0000
0000
,  // measure 25
0010
0000
0000
0000
,  // measure 26
0100
0000
0000
0000
,  // measure 27
0010
0000
0000
0000
,  // measure 28
1000
0000
1000
0000
,  // measure 29
0001
0000
0001
0000
,  // measure 30
0100
0000
0010
0000
,  // measure 31
1000
0000
0100
0000
,  // measure 32
0010
0000
0001
0000
,  // measure 33
0100
0000
0010
0000
,  // measure 34
1000
0000
0001
0000
,  // measure 35
0100
0000
0000
0000
,  // measure 36
0001
0001
0000
0010
,  // measure 37
0000
0100
0000
0000
,  // measure 38
1000
1000
0000
0010
,  // measure 39
0000
0100
0000
0010
,  // measure 40
0000
1000
0000
0001
,  // measure 41
0000
1000
0000
0100
,  // measure 42
0000
0010
0000
0001
,  // measure 43
0000
0100
0100
0100
,  // measure 44
0100
0000
0000
0000
,  // measure 45
0010
0000
0000
0000
,  // measure 46
1000
0000
0000
0000
,  // measure 47
0001
0000
0000
0000
,  // measure 48
0010
0000
0000
0000
,  // measure 49
0100
0000
0000
0000
,  // measure 50
1000
0000
0000
0000
,  // measure 51
0001
0000
0000
0001
,  // measure 52
0000
0000
0000
0001
,  // measure 53
0000
0000
0000
1000
,  // measure 54
0000
0000
0000
0100
,  // measure 55
0000
0100
0000
0100
,  // measure 56
0000
0000
0000
0010
,  // measure 57
0000
0000
0000
0001
,  // measure 58
0000
0000
0000
1000
,  // measure 59
0000
0000
0000
0010
,  // measure 60
0010
0000
1000
0000
,  // measure 61
0100
0000
0000
0001
,  // measure 62
0001
0000
1000
0000
,  // measure 63
0100
0000
0010
0000
,  // measure 64
0100
0000
0010
0000
,  // measure 65
0001
0000
1000
0000
,  // measure 66
0001
0000
0010
0000
,  // measure 67
0100
0100
0100
0100
,  // measure 68
0000
0000
0000
0100
,  // measure 69
0000
0000
0000
0010
,  // measure 70
0000
0000
0000
0010
,  // measure 71
0000
0000
0000
0001
,  // measure 72
0000
0001
0000
1000
,  // measure 73
0000
1000
0000
0100
,  // measure 74
0000
0100
0000
0010
,  // measure 75
0000
0010
0000
0001
,  // measure 76
0000
0001
0000
0100
,  // measure 77
0000
0100
0000
0010
,  // measure 78
0000
0010
0000
1000
,  // measure 79
0000
1000
0000
0001
,  // measure 80
0000
0000
0000
1000
,  // measure 81
0000
0000
0000
0100
,  // measure 82
0000
0000
0000
0010
,  // measure 83
0000
0000
0000
0001
,  // measure 84
0000
0000
0000
0100
,  // measure 85
0000
0000
0000
0010
,  // measure 86
0000
0000
0000
0000
,  // measure 87
0000
0000
0000
1001
;
