#TITLE:World's End Valentine;
#SUBTITLE:;
#ARTIST:OMORI;
#TITLETRANSLIT:;
#SUBTITLETRANSLIT:;
#ARTISTTRANSLIT:;
#GENRE:OMORI;
#CREDIT:[Ness];
#BANNER:OMORI - World's End Valentine (for TapMania).png;
#BACKGROUND:OMORI - World's End Valentine (for TapMania)-bg.png;
#LYRICSPATH:;
#CDTITLE:;
#MUSIC:OMORI - World's End Valentine (for TapMania).mp3;
#OFFSET:-0.045000;
#SAMPLESTART:26.545828;
#SAMPLELENGTH:17.777777;
#LASTBEATHINT:373.999969;
#SELECTABLE:YES;
#BPMS:0.000000=150.000000
,44.000000=162.000000
;
#STOPS:
;
#BGCHANGES:;
#KEYSOUNDS:;
#ATTACKS:;

//---------------dance-single - ----------------
#NOTES:
     dance-single:
     :
     Challenge:
     12:
     0.919690,1.124498,0.481069,0.113193,0.898466,910.000000,842.000000,68.000000,16.000000,187.000000,0.000000,0.919690,1.124498,0.481069,0.113193,0.898466,910.000000,842.000000,68.000000,16.000000,187.000000,0.000000:
0000
0000
0000
0000
,
0000
0000
0000
0000
,
0000
0000
0000
0000
,
0000
0000
0000
0000
,
00M1
0100
1000
0100
0020
0000
2030
0000
,
3M01
1000
0010
0100
,
M001
0000
0010
0100
0010
0000
1000
0000
,
020M
0000
0000
0000
,
032M
1030
M200
0301
,
20M0
0000
3M02
0000
,
M023
0000
0000
0030
,
0022
0000
MM30
0010
2000
0000
3MM0
1000
,
0020
0000
MM30
0010
2000
0000
3MM0
1003
,
0010
1000
001M
0100
0001
0100
00M1
1000
0M10
1000
001M
0100
M001
0100
00M1
1000
,
0M10
1000
001M
0100
M001
0100
00M1
1000
0M10
1000
001M
0100
M001
0100
00M1
1000
,
0010
0100
M001
0100
0010
100M
0010
0100
M001
0100
0010
100M
0010
0100
M001
0100
,
0010
1000
0001
0100
0010
1000
0001
0100
0010
1000
0001
0100
0010
1000
0001
0100
,
0001
1000
0100
0001
0010
0100
1000
0001
,
0100
0010
0100
1000
0001
0000
1010
0000
,
1001
0001
0100
0010
100M
0100
0010
0000
0011
0001
0100
0010
100M
0100
0010
0000
,
0110
0001
1000
0010
010M
0010
1000
0000
1100
1000
0001
0100
M010
0100
0001
0000
,
0101
0001
1000
0010
0100
0001
M010
0000
0011
0010
0100
100M
0010
0100
0001
0000
,
1000
0100
0010
0000
0M01
1000
0010
0000
0100
M001
0010
0000
0100
1000
00M1
0000
,
1001
0001
0100
0010
1000
0100
001M
0000
0110
0100
1000
00M1
0100
0010
1000
0000
,
1010
0100
0001
M010
0100
1000
0010
000M
0110
0100
0001
10M0
0100
0010
0001
M000
,
0010
0001
1000
0010
0100
0001
1000
00M0
0100
1000
0001
0100
0010
1000
010M
0000
,
0010
0001
0100
1000
0100
0001
0010
0100
,
0010
0000
0001
0100
0010
1000
0100
0010
0001
0000
1000
0100
0010
0001
0100
0010
,
1000
0000
0010
0100
0001
1000
0010
0100
0001
0000
0010
0100
1000
0001
0010
0100
,
1000
0000
0010
1000
0001
0010
0100
0010
0001
0000
1000
0100
0010
0100
1000
0001
,
0100
0000
0010
1000
0100
0010
0001
1000
0010
0000
0100
0001
0010
0100
1000
0001
,
10M1
0010
0100
0010
M110
0001
0100
1000
,
110M
0100
10M1
0001
M011
0010
1M01
1000
,
101M
0000
0100
0001
0010
0100
1000
0010
0100
0000
0001
1000
0100
0010
0001
1000
,
0010
0000
0000
0010
0100
0000
0000
0100
0001
0000
0000
0001
1000
0000
0000
1000
,
0100
0000
0010
0000
0010
0001
0100
0010
1000
0000
1000
0001
0000
0010
0100
0010
,
0001
1000
0010
0100
0010
1000
0100
0010
0001
0000
1000
0010
0000
0100
1000
0100
,
0010
0000
1000
0000
0001
0000
1000
0100
0010
0001
0100
0010
0100
0000
0001
0010
,
0100
1000
0010
1000
0001
1000
0100
0010
0001
0010
0100
0000
0110
0000
0011
0000
,
1000
0100
0010
0001
0010
0100
0010
0001
0000
1000
0100
0010
0100
1000
0100
0010
,
0001
0010
0100
0010
0001
0010
0100
1000
0001
0000
1000
0010
0100
0001
1000
0010
,
1000
0001
0100
0010
0100
0001
0100
0010
0000
1000
0100
0010
0100
1000
0100
0010
,
0001
0100
0010
1000
0001
1000
0100
0010
0001
0010
0100
1000
0001
1000
0010
0100
,
0001
0000
0010
0000
0100
0000
1000
0000
0000
0001
0000
0000
1000
0000
0000
0100
0000
0000
0010
0000
0000
0001
0000
0000
1000
0000
0000
0100
0000
0000
1000
0000
0000
0001
0000
0000
0100
0000
0000
0010
0000
0000
1000
0000
0000
0001
0000
0000
,
0010
0000
1000
0010
0000
0000
0001
0000
1000
0000
0100
0000
0001
0000
0100
1000
,
0100
0000
0001
0100
1000
0100
0010
1000
,
0010
0001
0100
1000
0100
0001
1000
0010
,
0001
0100
1000
0100
0001
0100
1000
0100
,
0001
0010
1000
0100
0010
0001
0100
0010
,
0100
0000
1000
0100
1000
0010
0001
0010
,
1000
0100
0001
0010
0100
1000
0010
0001
,
0200
0310
1002
0013
,
0200
0000
1300
0000
0001
1000
0010
0000
,
0110
0000
0000
1000
0100
0000
1000
0000
0010
0000
0001
0000
0010
0000
0100
0000
,
0001
1000
0010
0100
0010
1000
0100
0010
,
0001
0000
0000
0001
1000
0000
0100
0000
0010
0000
0100
0000
0001
0000
0100
0000
,
1000
0000
0010
0000
0100
0000
0010
0000
1000
0010
1000
0010
1000
0000
0001
0000
,
0101
0000
1000
0100
1000
0000
1000
0010
1000
0000
1000
0001
1000
0000
0010
0100
,
0010
0000
0010
1000
0010
0000
0010
0001
0010
0000
0010
1000
0010
0000
0100
0001
,
0100
0000
0100
0010
0100
0000
0001
1000
0001
0000
0001
0010
0001
0000
0100
0010
,
0100
0001
0100
0010
1000
0000
0010
1000
0010
0000
0010
0001
0010
0000
1000
0100
,
1000
0000
0001
0010
0001
0000
1000
0100
1000
0000
0010
0001
0010
0000
0100
1000
,
0100
0000
0001
0010
0001
0000
0100
0001
0100
0000
1000
0010
1000
0000
0100
0010
,
0001
0000
1000
0010
0100
0000
0001
1000
0010
0000
1000
0100
0010
0000
0001
1000
,
0010
0000
0100
0001
0010
0000
0001
1000
0100
0000
0010
0001
0100
0000
0010
1000
,
0001
0010
0001
0100
0010
0100
1000
0100
0001
0100
0010
1000
0100
0010
0001
0010
,
0100
1000
0010
1000
0100
0010
0001
0010
1000
0010
0100
0010
0001
1000
0100
0010
,
0001
1000
0010
0100
0010
1000
0010
0001
0010
0100
1000
0100
0010
1000
0001
0010
,
0100
0000
1000
0100
0010
0001
1000
0100
0010
0001
1000
0100
0010
0001
1000
0100
,
1000
M1M1
M11M
1M1M
,
11MM
11MM
MM11
MM11
,
MMMM
M1M1
M11M
11MM
,
M1M1
M1M1
1M1M
1M1M
,
MMMM
1MM1
M11M
1M1M
,
MM11
M11M
MM11
1MM1
,
MMMM
M1M1
M11M
11MM
,
0001
0010
1000
0100
0001
0000
MMMM
0000
,
1001
0100
001M
1000
0M10
0001
M010
0100
,
00M1
1000
010M
0010
0M01
M010
0M11
M010
,
1M01
1000
010M
0010
0M01
1000
01M0
1000
,
0M01
0000
0010
0000
010M
0000
1000
0000
1M01
0000
00M1
0000
1M00
0001
10M0
0001
,
1M00
0010
010M
0010
1M00
0001
M010
0100
,
011M
0000
0001
0000
01M0
0000
0001
0000
1M00
0000
0010
0000
M100
0001
1000
0010
,
1M1M
1000
00M1
0010
M1M1
1000
010M
0010
,
11MM
0010
M11M
1000
MM11
0001
1MM1
0010
,
1MM1
0100
1MM1
0010
1MM1
0100
1MM1
0010
,
1MM1
0100
1MM1
0010
1MM1
0100
1MM1
0010
,
1MM0
0001
0100
0010
1000
0001
0100
0010
1000
0001
0100
0010
1000
0001
0100
0010
,
1000
0100
0001
1000
0010
0001
0100
0010
,
1000
0000
0100
0000
0010
0000
0100
0000
0001
1000
0100
1000
0001
0000
0000
0000
,
1001
0000
0000
0000
,
0000
0000
0000
0000
,
0000
0000
0000
0000
,
0000
0000
MMMM
0000
;

//---------------dance-single - ----------------
#NOTES:
     dance-single:
     :
     Hard:
     9:
     0.667028,0.764050,0.254683,0.113193,0.258221,660.000000,624.000000,36.000000,16.000000,0.000000,0.000000,0.667028,0.764050,0.254683,0.113193,0.258221,660.000000,624.000000,36.000000,16.000000,0.000000,0.000000:
0000
0000
0000
0000
,
0000
0000
0000
0000
,
0000
0000
0000
0000
,
0000
0000
0000
0000
,
0001
0100
1000
0100
0020
0000
2030
0000
,
3001
1000
0010
0100
,
0001
0000
0010
0100
0010
0000
1000
0000
,
0200
0000
0000
0000
,
0320
1030
0200
0301
,
2000
0000
3002
0000
,
0023
0000
0000
0030
,
0022
0000
0033
0010
0200
0000
0300
0100
,
0020
0000
0030
0010
0200
0000
0300
0100
,
0010
0001
1000
0001
0010
0001
1000
0001
,
0010
0001
1000
0001
0010
0001
1000
0001
,
0010
0100
1000
0001
0010
0100
1000
0001
,
0010
0100
1000
0001
0010
0100
1000
0001
,
0010
1000
0100
0001
0010
0100
1000
0001
,
0100
0010
0100
1000
0001
0000
1010
0000
,
1001
0000
1000
0100
0010
0000
0001
0000
0100
0000
0001
0010
0100
0000
0010
0000
,
0001
0000
1000
0010
0100
0000
0001
0000
1000
0000
0001
1000
0100
0000
0010
0000
,
0001
0000
0100
0010
1000
0000
0100
0000
0010
0000
0001
1000
0010
0000
0100
0000
,
0001
1100
0011
0011
,
1001
0000
0001
0100
0010
0000
1000
0000
0100
0000
0010
0100
1000
0000
0001
0000
,
0010
0000
0100
0010
0001
0000
1000
0000
0010
0000
0100
0001
1000
0000
0001
0000
,
0010
0000
0100
1000
0001
0000
1000
0000
0010
0000
0100
0001
0010
0000
0100
0000
,
0010
0001
0100
1000
0100
0001
0010
0100
,
0010
0000
0000
0010
0001
0000
0000
0001
1000
0000
0000
1000
0010
0000
0000
0010
,
0001
0000
0000
0001
0100
0000
0000
0100
1000
0000
0000
1000
0001
0000
0000
0001
,
0010
0000
0000
0010
0100
0000
0000
0100
0001
0000
0000
0001
1000
0000
0010
0000
,
0100
0000
0000
0100
0010
0000
0000
0010
1000
0000
0000
1000
0100
0000
0000
0100
,
0010
0000
0000
0001
1000
0000
0000
0010
0100
0000
0000
0001
0010
0000
0000
0100
,
1000
0000
0000
0010
0100
0000
0000
0001
0010
0000
0000
0100
1000
0000
0000
0001
,
0010
0000
0000
0010
0100
0000
0000
0100
1000
0000
0000
1000
0001
0000
0000
0001
,
0100
0000
0000
0100
0010
0000
0000
0010
1000
0000
0000
1000
0001
0000
0000
0001
,
0010
0000
0001
0000
0100
0001
1000
0000
0100
0000
1000
0010
0000
1000
0010
0000
,
0100
0000
0001
0000
0010
0000
0100
0000
0010
0000
0001
1000
0000
0010
0100
0000
,
0010
0000
1000
0000
0100
0000
1000
0000
0001
0010
0001
0000
0100
0000
0010
0000
,
1000
0100
1000
0000
0001
0000
1000
0000
0100
0000
0010
0000
0001
0000
0010
0000
,
0100
1000
0100
0000
1000
0000
0010
0100
0000
0001
0100
0000
0001
0000
0010
0000
,
0100
0010
0100
0000
0010
0000
0001
1000
0010
0000
0100
0001
1000
0000
0100
0000
,
0010
0001
0010
0000
0100
0000
1000
0010
0000
0100
0001
0000
1000
0000
0001
0000
,
0100
0010
0100
0000
0001
0010
0001
0000
1000
0010
1000
0000
0001
0000
1000
0000
,
0010
0100
0001
0000
1000
0100
1000
0000
0001
0100
0001
0000
1000
0000
0100
0010
,
0100
0000
1000
0010
0000
0000
1000
0000
0001
0000
0100
0000
1000
0000
0100
0000
,
0001
0000
1000
0100
0010
0001
1000
0001
,
1000
0001
0010
0100
1000
0001
0100
0010
,
1000
0001
0010
0100
,
0010
1001
0100
1001
,
0100
0000
0001
0100
0010
1000
0001
1000
,
0001
1000
0010
0100
0001
0010
0100
1000
,
0020
0130
0102
1003
,
2001
0000
3100
0000
0010
0001
1000
0000
,
1001
0000
0000
0001
0010
0000
0100
0000
1000
0000
0001
0000
1000
0000
0001
0000
,
0100
0000
0010
1000
0100
1000
0010
0000
,
0100
0000
0000
0001
0010
0000
0100
0000
1000
0000
0001
0000
1000
0000
0000
0000
,
0010
0100
0001
1000
0100
0010
0100
0000
,
0010
0001
0010
0100
0010
1000
0010
0100
,
0010
0001
0100
0001
1000
0010
0100
0001
,
1000
0010
0001
0010
1000
0100
0001
0100
,
1000
0010
0100
0010
0001
0010
0100
0010
,
1000
0100
0010
0001
1000
0100
0010
0100
,
1000
0001
0010
0100
0010
1000
0010
0100
,
0010
0001
0100
1000
0100
0001
0010
1000
,
0010
0001
0100
0010
1000
0001
0100
0010
,
1000
0100
1000
0000
0001
0000
0010
0000
0100
0000
0010
0000
1000
0000
0010
0000
,
0100
1000
0001
1000
0010
0100
0001
0100
,
0010
0100
0010
0000
0100
0000
1000
0000
0100
0000
0010
0000
0100
0000
0001
0000
,
1000
0001
0010
0100
1000
0010
0100
0001
,
0010
0011
1010
1100
,
1001
1001
0110
0110
,
1000
0101
0110
0110
,
1100
1100
0110
0110
,
1000
0001
1100
1100
,
0011
0011
1100
1100
,
0010
0100
1010
1010
,
0001
0010
1000
0100
0001
0000
0000
0000
,
1001
1000
0001
1000
0010
1000
0100
1000
,
0001
1000
0010
1000
0001
0010
0100
0010
,
0001
0100
0001
1000
0001
0010
0001
0100
,
0001
0010
0001
0100
0010
0100
0010
0100
,
0001
1000
0100
1000
0001
1000
0010
1000
,
0001
1000
0100
1000
0010
0100
0010
0100
,
0001
0010
0100
0010
0001
0010
1000
0010
,
0001
0010
0100
0010
0001
0100
0010
0100
,
0001
1000
0100
1000
0001
0100
0001
1000
,
0100
1000
0001
0100
0001
1000
0100
1000
,
0001
0010
1000
0100
0010
0001
0100
0010
,
1000
0100
0001
1000
0010
0001
0100
0010
,
1000
0000
0100
0000
0010
0000
0100
0000
0001
1000
0001
1000
0001
0000
0000
0000
,
1001
0000
0000
0000
;

//---------------dance-single - ----------------
#NOTES:
     dance-single:
     :
     Medium:
     7:
     0.464898,0.541202,0.191013,0.183938,0.003537,460.000000,433.000000,27.000000,26.000000,0.000000,0.000000,0.464898,0.541202,0.191013,0.183938,0.003537,460.000000,433.000000,27.000000,26.000000,0.000000,0.000000:
0000
0000
0000
0000
,
0000
0000
0000
0000
,
0000
0000
0000
0000
,
0000
0000
0000
0000
,
0001
0100
1000
0100
0020
0000
2030
0000
,
3001
1000
0010
0100
,
0001
0000
0010
0100
0010
0000
0001
0000
,
0200
0000
0000
0000
,
0320
1030
0002
0103
,
2000
0000
3002
0000
,
0023
0000
0000
0030
,
2002
0000
3003
1000
0200
0000
0300
1000
,
0002
0000
0003
1000
0200
0000
0300
0000
,
0020
0030
0002
0003
,
2000
3000
0020
0030
,
0100
0001
1000
0100
,
0010
0001
0100
0010
,
0110
0000
0000
0000
,
0000
0000
0101
0101
,
1001
0000
0100
0000
0001
0010
1000
0000
,
0010
0100
0001
0000
1000
0100
0010
0000
,
0001
1000
0010
0000
0100
0001
0010
0000
,
0001
0100
0010
1000
0001
0100
0010
0000
,
1000
0100
0010
0000
0001
1000
0010
0000
,
1000
0001
0100
0000
0010
1000
0100
0000
,
0010
0001
0100
0000
0001
1000
0100
0000
,
0010
0001
0100
1000
0100
0001
0010
0000
,
2100
3010
0102
1003
,
0010
0001
0100
0000
0010
1000
0100
0000
,
0012
1003
1020
0130
,
0010
1000
0001
0000
0010
0100
1000
0000
,
1010
0100
0010
0100
,
1001
0010
0001
0010
,
0012
0103
2100
3010
,
0100
0010
0100
0010
,
1000
0100
1000
0001
0010
0100
0010
0000
,
0001
0100
0001
0000
1000
0010
1000
0000
,
0001
0100
0010
1000
0001
1000
0001
0000
,
0010
0100
0010
0001
0100
0010
0100
0000
,
0001
0010
0001
0100
0000
1000
0100
1000
,
0010
0000
1000
0100
0010
0001
0100
0000
,
0001
1000
0001
0100
0000
0010
1000
0010
,
0100
0000
0001
0010
0100
1000
0001
0100
,
0001
0010
0100
0010
0001
0100
0010
0000
,
1000
0000
0000
0001
0000
0000
0100
0000
0010
0000
1000
0000
0100
0000
0010
0000
,
0001
0010
0100
1000
,
0010
0100
0001
0100
,
1000
0001
0010
0100
,
0010
1001
0100
1001
,
0100
1000
0010
0001
,
0100
0010
1000
0001
,
0020
0130
2100
3001
,
1002
0000
0103
0000
0010
1000
0001
0000
,
1001
0000
1000
0100
1000
0100
1000
0000
,
0001
0010
0001
0000
0100
0010
0100
0000
,
0001
0100
0001
0100
0001
0100
0001
0000
,
1000
0010
1000
0000
0001
0010
0001
0000
,
1000
1100
0101
0010
,
0100
0001
1000
0000
0010
0001
0100
0000
,
0010
1100
1010
0100
,
0010
0001
0100
0000
0010
1000
0001
0000
,
1000
1010
0101
1000
,
0010
0100
0010
0001
0010
0100
0010
0000
,
1000
0011
0101
0001
,
0100
1000
0100
0010
0100
1000
0100
0000
,
1000
0001
0100
0000
0010
1000
0100
0000
,
0001
0010
0100
0000
1000
0010
0001
0000
,
1000
0010
0100
0001
0010
0100
0010
0001
,
0100
0010
0100
0010
1000
0001
1000
0001
,
1000
0100
0001
1000
,
0010
0010
0100
0100
,
0000
0001
0010
0100
,
1000
1000
0001
0001
,
0000
0100
0100
0001
,
0010
0010
1000
1000
,
0000
0001
0010
0100
,
1000
0001
1000
0001
0100
0000
0000
0000
,
1000
0100
1000
0100
0010
0100
0010
0000
,
0001
0100
0001
0000
1000
0010
1000
0000
,
0001
0100
0010
0100
0001
0100
0001
0000
,
1000
0010
1000
0000
0001
0010
0001
0000
,
1000
0001
1000
0001
0100
0010
0100
0000
,
0001
0100
0001
0000
1000
0100
1000
0000
,
0001
1000
0001
1000
0100
0010
0100
0000
,
0010
0001
0010
0000
0100
1000
0100
0000
,
1000
0001
1000
0000
0001
1000
0001
0000
,
1000
0001
1000
0000
0001
1000
0001
0000
,
0100
0010
1000
0001
0100
0010
1000
0001
,
0100
0000
0000
0000
,
0000
0000
0000
0000
1000
0001
0010
0000
,
0110
0000
0000
0000
;

//---------------dance-single - ----------------
#NOTES:
     dance-single:
     :
     Easy:
     5:
     0.382025,0.573038,0.382025,0.191013,0.000000,378.000000,324.000000,54.000000,27.000000,0.000000,0.000000,0.382025,0.573038,0.382025,0.191013,0.000000,378.000000,324.000000,54.000000,27.000000,0.000000,0.000000:
// measure 0
0000
0000
0000
0000
,  // measure 1
0000
0000
0000
0000
,  // measure 2
0000
0000
0000
0000
,  // measure 3
0000
0000
0000
0000
,  // measure 4
0001
0100
0010
1000
,  // measure 5
0001
1000
0100
0010
,  // measure 6
0100
0000
1000
0001
1000
0000
0010
0000
,  // measure 7
0200
0000
0000
0300
,  // measure 8
0001
0100
0010
1000
,  // measure 9
0200
0300
0020
0030
,  // measure 10
0002
0000
0003
0000
,  // measure 11
0020
0030
0200
0300
,  // measure 12
0020
0030
0200
0300
,  // measure 13
0020
0031
0020
0130
,  // measure 14
0020
1030
0020
0130
,  // measure 15
0010
0001
0100
1000
,  // measure 16
0010
0001
0100
1000
,  // measure 17
1001
0000
0000
0000
,  // measure 18
0000
0000
1000
0001
,  // measure 19
1000
1100
0001
0101
,  // measure 20
1000
1100
0001
0101
,  // measure 21
1000
1100
0001
0101
,  // measure 22
1010
1010
0101
0101
,  // measure 23
0001
0011
1000
1010
,  // measure 24
0001
0011
1000
1010
,  // measure 25
0001
0010
0100
1000
,  // measure 26
1001
0000
0000
0000
,  // measure 27
0010
0001
0100
0010
,  // measure 28
1000
0100
0010
0100
,  // measure 29
1000
0001
0010
0100
,  // measure 30
0010
0001
0100
0010
,  // measure 31
1001
0010
1001
0100
,  // measure 32
1001
1001
0110
0110
,  // measure 33
1001
0100
0001
0100
,  // measure 34
0010
1000
0001
0100
,  // measure 35
0010
0000
1000
0000
0001
0100
1000
0000
,  // measure 36
0100
0010
0001
1000
,  // measure 37
0010
0100
0010
1000
,  // measure 38
0001
0010
0100
1000
,  // measure 39
0001
1000
0100
0000
0010
0000
0010
0000
,  // measure 40
0100
0000
0100
0000
0010
0010
0010
0000
,  // measure 41
0001
0100
1000
0000
0100
0000
0010
0000
,  // measure 42
1000
0100
0010
0001
,  // measure 43
0100
0010
1000
0001
,  // measure 44
0010
0100
0010
0100
,  // measure 45
1001
0100
0001
0010
,  // measure 46
0010
0001
0100
1000
,  // measure 47
0020
0130
0002
1003
,  // measure 48
0200
1300
0020
0031
,  // measure 49
1000
0001
0100
0010
,  // measure 50
0010
0100
0001
0010
,  // measure 51
0200
1300
0020
0130
,  // measure 52
0002
1003
0200
0310
,  // measure 53
0022
0033
1000
0001
,  // measure 54
2000
3000
0100
1000
,  // measure 55
0220
0330
0001
1000
,  // measure 56
0200
0300
0010
0001
,  // measure 57
1100
0100
0100
1100
,  // measure 58
0010
1000
0010
0000
0100
0010
0100
0000
,  // measure 59
0001
0010
0100
1000
,  // measure 60
0001
0010
0001
0100
,  // measure 61
0101
0100
0100
0101
,  // measure 62
0001
1000
0001
0000
0010
0000
0100
0000
,  // measure 63
1000
0010
0001
0010
,  // measure 64
1000
0100
0010
0011
,  // measure 65
1001
0100
0010
0100
,  // measure 66
1001
0010
0100
0010
,  // measure 67
1001
0100
1001
0100
,  // measure 68
0011
0010
1100
1000
,  // measure 69
1001
0100
0001
0001
,  // measure 70
0010
0010
0001
0001
,  // measure 71
0000
1000
0010
0010
,  // measure 72
1000
1000
0010
0010
,  // measure 73
0000
0100
0001
0001
,  // measure 74
1000
1000
0001
0001
,  // measure 75
0000
0100
0010
0100
,  // measure 76
0001
0010
0200
0300
,  // measure 77
1000
0100
1000
0000
0010
0000
0100
0000
,  // measure 78
0001
1000
0100
0010
,  // measure 79
0001
0010
0001
0000
1000
0000
0100
0000
,  // measure 80
0010
0100
1001
1001
,  // measure 81
0010
0001
0010
0000
0100
0000
1000
0000
,  // measure 82
0001
0100
0010
0010
,  // measure 83
1010
0100
0010
0010
,  // measure 84
0101
0010
0100
0100
,  // measure 85
0110
0100
0110
0100
,  // measure 86
0110
0110
0110
0110
,  // measure 87
1001
0110
1001
0110
,  // measure 88
1001
0000
0000
0000
,  // measure 89
0000
0000
0000
0000
0001
1000
0100
0000
,  // measure 90
1001
0000
0000
0000
;

//---------------dance-single - ----------------
#NOTES:
     dance-single:
     :
     Beginner:
     3:
     0.225375,0.573038,0.290056,0.014149,0.000000,223.000000,182.000000,41.000000,2.000000,0.000000,0.000000,0.225375,0.573038,0.290056,0.014149,0.000000,223.000000,182.000000,41.000000,2.000000,0.000000,0.000000:
// measure 0
0000
0000
0000
0000
,  // measure 1
0000
0000
0000
0000
,  // measure 2
0000
0000
0000
0000
,  // measure 3
0000
0000
0000
0000
,  // measure 4
0001
0000
0010
0000
,  // measure 5
0001
0000
1000
0000
,  // measure 6
0100
0000
0010
0000
,  // measure 7
0100
0000
0000
0000
,  // measure 8
1000
0000
0001
0000
,  // measure 9
0100
0000
0010
0000
,  // measure 10
1000
0000
0000
0000
,  // measure 11
0001
0000
0000
0000
,  // measure 12
1000
0000
0000
0000
,  // measure 13
0010
0000
0010
0000
,  // measure 14
0010
0000
0010
0000
,  // measure 15
0100
0100
0100
0000
,  // measure 16
0100
0100
0100
0000
,  // measure 17
0110
0000
0000
0000
,  // measure 18
0000
0000
0001
0000
,  // measure 19
1001
0000
0010
0000
,  // measure 20
1000
0000
0010
0000
,  // measure 21
0001
0000
0010
0000
,  // measure 22
0100
0100
0100
0100
,  // measure 23
0100
0000
1000
0000
,  // measure 24
0100
0000
0001
0000
,  // measure 25
1000
0000
0001
0000
,  // measure 26
1001
0000
0000
0000
,  // measure 27
0010
0000
0001
0000
,  // measure 28
1000
0000
0010
0000
,  // measure 29
0100
0000
0001
0000
,  // measure 30
1000
0000
0100
0000
,  // measure 31
0010
0000
0010
0000
,  // measure 32
0100
0100
0100
0100
,  // measure 33
0100
0000
1000
0000
,  // measure 34
0001
0000
0100
0000
,  // measure 35
0010
0010
0010
0000
,  // measure 36
1000
1000
1000
0000
,  // measure 37
0001
0001
0001
0000
,  // measure 38
1001
1001
1001
0000
,  // measure 39
0010
0000
0010
0000
,  // measure 40
0001
0000
1000
0000
,  // measure 41
0100
0000
0100
0000
,  // measure 42
0010
0000
0010
0000
,  // measure 43
0001
0000
1000
0000
,  // measure 44
1001
1001
1001
0000
,  // measure 45
1001
0000
0000
0000
,  // measure 46
0000
0000
0010
0010
,  // measure 47
0020
0000
0030
0000
,  // measure 48
0001
0000
0000
0000
,  // measure 49
0100
0000
0000
0000
,  // measure 50
0000
0000
0010
0010
,  // measure 51
0020
0000
0030
0000
,  // measure 52
1000
1000
1000
0000
,  // measure 53
0100
0000
0001
0000
,  // measure 54
0100
0000
1000
0000
,  // measure 55
0100
0000
0001
0000
,  // measure 56
1000
0000
0100
0000
,  // measure 57
0010
0010
0010
0010
,  // measure 58
0000
0001
0001
0000
,  // measure 59
1000
1000
1000
0000
,  // measure 60
0100
0100
0100
0000
,  // measure 61
0010
0010
0010
0000
,  // measure 62
0001
0001
0001
0000
,  // measure 63
0100
0100
0100
0000
,  // measure 64
0010
0010
0010
0000
,  // measure 65
1001
0000
1000
0000
,  // measure 66
1001
0000
0001
0000
,  // measure 67
1001
0000
1001
0000
,  // measure 68
0110
0000
1001
0000
,  // measure 69
0110
0000
0000
0000
,  // measure 70
0000
0000
0000
0000
,  // measure 71
0001
0000
0001
0000
,  // measure 72
1000
0000
1000
0000
,  // measure 73
0100
0000
0100
0000
,  // measure 74
0010
0000
0010
0000
,  // measure 75
0001
0000
0100
0000
,  // measure 76
0010
0000
1000
0000
,  // measure 77
1001
0000
0010
0000
,  // measure 78
1000
0000
0000
1001
,  // measure 79
1001
0000
0010
0000
,  // measure 80
0100
0000
1001
0000
,  // measure 81
1001
0000
0010
0000
,  // measure 82
1001
0000
0100
0000
,  // measure 83
1001
0000
0110
0000
,  // measure 84
1001
0000
0110
0000
,  // measure 85
1001
1001
1001
1001
,  // measure 86
1001
1001
1001
1001
,  // measure 87
1001
1001
1001
1001
,  // measure 88
1001
0000
0000
0000
,  // measure 89
0000
0000
0010
0000
,  // measure 90
1001
0000
0000
0000
;
