#TITLE:Whale Whale Whale;
#SUBTITLE:;
#ARTIST:OMORI;
#TITLETRANSLIT:;
#SUBTITLETRANSLIT:;
#ARTISTTRANSLIT:;
#GENRE:OMORI;
#CREDIT:[Ness];
#BANNER:OMORI - Whale Whale Whale (for TapMania).png;
#BACKGROUND:OMORI - Whale Whale Whale (for TapMania)-bg.png;
#LYRICSPATH:;
#CDTITLE:;
#MUSIC:OMORI - Whale Whale Whale (for TapMania).mp3;
#OFFSET:-0.040000;
#SAMPLESTART:7.650986;
#SAMPLELENGTH:15.238096;
#LASTBEATHINT:190.000000;
#SELECTABLE:YES;
#BPMS:0.000000=125.999992
;
#STOPS:
;
#BGCHANGES:;
#KEYSOUNDS:;
#ATTACKS:;

//---------------dance-single - ----------------
#NOTES:
     dance-single:
     :
     Challenge:
     10:
     0.623276,0.702948,0.120584,0.043849,0.378194,398.000000,387.000000,11.000000,4.000000,152.000000,0.000000,0.623276,0.702948,0.120584,0.043849,0.378194,398.000000,387.000000,11.000000,4.000000,152.000000,0.000000:
0000
0000
0000
0000
,
0000
0000
0000
0000
,
0001
0010
0001
1000
0001
0100
0010
0100
,
1000
0000
0010
0000
1000
0000
0001
0000
0100
0000
1000
0000
0010
0100
0010
0100
,
1000
0010
0100
0001
1000
0000
0001
0000
1000
0000
0100
0000
0010
0000
0100
0000
,
0001
0010
1000
0010
1000
0010
0001
0000
0100
0100
0100
0000
0001
0000
1000
0000
,
0100
0010
1000
0001
0100
0000
0010
0000
0110
0000
0110
0000
1000
0000
0010
0000
,
0001
0100
1000
0100
0001
1000
0002
0013
,
0100
0010
1000
0100
0010
0000
0100
0000
0001
0000
0100
0000
0010
0000
0001
0000
,
1000
0010
0100
0001
0100
0001
1000
0000
0010
0010
0010
0000
1000
0000
0001
0000
,
0100
0010
0001
1000
0100
0000
0010
0000
0011
0000
0011
0000
0001
0000
1000
0000
,
0001
0010
1000
0100
0010
0100
0002
1003
,
0100
0010
0001
1000
0010
0000
0100
0000
1000
0000
0001
0000
0010
0000
0100
0000
,
0001
1000
0100
0010
0100
1000
0001
0000
0100
0100
0100
0000
0010
0000
0001
0000
,
1000
0010
1000
0001
0100
0000
0010
0000
0101
0000
0101
0000
1000
0000
0100
0000
,
0001
0000
1000
0000
0010
0000
0100
0000
0100
0010
0001
1000
0010
0100
0001
1000
,
0100
0100
M1MM
M1MM
M0MM
M01M
M01M
MM1M
,
1M0M
0000
1M0M
0000
1M0M
0000
1MM0
0000
0MM1
1000
0MM1
0000
1MM0
0000
0MM0
0000
,
M1MM
M1MM
M1MM
M1MM
M0MM
M01M
M01M
MM1M
,
1M0M
0000
1M0M
0000
1MMM
0000
0MM1
0000
0MM0
0000
0001
1000
0100
0010
0001
1000
,
0100
0010
0100
0001
0100
0010
1000
0000
0100
0000
0100
0000
0001
0000
0100
0000
,
1000
0010
1000
0001
1000
0100
0010
0000
0001
1000
0001
0000
1000
0000
1001
0000
,
0100
0010
0001
0010
0100
0001
0100
0000
0010
0000
1000
0000
0100
0000
0001
0000
,
0100
1000
0100
0010
0001
1000
0100
0000
0010
0000
0010
0000
0001
0000
1000
0000
,
0010
0100
1000
0010
0100
0001
1000
0000
0001
0000
1000
0000
0100
0000
0100
0000
,
0010
1000
0100
0010
0001
1000
0001
0000
0010
0010
0010
0000
0100
0000
1000
0000
,
0010
0100
1000
0001
0100
0010
0001
0000
0010
0000
0010
0000
0100
0000
0010
0000
,
0001
0000
1000
0000
0010
0000
0001
0000
1000
0100
0010
0001
0001
0010
0100
1000
,
0002
1MM0
1MM0
1MM3
0MM0
0MM0
MMMM
MMMM
,
2MMM
0000
01MM
0000
01MM
0000
31MM
0000
01MM
1000
01MM
0000
00M1
0000
MMM0
0000
,
0M10
1000
0M01
0000
0M01
0000
MMM0
0000
MMM1
0000
MMM0
0000
MMMM
0000
MMMM
0000
,
MM1M
MM0M
MMMM
M1MM
M0MM
MMMM
MMMM
MMMM
,
1000
0100
0010
0010
0100
0001
0001
0100
,
1000
0100
0010
0100
0001
1001
1000
1001
,
0001
0100
0010
0010
0100
1000
1000
0001
,
0001
0010
0100
0001
0010
1000
0010
0010
,
0100
0001
1000
0001
0100
0000
0010
0000
0010
0000
1000
0000
0001
0000
1000
0000
,
0100
0010
0100
0001
1000
1001
1000
1001
,
0001
1000
0010
0100
0001
0000
1000
0000
1000
0000
0100
0000
0001
0000
0100
0000
,
1000
0010
0100
0010
0001
0100
0010
0010
,
1000
0010
1000
0001
1000
0100
0010
0100
,
0001
0010
0001
1000
0100
0001
0010
0100
,
0001
0010
0001
1000
0001
0100
0010
0100
,
1000
0000
0010
0000
1000
0000
0001
0000
0100
0000
1000
0000
0010
0100
0010
0100
,
0010
0000
0000
0000
,
0000
0000
0000
0000
,
0000
0000
0000
0000
,
0000
0000
MMMM
0000
;

//---------------dance-single - ----------------
#NOTES:
     dance-single:
     :
     Hard:
     8:
     0.452580,0.434101,0.000000,0.000000,0.038368,289.000000,289.000000,0.000000,0.000000,0.000000,0.000000,0.452580,0.434101,0.000000,0.000000,0.038368,289.000000,289.000000,0.000000,0.000000,0.000000,0.000000:
0000
0000
0000
0000
,
0000
0000
0000
0000
,
0001
1000
0010
0100
0001
0100
0001
0000
,
1000
0100
0010
1000
0001
0010
0100
0000
,
0010
1000
0100
0010
0100
1000
0001
1000
,
0010
0000
1000
0000
0010
0000
0100
0000
0001
1000
0100
0000
0010
0000
1000
0000
,
0001
1000
0100
0010
1000
0100
0010
0100
,
0001
1000
0010
0100
0010
1000
0100
0001
,
1000
0100
0010
1000
0001
1000
0001
0010
,
0100
0000
0001
0000
0100
0000
0010
0000
1000
0001
0010
0000
1000
0000
0100
0000
,
0010
0100
0001
1000
0010
1000
0100
0010
,
0001
1000
0100
0010
0100
0001
1000
0001
,
0010
0100
0001
0010
0001
0100
1000
0100
,
0010
0000
0001
0000
0100
0000
0010
0000
0001
1000
0100
0000
1000
0000
0010
0000
,
0100
1000
0010
0100
0001
0010
0100
1000
,
0001
0000
0010
0000
0100
0000
0010
0000
1000
0001
1000
0000
0100
0000
0010
0000
,
1000
0100
1000
0100
0000
0010
0010
0010
,
1000
0100
0010
0001
0000
0000
1000
0000
,
0010
0010
0010
0010
0000
0100
0100
0100
,
1000
0001
0100
0010
0000
1000
0100
0010
,
0001
0010
0100
1000
0000
1000
0010
0001
,
0010
0000
0001
0000
0100
0000
0000
0000
1000
0001
0100
0000
0001
0000
0000
0000
,
0010
1000
0100
0010
0100
0100
0010
0000
,
1000
0100
0010
0000
0001
0100
1000
0000
,
1000
0100
0010
0001
0100
0100
0010
0000
,
0001
0000
1000
0000
0010
0000
0100
0000
0010
0001
1000
0000
0100
0000
0000
0000
,
1000
0100
0010
0001
0100
0100
0100
0000
,
0010
0000
0100
0000
0001
0000
0000
0000
0010
0100
0010
0000
1000
0000
0001
0000
,
0100
0000
0000
0010
0000
0000
1000
0000
,
0001
0000
0010
0100
,
0010
1000
0001
0000
,
0100
0000
0000
0010
0000
0000
0000
0000
,
0001
0100
0010
1000
0000
1000
0010
0100
,
0001
0000
1000
0100
0001
1000
0010
0000
,
1000
0100
0010
0001
0000
0001
0100
0000
,
0000
0000
0001
0010
1000
0100
0001
0000
,
0010
0100
0001
0010
0000
0100
1000
0001
,
0100
0000
0010
0001
1000
0010
0100
0000
,
0100
1000
0001
0100
0000
0010
1000
0000
,
0000
0000
0010
0001
0100
1000
0010
0000
,
0100
0001
0100
0010
1000
0100
0010
0100
,
1000
0001
0010
0100
0010
1000
0100
0010
,
0001
0100
0010
0001
1000
0001
0100
0010
,
0001
0010
0100
1000
0010
0100
0001
1000
,
0100
0000
0000
0000
;

//---------------dance-single - ----------------
#NOTES:
     dance-single:
     :
     Medium:
     6:
     0.317902,0.313517,0.000000,0.000000,0.000000,203.000000,203.000000,0.000000,0.000000,0.000000,0.000000,0.317902,0.313517,0.000000,0.000000,0.000000,203.000000,203.000000,0.000000,0.000000,0.000000,0.000000:
0000
0000
0000
0000
,
0000
0000
0000
0000
,
0010
1000
0001
0010
,
0100
0001
1000
0100
,
0010
1000
0100
1000
0000
0000
0001
0000
,
0100
0010
0100
0000
1000
0001
1000
0000
,
0010
0001
0100
0010
0000
0000
1000
0000
,
0100
0010
0100
0000
0001
1000
0100
0000
,
0010
1000
0010
0100
0000
0000
0001
0000
,
0010
1000
0001
0000
0010
0100
1000
0000
,
0010
0100
0010
0001
0000
0000
1000
0000
,
0010
0001
0100
0000
0001
1000
0100
0000
,
0010
1000
0100
0010
0000
0000
0001
0000
,
0100
0010
0100
0000
1000
0001
0010
0000
,
0100
0001
0010
0100
0000
0000
0010
0000
,
1000
0001
0010
0000
0100
1000
0001
0000
,
1000
0010
0001
0010
0000
0000
0100
0000
,
0001
0100
0001
0010
0000
0000
0100
0000
,
0001
1000
0100
0010
0000
0000
1000
0000
,
0001
1000
0100
0010
0000
1000
0010
0100
,
0001
0000
0010
0100
0000
0000
0010
0000
,
1000
0001
1000
0000
0100
0100
0100
0000
,
0010
1000
0100
0000
1000
0000
1000
0000
,
0001
0010
0100
0000
0010
0001
0100
0000
,
0010
0000
1000
0001
0000
0000
0010
0000
,
0001
1000
0100
0000
0010
0000
0010
0000
,
0100
0001
0010
0000
0100
0000
1000
0000
,
0010
0001
0100
0000
1000
0100
0010
0000
,
1000
0000
0000
0100
0000
0000
0010
0000
,
0100
0000
1000
0001
,
0010
0100
0100
0000
,
0001
0000
0000
0010
0000
0000
0000
0000
,
0100
0000
0000
0010
0000
0000
0001
0000
,
1000
0000
0100
0000
0001
0100
1000
0000
,
0010
0000
0000
0100
0000
0000
1000
0000
,
0000
0000
0001
0010
1000
0100
0001
0000
,
0010
0000
0000
0100
0000
0000
1000
0000
,
0010
0000
0001
0000
0100
0010
1000
0000
,
0001
0000
0000
0010
0000
0000
0100
0000
,
0000
0000
0001
0010
1000
0100
0001
0000
,
0010
0100
0001
0000
1000
0000
0100
0000
,
0010
0100
1000
0000
0001
1000
0010
0000
,
0100
1000
0010
0000
0100
0000
1000
0000
,
0001
0010
0100
0000
1000
0010
0001
0000
,
0100
0000
0000
0000
;

//---------------dance-single - ----------------
#NOTES:
     dance-single:
     :
     Easy:
     4:
     0.227073,0.217051,0.000000,0.043849,0.000000,145.000000,145.000000,0.000000,4.000000,0.000000,0.000000,0.227073,0.217051,0.000000,0.043849,0.000000,145.000000,145.000000,0.000000,4.000000,0.000000,0.000000:
// measure 0
0000
0000
0000
0000
,  // measure 1
0000
0000
0000
0000
,  // measure 2
1000
0010
0100
0010
,  // measure 3
0001
0100
1000
0010
,  // measure 4
0100
0010
0001
1000
,  // measure 5
0100
0010
0100
0001
,  // measure 6
0010
0100
0010
1000
,  // measure 7
0001
0100
0010
1000
,  // measure 8
0100
0100
0010
0100
,  // measure 9
0001
0001
1000
0100
,  // measure 10
0010
0010
1000
0001
,  // measure 11
1000
1000
0100
0010
,  // measure 12
1000
1000
0100
0010
,  // measure 13
0100
0100
0001
0010
,  // measure 14
0100
0100
0001
1000
,  // measure 15
0100
0100
0010
0001
,  // measure 16
0100
1000
0000
0010
,  // measure 17
0100
0010
1000
0000
,  // measure 18
0001
0010
0000
0100
,  // measure 19
0010
0100
0001
0000
,  // measure 20
1000
0100
1000
0010
,  // measure 21
0001
0100
0010
0100
,  // measure 22
1000
0001
0100
0010
,  // measure 23
0001
0100
0010
1000
,  // measure 24
0001
0100
1000
0010
,  // measure 25
0001
0100
0010
1000
,  // measure 26
0001
1000
0100
0010
,  // measure 27
1000
0100
0010
0001
,  // measure 28
1000
0000
0000
0000
,  // measure 29
0001
0000
0000
0100
,  // measure 30
0100
0000
0000
0000
,  // measure 31
0010
0000
0000
0000
,  // measure 32
2000
0000
3001
0000
,  // measure 33
0010
0100
0010
0001
,  // measure 34
0200
0000
0310
0000
,  // measure 35
0001
0100
1000
0010
,  // measure 36
0200
0000
0310
0000
,  // measure 37
0001
1000
0010
0000
,  // measure 38
0200
0000
0310
0000
,  // measure 39
0001
0100
1000
0010
,  // measure 40
0100
1000
0001
0010
,  // measure 41
0100
0010
0001
0100
,  // measure 42
0010
0100
1000
0001
,  // measure 43
0100
0010
0001
1000
,  // measure 44
0010
0000
0000
0000
;

//---------------dance-single - ----------------
#NOTES:
     dance-single:
     :
     Beginner:
     1:
     0.095527,0.120584,0.000000,0.131546,0.000000,61.000000,61.000000,0.000000,12.000000,0.000000,0.000000,0.095527,0.120584,0.000000,0.131546,0.000000,61.000000,61.000000,0.000000,12.000000,0.000000,0.000000:
// measure 0
0000
0000
0000
0000
,  // measure 1
0000
0000
0000
0000
,  // measure 2
0010
0000
0000
0000
,  // measure 3
0100
0000
0000
0000
,  // measure 4
0001
0000
0000
0000
,  // measure 5
1000
0000
0000
0000
,  // measure 6
0100
0000
0000
0000
,  // measure 7
0010
0000
0000
0000
,  // measure 8
1000
1000
0000
0000
,  // measure 9
0100
0100
0000
0000
,  // measure 10
0010
0010
0000
0000
,  // measure 11
0100
0100
0000
0000
,  // measure 12
0001
0001
0000
0000
,  // measure 13
0010
0010
0000
0000
,  // measure 14
0100
0100
0000
0000
,  // measure 15
0010
0010
0000
0000
,  // measure 16
2000
0000
3000
0000
,  // measure 17
0100
0000
0100
0000
,  // measure 18
0002
0000
0003
0000
,  // measure 19
1000
0000
1000
0000
,  // measure 20
0020
0000
0030
0000
,  // measure 21
0002
0000
0003
0000
,  // measure 22
0200
0000
0300
0000
,  // measure 23
2000
0000
3000
0000
,  // measure 24
0002
0000
0003
0000
,  // measure 25
0020
0000
0030
0000
,  // measure 26
0200
0000
0300
0000
,  // measure 27
0002
0000
0003
0000
,  // measure 28
2000
0000
3000
0000
,  // measure 29
0100
0000
0000
0000
,  // measure 30
0020
0000
0030
0000
,  // measure 31
0100
0000
0100
0000
,  // measure 32
0001
0000
0000
0000
,  // measure 33
0010
0000
0010
0000
,  // measure 34
0010
0000
0000
0000
,  // measure 35
0100
0000
0000
0000
,  // measure 36
0001
0000
0000
0000
,  // measure 37
0010
0000
0010
0000
,  // measure 38
0100
0000
0000
0000
,  // measure 39
0001
0000
0001
0000
,  // measure 40
1000
0000
0100
0000
,  // measure 41
0001
0000
1000
0000
,  // measure 42
0100
0000
0010
0000
,  // measure 43
1000
0000
0100
0000
,  // measure 44
0001
0000
0000
0000
;
