#TITLE:Valour Against All Odds;
#SUBTITLE:;
#ARTIST:OMORI;
#TITLETRANSLIT:;
#SUBTITLETRANSLIT:;
#ARTISTTRANSLIT:;
#GENRE:OMORI;
#CREDIT:[Ness];
#BANNER:OMORI - Valour Against All Odds (for TapMania).png;
#BACKGROUND:OMORI - Valour Against All Odds (for TapMania)-bg.png;
#LYRICSPATH:;
#CDTITLE:;
#MUSIC:OMORI - Valour Against All Odds (for TapMania).mp3;
#OFFSET:-0.060000;
#SAMPLESTART:10.640172;
#SAMPLELENGTH:15.126050;
#LASTBEATHINT:215.000000;
#SELECTABLE:YES;
#BPMS:0.000000=238.000000
;
#STOPS:
;
#BGCHANGES:;
#KEYSOUNDS:;
#ATTACKS:;

//---------------dance-single - ----------------
#NOTES:
     dance-single:
     :
     Challenge:
     9:
     0.714939,0.819521,1.219753,0.699564,0.017938,279.000000,211.000000,68.000000,39.000000,4.000000,0.000000,0.714939,0.819521,1.219753,0.699564,0.017938,279.000000,211.000000,68.000000,39.000000,4.000000,0.000000:
// measure 0
0000
0000
0000
0000
,  // measure 1
0000
0000
0000
0000
,  // measure 2
0000
0000
0000
0000
,  // measure 3
0000
0000
0000
0000
,  // measure 4
0000
0000
0000
0000
1000
0000
1000
0001
,  // measure 5
0000
0001
0100
0000
0010
0000
0100
0000
,  // measure 6
0001
0000
1000
0000
0001
0000
0100
0000
0000
0010
0000
0000
1000
0000
0000
0001
0000
0000
0100
0000
0000
0100
0000
0000
,  // measure 7
0010
0000
1000
0001
1000
0000
0010
1000
,  // measure 8
0000
1000
0100
0000
0110
0000
1001
0000
,  // measure 9
0001
0000
1000
0010
0000
0100
0001
0000
,  // measure 10
0011
0000
1010
0000
1001
0000
0001
1000
,  // measure 11
0000
0001
0100
0000
1100
0000
0101
0000
,  // measure 12
1001
0000
1000
0010
0000
0001
1000
0000
,  // measure 13
0011
0000
1010
0000
1002
0000
0000
0203
,  // measure 14
0000
0310
2000
0000
0001
0000
0010
0000
,  // measure 15
3100
1000
0100
0010
0001
1000
0010
0000
,  // measure 16
0110
0000
1001
0000
0001
0010
0001
0100
,  // measure 17
1000
0100
0002
0000
1000
0000
0100
0000
,  // measure 18
0013
0001
0010
0100
1000
0001
0010
0000
,  // measure 19
0110
0000
1000
0001
2000
0000
3000
1020
,  // measure 20
0000
0130
0001
0000
0011
0000
1001
0000
,  // measure 21
1000
0100
1000
0001
0010
0100
1000
0010
,  // measure 22
0001
0010
0100
0001
0100
0010
1000
0001
,  // measure 23
0010
0100
1000
0000
1100
0000
0011
0000
,  // measure 24
0001
0010
0100
1000
0001
1000
0100
0000
,  // measure 25
0110
0000
1001
0000
2200
0000
0300
0020
,  // measure 26
0000
0030
0100
0000
0001
0000
0100
0000
,  // measure 27
0002
0000
3000
0020
0000
0030
1000
0000
,  // measure 28
0100
0000
1003
0000
2002
0000
3003
0120
,  // measure 29
0000
0130
0010
0000
1010
0000
0011
0000
,  // measure 30
2002
0000
3003
0120
0000
0130
0010
0000
,  // measure 31
0011
0000
1010
0000
2002
0000
3003
0120
,  // measure 32
0000
0130
0010
0000
1010
0000
0011
0000
,  // measure 33
2002
0000
3003
0120
0000
0130
0010
0000
,  // measure 34
0011
0000
1010
0000
2200
0000
3300
1002
,  // measure 35
0000
0013
0001
0000
0011
0000
1010
0000
,  // measure 36
0022
0000
0033
2001
0000
3100
1000
0000
,  // measure 37
1100
0000
0101
0000
2200
0000
3300
0021
,  // measure 38
0000
0031
1000
0000
1001
0000
0110
0000
,  // measure 39
2002
0000
3003
0120
0000
0130
0001
0000
,  // measure 40
1100
0000
0101
0000
0001
0001
0010
0010
,  // measure 41
0100
1000
0100
0010
0001
0000
1000
0000
,  // measure 42
0110
0000
1002
0000
0000
0100
0000
0013
,  // measure 43
0001
0011
1010
2001
,  // measure 44
0000
0100
0000
3010
1000
0000
1010
0000
,  // measure 45
0011
0000
0210
0000
0000
1000
0000
0310
,  // measure 46
0100
0011
1100
0120
,  // measure 47
0000
0001
0000
0130
0010
0000
1010
0000
,  // measure 48
0011
1001
0000
0000
,  // measure 49
0000
0000
0000
0000
,  // measure 50
0000
0000
0000
0000
,  // measure 51
0000
0000
0000
0000
,  // measure 52
0000
0000
0000
0000
,  // measure 53
0000
0000
0000
MMMM
;

//---------------dance-single - ----------------
#NOTES:
     dance-single:
     :
     Hard:
     8:
     0.489439,0.605841,0.089688,0.322876,0.000000,191.000000,186.000000,5.000000,18.000000,0.000000,0.000000,0.489439,0.605841,0.089688,0.322876,0.000000,191.000000,186.000000,5.000000,18.000000,0.000000,0.000000:
0000
0000
0000
0000
,
0000
0000
0000
0000
,
0000
0000
0000
0000
,
0000
0000
0000
0000
,
0000
0000
0000
0000
2000
0000
3000
0002
,
0000
0003
0100
0000
0010
0000
1000
0000
,
0200
0000
0300
0020
0000
0030
0100
0000
,
1000
0000
0001
0000
0010
0000
0000
0001
,
0000
0001
0100
0000
0010
0000
1000
0000
,
0100
0000
0000
0010
0000
0100
1000
0000
,
0001
0000
0010
0000
0001
0000
0000
0100
,
0000
0010
1000
0000
0100
0000
0010
0000
,
0100
0000
0000
1000
0000
0001
0100
0000
,
0010
0000
1000
0000
2001
0000
0000
3010
,
0000
1000
0001
0000
0010
0000
0100
0000
,
1000
0100
1000
0010
1000
0100
1000
0000
,
0010
0000
0100
0000
0002
0000
0000
0013
,
0000
0001
0100
0000
0010
0000
1000
0000
,
0001
0010
0001
0100
0001
0010
0001
0000
,
0010
0000
0100
0000
2000
0000
0000
3001
,
0000
1000
0010
0000
0100
0000
0001
0000
,
1000
0010
1000
0100
1000
0010
1000
0000
,
0100
0000
0010
0000
0002
0000
0000
1003
,
0000
0001
0100
0000
0010
0000
0100
0000
,
0001
0010
0001
0100
0001
0010
0001
0000
,
0100
0000
0010
0000
1002
0000
0000
0103
,
0000
0010
1000
0000
0100
0000
0010
0000
,
2001
0000
0000
3010
0000
0001
0100
0000
,
0010
0000
0100
0000
0002
0000
0000
0013
,
0000
0100
1000
0000
0010
0000
0010
0000
,
0200
0000
0000
0310
0000
1000
0100
0000
,
0010
0000
0010
0000
0002
0000
0000
1003
,
0000
0001
0010
0000
0100
0000
0100
0000
,
0020
0000
0000
0031
0000
1000
0100
0000
,
0010
0000
0010
0000
0002
0000
0000
1003
,
0000
0001
0010
0000
0100
0000
1000
0000
,
0002
0000
0000
1003
0000
0001
0010
0000
,
0100
0000
0010
0000
0002
0000
0000
1003
,
0000
0010
0100
0000
0010
0000
1000
0000
,
0200
0000
0000
1300
0000
0001
0100
0000
,
0010
0000
1000
0000
0001
1000
0001
0100
,
0001
0010
0001
1000
0100
0000
0010
0000
,
0001
0000
1001
0000
0000
0100
0000
0000
,
0010
0001
1000
0010
,
0000
0100
0000
0000
0001
0000
0100
0000
,
0010
0000
1000
0000
0000
0100
0000
0000
,
0010
0001
1000
0010
,
0000
0100
0000
0000
0010
0000
1000
0000
,
0001
1001
0000
0000
;

//---------------dance-single - ----------------
#NOTES:
     dance-single:
     :
     Medium:
     6:
     0.384376,0.389469,0.035875,0.000000,0.000000,150.000000,148.000000,2.000000,0.000000,0.000000,0.000000,0.384376,0.389469,0.035875,0.000000,0.000000,150.000000,148.000000,2.000000,0.000000,0.000000,0.000000:
0000
0000
0000
0000
,
0000
0000
0000
0000
,
0000
0000
0000
0000
,
0000
0000
0000
0000
,
0000
0000
0000
0000
1000
0000
0000
0100
,
0000
1000
0001
0100
,
0001
0000
0000
0100
0000
0000
0001
0000
,
0010
0000
0001
0000
0100
0000
0000
0010
,
0000
0100
0001
0100
,
0001
0000
0000
1000
0000
0000
0100
0000
,
1000
0000
0100
0000
1000
0000
0000
0010
,
0000
0100
0010
0100
,
0010
0000
0000
1000
0000
0000
0001
0000
,
1000
0000
0001
0000
1001
0000
0000
0010
,
0000
0100
0001
0100
,
0001
0000
0000
0010
0000
0000
0100
0000
,
1000
0000
0100
0000
1000
0000
0000
0001
,
0000
0100
0010
0100
,
0010
0000
0000
1000
0000
0000
0100
0000
,
0010
0000
0100
0000
0010
0000
0000
0001
,
0000
0100
0001
0100
,
0010
0000
0000
1000
0000
0000
0100
0000
,
1000
0000
0001
0000
0100
0000
0000
0001
,
0000
0010
0001
1000
,
0010
0000
0000
1000
0000
0000
0001
0000
,
0010
0000
0100
0000
1000
0000
0000
0010
,
0000
1000
0100
1000
,
0100
0000
0000
0010
0000
0000
0001
0000
,
0100
0000
0001
0000
0100
0000
0000
0010
,
0000
1000
0100
0010
,
0001
0000
0000
1000
0000
0000
0010
0000
,
0100
0000
0001
0000
1000
0000
0000
0100
,
0000
0010
0001
1000
,
0010
0000
0000
0100
0000
0000
0001
0000
,
0010
0000
0100
0000
1000
0000
0000
0010
,
0000
1000
0100
0001
,
0010
0000
0000
0100
0000
0000
0010
0000
,
0001
0000
0100
0000
1000
0000
0000
0010
,
0000
0100
0001
0010
,
1000
0000
0000
0100
0000
0000
0010
0000
,
0001
0100
1000
0010
,
0100
0001
0010
0100
,
1000
0000
0001
0000
0000
1000
0000
0000
,
0100
0010
0100
0010
,
0000
0001
0000
0000
0100
0000
0001
0000
,
0100
0000
0010
0000
0000
1000
0000
0000
,
0001
1000
0010
0100
,
0000
0001
0000
0000
0010
0000
0100
0000
,
0010
1001
0000
0000
;

//---------------dance-single - ----------------
#NOTES:
     dance-single:
     :
     Easy:
     4:
     0.233188,0.346195,0.107625,0.358751,0.000000,91.000000,85.000000,6.000000,20.000000,0.000000,0.000000,0.233188,0.346195,0.107625,0.358751,0.000000,91.000000,85.000000,6.000000,20.000000,0.000000,0.000000:
0000
0000
0000
0000
,
0000
0000
0000
0000
,
0000
0000
0000
0000
,
0000
0000
0000
0000
,
0000
0000
1000
0000
,
0000
0100
0000
0010
,
0001
0000
0000
0100
,
0000
0001
1000
0000
,
0000
0010
0100
0010
,
1000
0000
0000
0001
,
1000
0001
0010
0000
,
0000
0100
1000
0100
,
1000
0000
0000
0001
,
0100
0001
2000
0000
,
3000
0002
0000
0003
,
0100
0000
0010
0000
,
1000
0000
0200
0000
,
0300
0020
0000
0030
,
0001
0000
0100
0000
,
0010
0000
2000
0000
,
3000
0002
0000
0003
,
0010
0000
0100
0000
,
0010
0000
0002
0000
,
0003
2000
0000
3000
,
0100
0000
0010
0000
,
0001
0000
2000
0000
,
3000
0002
0000
0003
,
0200
0000
0300
0020
,
0000
0030
2020
0000
,
3030
0001
1000
0001
,
1000
0000
0000
0100
,
0000
0000
0022
0000
,
0033
1000
0001
1000
,
0001
0000
0000
0100
,
0000
0000
2020
0000
,
3030
1000
0001
1000
,
0001
0000
0000
0100
,
0000
0000
0022
0000
,
0033
1000
0001
1000
,
0001
0000
0000
0100
,
0000
0000
0010
1000
,
0001
0000
0100
0001
,
1000
1001
0000
0000
,
0100
0000
0000
0001
,
0000
0000
0100
0000
,
0000
1000
0000
0000
,
0100
0000
0000
0001
,
0000
0000
0010
0000
,
0000
1001
0000
0000
;

//---------------dance-single - ----------------
#NOTES:
     dance-single:
     :
     Beginner:
     2:
     0.102500,0.173097,0.179375,0.000000,0.000000,40.000000,30.000000,10.000000,0.000000,0.000000,0.000000,0.102500,0.173097,0.179375,0.000000,0.000000,40.000000,30.000000,10.000000,0.000000,0.000000,0.000000:
0000
0000
0000
0000
,
0000
0000
0000
0000
,
0000
0000
0000
0000
,
0000
0000
0000
0000
,
0000
0000
0001
0000
,
0000
0000
0000
0000
,
0001
0000
0000
0000
,
0000
0000
0100
0000
,
0000
0000
0000
0000
,
0100
0000
0000
0000
,
0000
0000
0010
0000
,
0000
0000
0000
0000
,
0010
0000
0000
0000
,
0000
0000
1000
0000
,
0000
0000
0000
0000
,
1000
0000
0000
0000
,
0000
0000
0100
0000
,
0000
0000
0000
0000
,
0010
0000
0000
0010
,
0000
0000
0010
0000
,
0000
0000
0000
0000
,
0001
0000
0000
0000
,
0000
0000
1000
0000
,
0000
0000
0000
0000
,
0100
0000
0000
0100
,
0000
0000
0100
0000
,
0000
0000
0000
0000
,
0000
0000
0000
0000
,
0000
0000
1001
0000
,
0000
0000
0000
0000
,
0110
0000
0000
0000
,
0000
0000
1001
0000
,
0000
0000
0000
0000
,
0110
0000
0000
0000
,
0000
0000
1001
0000
,
0000
0000
0000
0000
,
0110
0000
0000
0000
,
0000
0000
1001
0000
,
0000
0000
0000
0000
,
0110
0000
0000
0000
,
0000
0000
0001
0000
,
0000
0000
0000
0000
,
0000
1001
0000
0000
,
0000
0000
0000
0000
,
0000
0000
0000
0000
,
0000
0010
0000
0000
,
0000
0000
0000
0100
,
0000
0000
0000
0000
,
0000
1001
0000
0000
;
