#TITLE:Underwater Prom Queens;
#SUBTITLE:;
#ARTIST:OMORI;
#TITLETRANSLIT:;
#SUBTITLETRANSLIT:;
#ARTISTTRANSLIT:;
#GENRE:OMORI;
#CREDIT:[Ness];
#BANNER:OMORI - Underwater Prom Queens (for TapMania).png;
#BACKGROUND:OMORI - Underwater Prom Queens (for TapMania)-bg.png;
#LYRICSPATH:;
#CDTITLE:;
#MUSIC:OMORI - Underwater Prom Queens (for TapMania).mp3;
#OFFSET:-0.040000;
#SAMPLESTART:19.701815;
#SAMPLELENGTH:11.432655;
#LASTBEATHINT:347.952606;
#SELECTABLE:YES;
#BPMS:0.000000=167.940002
,199.000000=84.000000
,202.750000=168.000000
;
#STOPS:227.000000=0.045000
;
#BGCHANGES:;
#KEYSOUNDS:;
#ATTACKS:;

//---------------dance-single - ----------------
#NOTES:
     dance-single:
     :
     Challenge:
     11:
     0.807122,0.994043,0.764345,0.047279,1.477472,717.000000,620.000000,97.000000,6.000000,45.000000,0.000000,0.807122,0.994043,0.764345,0.047279,1.477472,717.000000,620.000000,97.000000,6.000000,45.000000,0.000000:
// measure 0
0000
0000
0000
0000
,  // measure 1
0000
0000
0000
0000
,  // measure 2
0000
0000
0000
0000
,  // measure 3
M000
0M00
00M0
000M
,  // measure 4
00M0
0M00
M000
0M00
,  // measure 5
00M0
000M
00M0
0M00
,  // measure 6
M000
0000
0000
0000
,  // measure 7
0000
0000
0000
0000
,  // measure 8
0000
0000
0000
0000
,  // measure 9
0000
0000
0000
0000
,  // measure 10
0000
0000
0000
0000
,  // measure 11
0000
0000
0000
0000
,  // measure 12
0000
0000
0000
0000
0000
0000
0000
0000
0000
0000
0000
0000
0101
0000
0000
1010
,  // measure 13
0000
0000
1001
0000
0000
1000
0001
0100
0010
1000
0100
0010
0001
0000
1000
0000
,  // measure 14
0010
1100
0000
1001
0000
0101
1000
0100
,  // measure 15
0010
0000
0101
0000
0000
0000
1010
0000
0100
0000
0010
1000
0100
0000
0010
0000
,  // measure 16
0001
0000
1100
0000
0000
0000
0010
0000
1001
0000
1000
0001
0100
0000
0010
0000
,  // measure 17
1010
0000
0000
0000
0101
0000
0101
0000
1100
0000
1000
0001
0100
0000
0010
0000
,  // measure 18
1000
0101
0000
1010
0000
1100
0010
0100
,  // measure 19
0001
0000
1010
0000
0000
0000
1001
0000
0100
0000
1000
0100
0010
0000
0001
0000
,  // measure 20
0100
0000
1001
0000
0000
0000
0100
0000
1001
0000
0100
0010
2000
0000
0100
0000
,  // measure 21
0100
0100
3200
0010
0010
0010
0310
0001
,  // measure 22
1000
0000
0000
0000
00M0
0000
0001
0000
0000
0000
0000
0000
0100
0000
0000
0000
0000
0000
0000
0000
M000
0010
0000
0000
0000
0000
0000
0000
0000
0000
1000
0000
0000
0000
0000
0000
010M
0000
0000
0000
0000
0000
0010
0000
0000
0000
0000
0000
,  // measure 23
0001
0000
0000
1000
0000
0000
0010
0000
000M
0100
0000
0000
0010
0000
0000
0001
M000
0000
0010
0000
0000
0100
0000
0000
,  // measure 24
0001
0000
00M0
1000
0000
0000
0100
0000
0000
0010
000M
0000
0100
0000
0000
1000
0000
0000
0001
0000
00M0
1000
0000
0000
,  // measure 25
0100
0000
0000
0010
0000
0000
0001
0000
0M00
1000
0000
0000
0010
0000
0000
0100
0000
0000
0001
0000
M000
0010
0000
0000
,  // measure 26
0001
0000
0000
1000
0000
0000
0010
0000
0000
1000
0M00
0000
0001
0000
0000
0100
0000
0000
1000
0000
000M
0100
0000
0000
,  // measure 27
0010
0000
0000
1000
0000
0000
0001
0000
0M00
1000
0000
0000
0010
0000
0000
0100
0000
0000
0001
0000
M000
0010
0000
0000
,  // measure 28
0100
0000
0000
0010
0000
0000
0001
0000
0000
1000
00M0
0000
0100
0000
0000
0010
0000
0000
010M
0000
0000
1000
0000
0000
,  // measure 29
0001
0000
0000
0100
00M0
0000
1000
0000
0000
0100
0000
0000
0010
0000
M000
0100
0000
0000
0001
0000
0000
1000
0000
0000
,  // measure 30
0100
0000
0101
0000
0000
00M0
0100
0000
010M
1000
0000
0000
0001
0000
1000
0000
,  // measure 31
0010
0000
0M00
0011
M000
0000
0000
0000
0M00
0010
0000
0000
1000
0000
0000
0000
00M0
0000
0001
0000
0000
1000
0000
0000
,  // measure 32
0101
0000
0000
0000
0000
0000
0000
0000
0000
1000
0000
0000
0000
0000
0000
0000
000M
0000
0100
0000
0000
0000
0000
0000
M010
0000
0000
0000
0000
0000
0010
0000
0M00
0000
0000
0000
0010
0000
0000
0000
0000
0000
0001
0000
0000
0000
0000
0000
,  // measure 33
0100
0000
0000
0000
00M0
0000
1001
0000
0000
0000
0000
0000
0001
0000
0000
0100
0000
0000
0010
0000
0000
1000
0000
0000
0100
0000
0000
0010
0000
0000
0001
0000
0000
1000
0000
0000
0100
0000
0000
0000
0000
0000
0000
0000
0000
0000
0000
0000
,  // measure 34
1001
0000
0010
0000
0000
0000
0100
0010
0100
0000
0001
0000
1000
0000
0100
0000
,  // measure 35
0010
0000
0011
0000
0000
0000
1001
0000
1000
0000
0010
0000
1010
0000
0001
0100
,  // measure 36
0010
0000
1100
0000
0000
0000
0011
0000
0001
0000
0001
1000
0000
0000
0101
0000
,  // measure 37
0000
0011
0000
0000
1010
0000
0000
0000
1100
0000
0000
0000
0010
0000
0001
1000
,  // measure 38
0010
0000
0100
0000
0100
0001
1000
0000
0100
0000
0010
0000
0100
0000
0100
1000
,  // measure 39
0001
0000
0100
0000
0010
1000
0001
0010
0100
0000
0001
0000
0100
0000
1000
0010
,  // measure 40
0100
0000
0100
0000
0001
1000
0100
0000
0010
0000
0100
0000
0010
0000
0001
1000
,  // measure 41
0010
0000
0100
0000
0001
1000
0100
1000
0001
0000
0001
0000
1100
0000
0000
1000
,  // measure 42
0001
0000
0101
0000
0000
0100
0010
0000
1001
0000
0010
0000
1010
0000
0000
0001
,  // measure 43
0010
0000
1100
0000
0000
0000
0001
0000
1010
0000
0110
0000
0101
0000
0000
0001
,  // measure 44
0010
0000
0011
0000
0000
0000
1010
0000
1000
0000
1000
0001
0000
0000
1100
0000
,  // measure 45
0000
1001
0000
0000
0110
0000
0000
0000
1001
0000
0000
0000
1000
0000
0010
0100
,  // measure 46
0001
0000
1000
0000
0001
0100
0001
0000
1000
0100
0010
0100
1000
0000
0100
1000
,  // measure 47
0001
0000
1000
0000
0100
0010
0100
1000
0001
0000
0001
0000
0010
0000
0001
1000
,  // measure 48
0010
0000
0100
0000
0100
0001
1000
0000
0100
0010
0001
1000
0100
0000
1000
0100
,  // measure 49
0010
0000
0001
0000
1000
0001
0100
0000
0010
0000
0100
0000
0002
0000
0000
0000
,  // measure 50
0000
0000
1003
0100
2000
0000
0000
0020
0000
0000
3030
0010
1000
0001
0000
0100
,  // measure 51
0000
1001
0000
0010
0000
0000
0000
0010
0001
0000
0000
1010
0000
0100
0000
0010
,  // measure 52
0000
1001
0000
0100
0000
0000
0000
1001
0000
0100
0000
0001
1000
0100
0000
0100
,  // measure 53
0000
0110
0000
0001
0000
0000
0000
0001
0000
1001
0000
1000
0100
1000
0000
0000
,  // measure 54
0000
1010
0000
0100
0000
0110
0000
0001
0100
0010
1000
0100
0010
0001
0000
0000
,  // measure 55
0000
0000
0000
1001
0000
0000
0000
0000
0000
0000
0000
1100
0000
1001
0000
0000
,  // measure 56
0000
0000
0110
0000
0000
0000
0000
0000
0000
0000
1001
0000
0000
0000
0010
0000
1000
0000
0001
0000
0100
0000
0010
0000
1000
0001
0000
0000
0000
0010
0000
0100
,  // measure 57
0000
1000
0000
0000
0000
1100
0000
0000
0000
0000
0000
0000
0000
0001
0000
0000
0000
1001
0000
0000
0000
0001
0000
1000
0000
0010
0000
0000
0000
0100
0000
0000
,  // measure 58
0000
0110
0000
0000
0000
1000
0000
0000
0000
0000
0000
1100
0000
0000
0000
0000
0000
1001
0000
0000
0000
0001
0000
0010
0000
0100
0000
0000
0000
1000
0000
0001
,  // measure 59
0000
0100
0000
0000
0000
0001
0000
0000
0000
0001
0000
1000
0000
0100
0000
0000
0000
1000
0000
0000
0000
0010
0000
1000
0000
0001
0000
0000
0000
0010
0000
0000
,  // measure 60
0000
1001
0000
0000
0000
0010
0000
0000
0000
1001
0000
0000
0000
0010
0000
0000
0000
0100
0000
0001
0000
1000
0000
0010
0000
0100
0000
0000
0000
0001
0000
1000
,  // measure 61
0000
0100
0000
0000
0000
0010
0000
0000
0000
0001
0000
0000
0000
0010
0000
0000
0000
1001
0000
0000
0000
0001
0000
1000
0000
0100
0000
0000
0000
0010
0000
0000
,  // measure 62
0000
1001
0000
0000
0000
0010
0000
0000
0000
0100
0000
0000
0000
1000
0000
0000
0000
0001
0000
0010
0000
0100
0000
1000
0000
0001
0000
0000
0000
1000
0000
0000
,  // measure 63
0000
1001
0000
0000
0000
0010
0000
0000
0000
1000
0000
0000
0000
0001
0000
1000
0000
0010
0000
0000
0000
0010
0000
0100
0000
0001
0000
0000
0000
0001
0000
1000
,  // measure 64
0000
0100
0000
0000
0000
0010
0000
0000
0000
0001
0000
0010
0000
0100
0000
1000
0000
0001
0000
0000
0000
1000
0000
0100
0000
0010
0000
0000
0000
0001
0000
0010
,  // measure 65
0000
0001
0000
0000
0000
1000
0000
0000
0000
0001
0000
0000
0000
0100
0000
0000
0000
0110
0000
0000
0000
0001
0000
1000
0000
0000
0000
0000
0000
0100
0000
0000
,  // measure 66
0000
1100
0000
0000
0000
0001
0000
0000
0000
0000
0000
1001
0000
0000
0000
0000
0000
0110
0000
0000
0000
1000
0000
0001
0000
0100
0000
0000
0000
0010
0000
1000
,  // measure 67
0000
0100
0000
0000
0000
1000
0000
0000
0000
0001
0000
0000
0000
0010
0000
0100
0000
1000
0000
0000
0000
0000
0000
1100
0000
0000
0000
0000
0000
1000
0000
0100
,  // measure 68
0000
0001
0000
0000
0000
0100
0000
0000
0000
0100
0000
0010
0000
0001
0000
0000
0000
1000
0000
0100
0000
0010
0000
0001
0000
1000
0000
0100
0000
1000
0000
0100
,  // measure 69
0000
0001
0000
0100
0000
1000
0000
0100
0000
1000
0000
0100
0000
1000
0000
0100
0000
0010
0000
0100
0000
1000
0000
0001
0000
1000
0000
0000
0000
1000
0000
0010
,  // measure 70
0000
0100
0000
0000
0000
0001
0000
0000
0000
0001
0000
0010
0000
0100
0000
0000
0000
1000
0000
0001
0000
1000
0000
0010
0000
0100
0000
0000
0000
0101
0000
0000
,  // measure 71
0000
0101
0000
0000
0000
1000
0000
0000
0000
0001
0000
0010
0000
0100
0000
1000
0000
0100
0000
0000
0000
0010
0000
0001
0000
0100
0000
0000
0000
0000
0000
0101
,  // measure 72
0000
0000
0000
0000
0000
1010
0000
0000
0000
1000
0000
0001
0000
0100
0000
0000
0000
1000
0000
0001
0000
0100
0000
0010
0000
1000
0000
0000
0000
0100
0000
0000
,  // measure 73
0000
1001
0000
0000
0000
0100
0000
0000
0000
0000
0000
0000
0000
0100
0000
0000
0000
0110
0000
0000
0000
0010
0000
0001
0000
0100
0000
0000
0000
0010
0000
0000
,  // measure 74
0000
1001
0000
0000
0000
0100
0000
0000
0000
1001
0000
0000
0000
0001
0000
1000
0000
0010
0000
0100
0000
0001
0000
1000
0000
0100
0000
0000
0000
0100
0000
0010
,  // measure 75
0000
0001
0000
0001
0000
1000
0000
0000
0000
0010
0000
0100
0000
0010
0000
0000
0000
1000
0000
0000
0000
0001
0000
1000
0000
0100
0000
0100
0000
0010
0000
0000
,  // measure 76
0000
1001
0000
0000
0000
0100
0000
0000
0000
0001
0000
0000
0000
1000
0000
0100
0000
0010
0000
0001
0000
0100
0000
0010
0000
1000
0000
0000
0000
0001
0000
0000
,  // measure 77
0000
1010
0000
0000
0000
0100
0000
0000
0000
0001
0000
1000
0000
0100
0000
0000
0000
0110
0000
0000
0000
0001
0000
1000
0000
0100
0000
0000
0000
0000
0000
1100
,  // measure 78
0000
0000
0000
0000
0000
1001
0000
0000
0000
1001
0000
0000
0000
0000
0000
0001
0000
0010
0000
0010
0000
0100
0000
0000
0000
1000
0000
0000
0000
0000
0000
1000
,  // measure 79
0000
0001
0000
0000
0000
0100
0000
0000
0000
0100
0000
0001
0000
1000
0000
0000
0000
1000
0000
0001
0000
0000
0000
1001
0000
0000
0000
0100
0000
0001
0000
0000
,  // measure 80
0000
0101
0000
0000
0000
0001
0000
1000
0000
0000
0000
1100
0000
0000
0000
0100
0000
0010
0000
0001
0000
0100
0000
0010
0000
2000
0000
0000
0000
0000
0000
0000
,  // measure 81
0000
0000
0000
0000
0000
0001
0000
0000
0000
0000
0000
0000
0000
0000
0000
0000
0000
0000
0000
0000
0000
3100
0000
0000
0000
1100
0000
0000
0000
0000
0000
0101
,  // measure 82
0000
0000
0000
0000
0000
1001
0000
0000
0000
0000
0000
0000
0000
0010
0000
0010
0000
0100
0000
0001
0000
1000
0000
0010
0000
0100
0000
0000
0000
0000
0000
0000
,  // measure 83
0000
0000
0000
0000
,  // measure 84
0000
0000
0000
0000
,  // measure 85
0000
0000
0000
0000
,  // measure 86
0000
0000
0000
0000
,  // measure 87
MMMM
0000
0000
0000
;

//---------------dance-single - ----------------
#NOTES:
     dance-single:
     :
     Hard:
     8:
     0.463785,0.619689,0.370353,0.362473,0.768285,412.000000,365.000000,47.000000,46.000000,0.000000,0.000000,0.463785,0.619689,0.370353,0.362473,0.768285,412.000000,365.000000,47.000000,46.000000,0.000000,0.000000:
0000
0000
0000
0000
,
0000
0000
0000
0000
,
0000
0000
0000
0000
,
0000
0000
0000
0000
,
0000
0000
0000
0000
,
0000
0000
0000
0000
,
0000
0000
0000
0000
,
0000
0000
0000
0000
,
0000
0000
0000
0000
,
0000
0000
0000
0000
,
0000
0000
0000
0000
,
0000
0000
0000
0000
,
0000
0000
0000
0000
0000
0000
0000
0000
0000
0000
0000
0000
1000
0000
0000
0001
,
0000
0000
0100
0000
0000
0000
0010
0100
0000
0010
0100
0000
0001
0000
0000
0000
,
1000
0100
0000
0010
0000
0110
0100
0000
,
1000
0000
0001
0000
0000
0000
1001
0000
0000
0000
0001
1000
0001
0000
0000
0000
,
0010
0000
0100
0000
0000
0000
0000
0000
1000
0000
0001
0100
0001
0000
0000
0000
,
0010
0000
0000
0000
0100
0000
0100
0000
1000
0000
0001
1000
0001
0000
0000
0000
,
0100
0010
0000
1000
0000
1001
0010
0000
,
0100
0000
0001
0000
0000
0000
1000
0000
0100
0000
0010
0100
0010
0000
0000
0000
,
0001
0000
0100
0000
0000
0000
0010
0000
1000
0000
0100
1000
0200
0000
0000
0000
,
0310
0001
2000
0000
3001
0100
0010
1000
,
0100
0000
1000
0000
0010
0000
0000
0100
0000
0000
0010
0000
1000
0000
0001
0000
,
0100
0000
0001
1000
0100
0000
0010
0001
,
0100
0001
1000
0010
0100
0000
0010
1000
,
0100
0000
1000
0001
0100
0000
0020
0000
,
1030
0001
0010
0100
0020
0000
0032
0000
,
0103
0020
0000
1030
0200
0000
2300
0000
,
3001
1000
0100
1000
0002
0000
0203
0000
,
0310
2000
0000
3010
0200
0000
0301
0000
,
0010
0002
0000
0000
0013
0000
0011
0000
,
0001
2000
0000
0000
3010
0000
1010
0000
,
1010
0000
0010
0100
0000
0010
0100
0000
0001
0000
0001
0000
1000
0000
1000
0000
,
0100
0100
0010
0001
1000
0100
1000
0000
,
0000
1001
0000
0000
0101
0000
0011
0000
,
0000
1010
0000
0000
0001
1000
1001
0000
,
0000
0011
0000
1010
0000
0000
0000
0101
,
0000
1100
0000
0000
1001
0000
0000
0000
0110
0000
0000
0000
2002
0000
0000
0000
,
0003
0020
0000
0000
3030
0000
2002
0000
,
3000
0200
0000
0000
0303
0000
0220
0000
,
0030
2000
0000
0000
3300
0000
0022
0000
,
0030
2000
0000
0000
3003
0000
0011
0000
,
1000
0011
0000
0000
0100
0000
1010
0000
,
0001
1010
0000
0000
0001
1000
1001
0000
,
0100
1001
0000
0110
0000
0000
0000
0011
,
0000
1010
0000
0000
1100
0000
0000
0000
0101
0000
0000
0000
0002
0000
0000
0000
,
1000
2000
0000
3003
1001
0000
0020
0000
,
0100
0200
0000
0330
0110
0000
2000
0000
,
0100
0200
0000
3300
1100
0000
0012
0000
,
0013
0022
0000
0000
0033
0000
2002
0000
,
0000
0000
0000
0000
0000
0000
0000
0000
3003
0000
0000
0000
0000
1001
0000
0000
,
0000
0010
0000
0000
0000
0000
0000
1010
0000
0000
0000
1001
0000
0001
0000
0000
,
0000
0010
0000
0000
0000
0000
0000
0011
0000
0000
0000
1100
0000
1000
0000
0100
,
0000
0000
0000
0010
0000
0000
0000
0010
0000
0001
0000
1000
0000
0100
0000
0000
,
0000
0000
0000
0100
0000
0010
0000
0100
0000
0010
0000
0001
0000
0100
0000
0000
,
0000
0000
0000
0100
0000
0000
0000
0000
0000
0000
0000
0001
0000
0001
0000
0000
,
0000
0000
0010
0000
0000
0000
0000
0000
0000
0000
0100
0000
0000
0000
1000
0000
0000
0000
0100
0000
0000
0000
0000
0000
0000
1000
0000
0000
0000
0000
0000
0000
,
0000
0001
0000
0000
0000
0010
0000
0000
0000
0000
0000
0000
0000
0001
0000
0000
0000
0100
0000
0000
0000
0010
0000
0000
0000
1000
0000
0000
0000
0000
0000
0000
,
0000
0100
0000
0000
0000
0010
0000
0000
0000
0000
0000
0000
0000
0100
0000
0000
0000
0010
0000
0000
0000
0000
0000
0000
0000
0002
0000
0000
0000
0000
0000
0000
,
0000
0103
0000
0000
0000
0000
0000
0000
0000
2000
0000
0000
0000
0000
0000
0000
0000
3010
0000
0000
0000
0000
0000
0000
0000
0200
0000
0000
0000
0000
0000
0000
,
0000
0301
0000
0000
0000
0000
0000
0000
0000
0020
0000
0000
0000
0000
0000
0000
0000
0130
0000
0000
0000
0000
0000
0000
0000
1000
0000
0000
0000
0000
0000
0000
,
0000
0100
0000
0000
0000
0000
0000
0000
0000
0010
0000
0000
0000
0001
0000
0000
0000
0100
0000
0000
0000
0000
0000
0000
0000
0001
0000
0000
0000
1000
0000
0000
,
0000
0001
0000
0000
0000
0100
0000
0000
0000
0000
0000
0000
0000
0010
0000
0000
0000
1000
0000
0000
0000
0000
0000
0000
0000
0100
0000
0000
0000
0000
0000
0000
,
0000
1001
0000
0000
0000
0000
0000
0000
0000
0010
0000
0000
0000
0000
0000
0000
0000
0110
0000
0000
0000
0000
0000
0000
0000
1000
0000
0000
0000
0000
0000
0000
,
0000
1001
0000
0000
0000
0000
0000
0000
0000
0100
0000
0000
0000
0000
0000
0000
0000
0110
0000
0000
0000
0000
0000
0000
0000
0001
0000
0000
0000
0000
0000
0000
,
0000
0010
0000
0000
0000
0000
0000
0000
0000
0001
0000
0000
0000
0100
0000
0000
0000
0001
0000
0000
0000
0000
0000
0000
0000
1000
0000
0000
0000
0010
0000
0000
,
0000
0100
0000
0000
0000
0001
0000
0000
0000
0000
0000
0000
0000
0010
0000
0000
0000
0100
0000
0000
0000
0000
0000
0000
0000
0020
0000
0000
0000
0000
0000
0000
,
0000
0031
0000
0000
0000
0000
0000
0000
0000
2000
0000
0000
0000
0000
0000
0000
0000
3010
0000
0000
0000
0000
0000
0000
0000
0200
0000
0000
0000
0000
0000
0000
,
0000
1300
0000
0000
0000
0000
0000
0000
0000
0002
0000
0000
0000
0000
0000
0000
0000
0103
0000
0000
0000
0000
0000
0000
0000
0001
0000
0000
0000
0100
0000
0000
,
0000
0010
0000
0000
0000
1000
0000
0000
0000
0100
0000
0000
0000
0010
0000
0000
0000
0001
0000
0000
0000
0100
0000
0000
0000
0010
0000
0000
0000
1000
0000
0000
,
0000
0100
0000
0000
0000
0010
0000
0000
0000
0001
0000
0000
0000
0100
0000
0000
0000
0010
0000
0000
0000
1000
0000
0000
0000
0100
0000
0000
0000
0001
0000
0000
,
0000
0100
0000
0000
0000
1000
0000
0000
0000
0010
0000
0000
0000
0001
0000
0000
0000
0010
0000
0000
0000
1000
0000
0000
0000
0100
0000
0000
0000
0010
0000
0000
,
0000
0001
0000
0000
0000
1000
0000
0000
0000
0010
0000
0000
0000
0100
0000
0000
0000
0001
0000
0000
0000
1000
0000
0000
0000
0100
0000
0000
0000
0010
0000
0000
,
0000
0100
0000
0000
0000
0010
0000
0000
0000
0000
0000
0000
0000
0001
0000
0000
0000
0100
0000
0000
0000
0000
0000
0000
0000
0001
0000
0000
0000
0010
0000
0000
,
0000
0001
0000
0000
0000
0100
0000
0000
0000
0010
0000
0000
0000
0000
0000
0000
0000
0010
0000
0000
0000
0000
0000
0000
0000
1000
0000
0000
0000
0100
0000
0000
,
0000
1000
0000
0000
0000
0000
0000
0000
0000
0002
0000
0000
0000
0000
0000
0000
0000
1003
0000
0000
0000
0000
0000
0000
0000
0001
0000
0000
0000
0100
0000
0000
,
0000
0001
0000
0000
0000
0100
0000
0000
0000
0010
0000
0000
0000
0000
0000
0000
0000
1000
0000
0000
0000
0000
0000
0000
0000
0100
0000
0000
0000
1000
0000
0000
,
0000
0100
0000
0000
0000
0001
0000
0000
0000
0100
0000
0000
0000
0010
0000
0000
0000
0100
0000
0000
0000
0010
0000
0000
0000
0001
0000
0000
0000
0100
0000
0000
,
0000
1000
0000
0000
0000
0100
0000
0000
0000
0001
0000
0000
0000
0100
0000
0000
0000
0001
0000
0000
0000
0100
0000
0000
0000
0010
0000
0000
0000
1000
0000
0000
,
0000
0010
0000
0000
0000
0100
0000
0000
0000
0001
0000
0000
0000
0100
0000
0000
0000
0001
0000
0000
0000
0100
0000
0000
0000
0010
0000
0000
0000
1000
0000
0000
,
0000
0100
0000
0000
0000
0001
0000
0000
0000
0100
0000
0000
0000
1000
0000
0000
0000
0100
0000
0000
0000
1000
0000
0000
0000
0001
0000
0000
0000
0000
0000
0000
,
0000
0000
0000
0000
0000
1000
0000
0000
0000
0000
0000
0000
0000
0000
0000
0000
0000
0000
0000
0000
0000
0010
0000
0000
0000
0100
0000
0000
0000
0000
0000
0100
,
0000
0000
0000
0000
0000
0100
0000
0000
0000
0000
0000
0000
0000
0001
0000
0000
0000
0010
0000
0000
0000
0100
0000
0000
0000
1000
0000
0000
0000
0000
0000
0000
;

//---------------dance-single - ----------------
#NOTES:
     dance-single:
     :
     Medium:
     6:
     0.319697,0.489228,0.118198,0.299434,0.524010,284.000000,269.000000,15.000000,38.000000,0.000000,0.000000,0.319697,0.489228,0.118198,0.299434,0.524010,284.000000,269.000000,15.000000,38.000000,0.000000,0.000000:
0000
0000
0000
0000
,
0000
0000
0000
0000
,
0000
0000
0000
0000
,
0000
0000
0000
0000
,
0000
0000
0000
0000
,
0000
0000
0000
0000
,
0000
0000
0000
0000
,
0000
0000
0000
0000
,
0000
0000
0000
0000
,
0000
0000
0000
0000
,
0000
0000
0000
0000
,
0000
0000
0000
0000
,
0000
0000
0000
0000
0000
0000
0000
0000
0000
0000
0000
0000
1000
0000
0000
0001
,
0000
0100
0000
0000
0110
0000
0010
0000
,
1000
0000
0000
0100
0000
0100
0010
0000
,
0001
0000
0000
1000
0000
1000
0010
0000
,
0100
0000
0000
0000
0001
0010
0100
0000
,
1000
0000
0001
1000
0001
0100
0010
0000
,
1000
0000
0000
0100
0000
0010
0001
0000
,
1000
0000
0000
0010
0000
0100
0001
0000
,
1000
0000
0000
0000
0010
0100
0002
0000
,
0013
0100
2000
0000
3001
0000
0200
0000
,
1000
0000
0010
0000
0301
0000
1000
0100
,
1000
0000
0001
0100
0001
0000
0020
0000
,
0001
0000
0100
0000
1030
0000
0100
0010
,
0100
0000
1000
0001
1000
0000
0002
0000
,
0100
0000
0010
0000
1003
0000
0010
1000
,
0010
0000
0100
0001
0100
0000
2000
0000
,
0010
0000
0100
0000
3001
0000
0010
1000
,
0100
0001
0000
0000
0000
0000
1001
0000
,
0000
0010
0000
0000
0000
0000
0001
0000
,
0010
1000
0000
0000
0010
0000
0100
0000
,
1000
0100
0001
0000
0100
0000
0010
1000
,
0100
0000
0001
0010
1000
0000
1001
0000
,
0000
0010
0000
0000
1000
0000
0100
0000
,
0000
0010
0000
0000
0001
0100
0001
0000
,
0000
0010
0000
0100
0000
0000
0000
1000
,
0000
0100
0000
0000
0001
0000
0000
0000
0100
0000
0000
0000
0020
0000
0000
0000
,
0000
1000
0000
0000
0030
0000
0002
0000
,
0000
0010
0000
0000
0003
0000
0200
0000
,
0000
1000
0000
0000
0300
0000
0002
0000
,
0000
0100
0000
0000
0003
0000
0010
0000
,
0000
0100
0000
0000
1000
0000
0010
0000
,
0000
1000
0000
0000
0001
0100
0010
0000
,
0000
1000
0000
0001
0000
0000
0000
0010
,
0000
0001
0000
0000
0100
0000
0000
0000
1000
0000
0000
0000
0020
0000
0000
0000
,
0000
0100
0000
0000
0030
0000
0002
0000
,
0000
1000
0000
0000
0003
0000
0200
0000
,
0000
0010
0000
0000
0300
0000
2000
0000
,
0000
0001
0000
0000
3000
0000
2002
0000
,
0000
0000
0000
0000
0000
0000
0000
0000
3003
0000
0000
0000
0000
1001
0000
0000
,
0000
0010
0000
0000
0000
0000
0000
1000
0000
0000
0000
1000
0000
0001
0000
0000
,
0000
0010
0000
0000
0000
0000
0000
0100
0000
0000
0000
0100
0000
1000
0000
0000
,
0000
0000
0000
0001
0000
0000
0000
0010
0000
0000
0000
0100
0000
1000
0000
0000
,
0000
0000
0000
0001
0000
0100
0000
0000
0000
0010
0000
0000
0000
1000
0000
0000
,
0000
0000
0000
1000
0000
0000
0000
0000
0000
0000
0000
0001
0000
0001
0000
0000
,
0000
0000
0010
0000
0000
0000
0000
0000
0000
0000
0100
0000
0000
0000
0000
0000
0000
0000
1000
0000
0000
0000
0000
0000
0000
2002
0000
0000
0000
0000
0000
0000
,
0000
0000
0000
0000
0000
0000
0000
0000
0000
0000
0000
0000
0000
0000
0000
0000
0000
3003
0000
0000
0000
0000
0000
0000
0000
0010
0000
0000
0000
0000
0000
0000
,
0000
0001
0000
0000
0000
1000
0000
0000
0000
0000
0000
0000
0000
0001
0000
0000
0000
1000
0000
0000
0000
0000
0000
0000
0000
0020
0000
0000
0000
0000
0000
0000
,
0000
1030
0000
0000
0000
0000
0000
0000
0000
2000
0000
0000
0000
0000
0000
0000
0000
3100
0000
0000
0000
0000
0000
0000
0000
0002
0000
0000
0000
0000
0000
0000
,
0000
0013
0000
0000
0000
0000
0000
0000
0000
0020
0000
0000
0000
0000
0000
0000
0000
0130
0000
0000
0000
0000
0000
0000
0000
2200
0000
0000
0000
0000
0000
0000
,
0000
0000
0000
0000
0000
0000
0000
0000
0000
0000
0000
0000
0000
0000
0000
0000
0000
3300
0000
0000
0000
0000
0000
0000
0000
0010
0000
0000
0000
0000
0000
0000
,
0000
1000
0000
0000
0000
0100
0000
0000
0000
0000
0000
0000
0000
0001
0000
0000
0000
0100
0000
0000
0000
0000
0000
0000
0000
0020
0000
0000
0000
0000
0000
0000
,
0000
0031
0000
0000
0000
0000
0000
0000
0000
2000
0000
0000
0000
0000
0000
0000
0000
3010
0000
0000
0000
0000
0000
0000
0000
0002
0000
0000
0000
0000
0000
0000
,
0000
0103
0000
0000
0000
0000
0000
0000
0000
2000
0000
0000
0000
0000
0000
0000
0000
3100
0000
0000
0000
0000
0000
0000
0000
0002
0000
0000
0000
0000
0000
0000
,
0000
1000
0000
0000
0000
0000
0000
0000
0000
0100
0000
0000
0000
0000
0000
0000
0000
1003
0000
0000
0000
0000
0000
0000
0000
0010
0000
0000
0000
0000
0000
0000
,
0000
0100
0000
0000
0000
0001
0000
0000
0000
0000
0000
0000
0000
0100
0000
0000
0000
0001
0000
0000
0000
0000
0000
0000
0000
2000
0000
0000
0000
0000
0000
0000
,
0000
3100
0000
0000
0000
0000
0000
0000
0000
0002
0000
0000
0000
0000
0000
0000
0000
0013
0000
0000
0000
0000
0000
0000
0000
0200
0000
0000
0000
0000
0000
0000
,
0000
1300
0000
0000
0000
0000
0000
0000
0000
0020
0000
0000
0000
0000
0000
0000
0000
0130
0000
0000
0000
0000
0000
0000
0000
2000
0000
0000
0000
0000
0000
0000
,
0000
0100
0000
0000
0000
0000
0000
0000
0000
0010
0000
0000
0000
0000
0000
0000
0000
3001
0000
0000
0000
0000
0000
0000
0000
0010
0000
0000
0000
0000
0000
0000
,
0000
0100
0000
0000
0000
1000
0000
0000
0000
0000
0000
0000
0000
0001
0000
0000
0000
0100
0000
0000
0000
0000
0000
0000
0000
0020
0000
0000
0000
0000
0000
0000
,
0000
1030
0000
0000
0000
0000
0000
0000
0000
0200
0000
0000
0000
0000
0000
0000
0000
0310
0000
0000
0000
0000
0000
0000
0000
0002
0000
0000
0000
0000
0000
0000
,
0000
0103
0000
0000
0000
0000
0000
0000
0000
2000
0000
0000
0000
0000
0000
0000
0000
3010
0000
0000
0000
0000
0000
0000
0000
0100
0000
0000
0000
0000
0000
0000
,
0000
0101
0000
0000
0000
0000
0000
0000
0000
0000
0000
0000
0000
0000
0000
0000
0000
0101
0000
0000
0000
0000
0000
0000
0000
0001
0000
0000
0000
0000
0000
0000
,
0000
1000
0000
0000
0000
0000
0000
0000
0000
1010
0000
0000
0000
0000
0000
0000
0000
1010
0000
0000
0000
0000
0000
0000
0000
0010
0000
0000
0000
1000
0000
0000
,
0000
0100
0000
0000
0000
0000
0000
0000
0000
1100
0000
0000
0000
0000
0000
0000
0000
1100
0000
0000
0000
0000
0000
0000
0000
1000
0000
0000
0000
0100
0000
0000
,
0000
1000
0000
0000
0000
0000
0000
0000
0000
0001
0000
0000
0000
0000
0000
0000
0000
0100
0000
0000
0000
0000
0000
0000
0000
0010
0000
0000
0000
0000
0000
0000
,
0000
0010
0000
0000
0000
0000
0000
0000
0000
1000
0000
0000
0000
0100
0000
0000
0000
1000
0000
0000
0000
0000
0000
0000
0000
0010
0000
0000
0000
0000
0000
0000
,
0000
0010
0000
0000
0000
0000
0000
0000
0000
0100
0000
0000
0000
0100
0000
0000
0000
0100
0000
0000
0000
0000
0000
0000
0000
0001
0000
0000
0000
0000
0000
0000
,
0000
0010
0000
0000
0000
0000
0000
0000
0000
0001
0000
0000
0000
0010
0000
0000
0000
0001
0000
0000
0000
0000
0000
0000
0000
1000
0000
0000
0000
0000
0000
0000
,
0000
0001
0000
0000
0000
0000
0000
0000
0000
0010
0000
0000
0000
0010
0000
0000
0000
0010
0000
0000
0000
0000
0000
0000
0000
0100
0000
0000
0000
0000
0000
0000
,
0000
0000
0000
0000
0000
0100
0000
0000
0000
0000
0000
0000
0000
0000
0000
0000
0000
0000
0000
0000
0000
1000
0000
0000
0000
1000
0000
0000
0000
0000
0000
0001
,
0000
0000
0000
0000
0000
0100
0000
0000
0000
0000
0000
0000
0000
0000
0000
0000
0000
0110
0000
0000
0000
0000
0000
0000
0000
1001
0000
0000
0000
0000
0000
0000
;

//---------------dance-single - ----------------
#NOTES:
     dance-single:
     :
     Easy:
     4:
     0.240898,0.293537,0.063039,0.149717,0.354593,214.000000,206.000000,8.000000,19.000000,0.000000,0.000000,0.240898,0.293537,0.063039,0.149717,0.354593,214.000000,206.000000,8.000000,19.000000,0.000000,0.000000:
0000
0000
0000
0000
,
0000
0000
0000
0000
,
0000
0000
0000
0000
,
0000
0000
0000
0000
,
0000
0000
0000
0000
,
0000
0000
0000
0000
,
0000
0000
0000
0000
,
0000
0000
0000
0000
,
0000
0000
0000
0000
,
0000
0000
0000
0000
,
0000
0000
0000
0000
,
0000
0000
0000
0000
,
0000
0000
0000
0000
,
0000
0000
0000
0110
,
0001
0000
1000
0100
,
0010
0001
0100
0010
,
1000
0000
1000
0100
,
0001
0100
1000
0010
,
0100
0000
0100
0001
,
0010
0001
0100
0010
,
1000
0000
0100
1000
,
0001
0100
0010
1000
,
1000
0001
0001
0010
,
0100
0010
0100
1000
,
0100
0001
0100
1000
,
1000
0001
0001
0100
,
0000
0010
0100
0010
,
0000
1000
0100
0001
,
0000
0100
0010
0001
,
0000
1000
0000
1001
,
0000
0010
0001
0100
,
0000
0010
1000
0100
,
0000
0010
0000
0001
,
0001
1000
1000
0100
,
0000
0100
0010
0001
,
0000
1000
0001
0100
,
0000
0100
0010
1000
,
0100
0001
0000
1000
,
1000
0001
0000
0100
,
0100
1000
0000
0010
,
0010
0001
0000
1000
,
1000
0010
0000
0001
,
0000
1000
0010
0100
,
0000
0010
1000
0100
,
0000
1000
0001
0100
,
1000
0010
0000
0001
,
0001
0100
0000
1000
,
0001
0010
0000
0100
,
0100
1000
0000
0010
,
1000
0001
0000
2002
,
0000
0000
0000
0000
0000
0000
0000
0000
3003
0000
0000
0000
0000
1001
0000
0000
,
0000
0010
0000
0000
0000
0000
0000
0000
0000
1000
0000
0000
0000
0100
0000
0000
,
0000
0010
0000
0000
0000
0000
0000
0000
0000
0001
0000
0000
0000
1000
0000
0000
,
0000
0100
0000
0000
0000
0000
0000
0000
0000
0010
0000
0000
0000
0001
0000
0000
,
0000
0100
0000
0000
0000
0000
0000
0000
0000
0010
0000
0000
0000
1001
0000
0000
,
0000
0000
0000
0000
0000
0000
0000
0000
0000
0000
0000
0000
0000
0010
0000
0000
,
0000
0000
0010
0000
0000
0000
0000
0000
0000
0000
0010
0000
0000
0000
0000
0000
0000
0000
0010
0000
0000
0000
0000
0000
0000
2002
0000
0000
0000
0000
0000
0000
,
0000
0000
0000
0000
0000
0000
0000
0000
0000
0000
0000
0000
0000
0000
0000
0000
0000
3003
0000
0000
0000
0000
0000
0000
0000
0010
0000
0000
0000
0000
0000
0000
,
0000
0001
0000
0000
0000
0000
0000
0000
0000
0100
0000
0000
0000
0000
0000
0000
0000
1000
0000
0000
0000
0000
0000
0000
0000
0020
0000
0000
0000
0000
0000
0000
,
0000
0030
0000
0000
0000
0000
0000
0000
0000
0200
0000
0000
0000
0000
0000
0000
0000
0300
0000
0000
0000
0000
0000
0000
0000
0002
0000
0000
0000
0000
0000
0000
,
0000
0003
0000
0000
0000
0000
0000
0000
0000
2000
0000
0000
0000
0000
0000
0000
0000
3000
0000
0000
0000
0000
0000
0000
0000
2002
0000
0000
0000
0000
0000
0000
,
0000
0000
0000
0000
0000
0000
0000
0000
0000
0000
0000
0000
0000
0000
0000
0000
0000
3003
0000
0000
0000
0000
0000
0000
0000
0100
0000
0000
0000
0000
0000
0000
,
0000
1000
0000
0000
0000
0000
0000
0000
0000
0010
0000
0000
0000
0000
0000
0000
0000
0001
0000
0000
0000
0000
0000
0000
0000
0200
0000
0000
0000
0000
0000
0000
,
0000
0300
0000
0000
0000
0000
0000
0000
0000
0020
0000
0000
0000
0000
0000
0000
0000
0030
0000
0000
0000
0000
0000
0000
0000
0002
0000
0000
0000
0000
0000
0000
,
0000
0003
0000
0000
0000
0000
0000
0000
0000
2000
0000
0000
0000
0000
0000
0000
0000
3000
0000
0000
0000
0000
0000
0000
0000
0100
0000
0000
0000
0000
0000
0000
,
0000
0010
0000
0000
0000
0000
0000
0000
0000
0100
0000
0000
0000
0000
0000
0000
0000
0010
0000
0000
0000
0000
0000
0000
0000
0001
0000
0000
0000
0000
0000
0000
,
0000
0100
0000
0000
0000
0000
0000
0000
0000
1000
0000
0000
0000
0000
0000
0000
0000
0100
0000
0000
0000
0000
0000
0000
0000
0001
0000
0000
0000
0000
0000
0000
,
0000
0001
0000
0000
0000
0000
0000
0000
0000
1000
0000
0000
0000
0000
0000
0000
0000
1000
0000
0000
0000
0000
0000
0000
0000
0100
0000
0000
0000
0000
0000
0000
,
0000
0100
0000
0000
0000
0000
0000
0000
0000
0010
0000
0000
0000
0000
0000
0000
0000
0010
0000
0000
0000
0000
0000
0000
0000
0002
0000
0000
0000
0000
0000
0000
,
0000
0000
0000
0000
0000
0000
0000
0000
0000
0000
0000
0000
0000
0000
0000
0000
0000
0003
0000
0000
0000
0000
0000
0000
0000
0010
0000
0000
0000
0000
0000
0000
,
0000
0100
0000
0000
0000
0000
0000
0000
0000
1000
0000
0000
0000
0000
0000
0000
0000
0001
0000
0000
0000
0000
0000
0000
0000
0200
0000
0000
0000
0000
0000
0000
,
0000
0300
0000
0000
0000
0000
0000
0000
0000
0020
0000
0000
0000
0000
0000
0000
0000
0030
0000
0000
0000
0000
0000
0000
0000
2000
0000
0000
0000
0000
0000
0000
,
0000
3000
0000
0000
0000
0000
0000
0000
0000
0002
0000
0000
0000
0000
0000
0000
0000
0003
0000
0000
0000
0000
0000
0000
0000
1000
0000
0000
0000
0000
0000
0000
,
0000
0100
0000
0000
0000
0000
0000
0000
0000
1000
0000
0000
0000
0000
0000
0000
0000
0000
0000
0000
0000
0000
0000
0000
0000
0001
0000
0000
0000
0000
0000
0000
,
0000
0010
0000
0000
0000
0000
0000
0000
0000
0100
0000
0000
0000
0000
0000
0000
0000
0100
0000
0000
0000
0000
0000
0000
0000
0010
0000
0000
0000
0000
0000
0000
,
0000
0001
0000
0000
0000
0000
0000
0000
0000
0010
0000
0000
0000
0000
0000
0000
0000
0000
0000
0000
0000
0000
0000
0000
0000
0001
0000
0000
0000
0000
0000
0000
,
0000
1000
0000
0000
0000
0000
0000
0000
0000
0001
0000
0000
0000
0000
0000
0000
0000
0000
0000
0000
0000
0000
0000
0000
0000
0100
0000
0000
0000
0000
0000
0000
,
0000
0000
0000
0000
0000
0000
0000
0000
0000
0010
0000
0000
0000
0000
0000
0000
0000
1000
0000
0000
0000
0000
0000
0000
0000
0010
0000
0000
0000
0000
0000
0000
,
0000
0000
0000
0000
0000
0000
0000
0000
0000
1000
0000
0000
0000
0000
0000
0000
0000
0100
0000
0000
0000
0000
0000
0000
0000
1000
0000
0000
0000
0000
0000
0000
,
0000
0000
0000
0000
0000
0000
0000
0000
0000
0001
0000
0000
0000
0000
0000
0000
0000
0010
0000
0000
0000
0000
0000
0000
0000
0001
0000
0000
0000
0000
0000
0000
,
0000
0000
0000
0000
0000
0000
0000
0000
0000
0100
0000
0000
0000
0000
0000
0000
0000
0010
0000
0000
0000
0000
0000
0000
0000
0100
0000
0000
0000
0000
0000
0000
,
0000
0000
0000
0000
0000
0000
0000
0000
0000
0000
0000
0000
0000
0000
0000
0000
0000
0000
0000
0000
0000
0000
0000
0000
0000
0100
0000
0000
0000
0000
0000
0000
,
0000
0001
0000
0000
0000
0000
0000
0000
0000
1000
0000
0000
0000
0000
0000
0000
0000
0000
0000
0000
0000
0000
0000
0000
0000
1001
0000
0000
0000
0000
0000
0000
;

//---------------dance-single - ----------------
#NOTES:
     dance-single:
     :
     Beginner:
     2:
     0.149717,0.260921,0.015760,0.015760,0.212756,133.000000,131.000000,2.000000,2.000000,0.000000,0.000000,0.149717,0.260921,0.015760,0.015760,0.212756,133.000000,131.000000,2.000000,2.000000,0.000000,0.000000:
0000
0000
0000
0000
,
0000
0000
0000
0000
,
0000
0000
0000
0000
,
0000
0000
0000
0000
,
0000
0000
0000
0000
,
0000
0000
0000
0000
,
0000
0000
0000
0000
,
0000
0000
0000
0000
,
0000
0000
0000
0000
,
0000
0000
0000
0000
,
0000
0000
0000
0000
,
0000
0000
0000
0000
,
0000
0000
0000
0000
,
0000
0000
0000
0001
,
0000
0010
0000
1000
,
0000
0010
0000
0100
,
0000
1000
0000
0100
,
0000
0001
0000
1000
,
0000
0010
0000
0001
,
0000
0010
0000
0100
,
0000
0001
0000
0100
,
0000
1000
0000
0001
,
0000
0000
0000
1000
,
0000
0000
0000
0010
,
0000
0000
0000
0100
,
0000
0000
0000
0001
,
0000
0000
0010
0010
,
0000
0100
0000
1000
,
0000
0000
0010
0010
,
0000
0100
0000
0001
,
0000
0000
0010
0010
,
0000
0100
0000
1000
,
0000
0000
0010
0010
,
0000
0100
0000
0001
,
0000
0001
0001
0001
,
0000
1000
1000
1000
,
0000
0100
0100
0100
,
0100
0100
0000
0010
,
0000
0010
0000
0001
,
0000
1000
0000
0100
,
0000
0010
0000
0001
,
0000
1000
0000
0010
,
0000
0100
0100
0100
,
0000
0001
0001
0001
,
0000
1000
1000
1000
,
1000
1000
0000
0010
,
0000
0010
0000
1000
,
0000
0001
0000
0100
,
0000
0010
0000
1000
,
0000
0001
0000
2002
,
0000
0000
0000
0000
3003
0000
0000
0000
0000
0000
0000
0000
0000
0001
0000
0000
,
0000
0000
0000
0000
0000
0000
0000
0000
0000
0000
0000
0000
0000
1000
0000
0000
,
0000
0000
0000
0000
0000
0100
0000
0000
0000
0000
0000
0000
0000
1000
0000
0000
,
0000
0000
0000
0000
0000
0001
0000
0000
0000
0000
0000
0000
0000
0100
0000
0000
,
0000
0000
0000
0000
0000
0010
0000
0000
0000
0000
0000
0000
0000
0100
0000
0000
,
0000
0000
0000
0000
0000
0000
0000
0000
0000
0000
0000
0000
0000
0100
0000
0000
,
0000
0000
0000
0000
0000
0000
0000
0000
0000
0000
0000
0000
0000
0000
0000
0000
0000
0000
0000
0000
0000
0000
0000
0000
0000
0001
0000
0000
0000
0000
0000
0000
,
0000
0000
0000
0000
0000
0000
0000
0000
0000
0000
0000
0000
0000
0000
0000
0000
0000
0000
0000
0000
0000
0000
0000
0000
0000
0010
0000
0000
0000
0000
0000
0000
,
0000
0000
0000
0000
0000
0000
0000
0000
0000
0010
0000
0000
0000
0000
0000
0000
0000
0000
0000
0000
0000
0000
0000
0000
0000
0100
0000
0000
0000
0000
0000
0000
,
0000
0000
0000
0000
0000
0000
0000
0000
0000
0100
0000
0000
0000
0000
0000
0000
0000
0000
0000
0000
0000
0000
0000
0000
0000
0100
0000
0000
0000
0000
0000
0000
,
0000
0000
0000
0000
0000
0000
0000
0000
0000
0100
0000
0000
0000
0000
0000
0000
0000
0000
0000
0000
0000
0000
0000
0000
0000
1000
0000
0000
0000
0000
0000
0000
,
0000
0000
0000
0000
0000
0000
0000
0000
0000
0000
0000
0000
0000
0000
0000
0000
0000
0000
0000
0000
0000
0000
0000
0000
0000
0010
0000
0000
0000
0000
0000
0000
,
0000
0000
0000
0000
0000
0000
0000
0000
0000
0100
0000
0000
0000
0000
0000
0000
0000
0000
0000
0000
0000
0000
0000
0000
0000
0001
0000
0000
0000
0000
0000
0000
,
0000
0000
0000
0000
0000
0000
0000
0000
0000
0001
0000
0000
0000
0000
0000
0000
0000
0000
0000
0000
0000
0000
0000
0000
0000
0001
0000
0000
0000
0000
0000
0000
,
0000
0000
0000
0000
0000
0000
0000
0000
0000
0001
0000
0000
0000
0000
0000
0000
0000
0000
0000
0000
0000
0000
0000
0000
0000
0001
0000
0000
0000
0000
0000
0000
,
0000
0000
0000
0000
0000
0000
0000
0000
0000
0000
0000
0000
0000
0000
0000
0000
0000
0000
0000
0000
0000
0000
0000
0000
0000
0010
0000
0000
0000
0000
0000
0000
,
0000
0000
0000
0000
0000
0000
0000
0000
0000
0100
0000
0000
0000
0000
0000
0000
0000
0000
0000
0000
0000
0000
0000
0000
0000
1000
0000
0000
0000
0000
0000
0000
,
0000
0000
0000
0000
0000
0000
0000
0000
0000
0001
0000
0000
0000
0000
0000
0000
0000
0000
0000
0000
0000
0000
0000
0000
0000
0100
0000
0000
0000
0000
0000
0000
,
0000
0000
0000
0000
0000
0000
0000
0000
0000
0010
0000
0000
0000
0000
0000
0000
0000
0000
0000
0000
0000
0000
0000
0000
0000
1000
0000
0000
0000
0000
0000
0000
,
0000
0000
0000
0000
0000
0000
0000
0000
0000
0000
0000
0000
0000
0000
0000
0000
0000
0000
0000
0000
0000
0000
0000
0000
0000
0001
0000
0000
0000
0000
0000
0000
,
0000
0000
0000
0000
0000
0000
0000
0000
0000
0010
0000
0000
0000
0000
0000
0000
0000
0000
0000
0000
0000
0000
0000
0000
0000
0100
0000
0000
0000
0000
0000
0000
,
0000
0000
0000
0000
0000
0000
0000
0000
0000
1000
0000
0000
0000
0000
0000
0000
0000
0000
0000
0000
0000
0000
0000
0000
0000
0010
0000
0000
0000
0000
0000
0000
,
0000
0000
0000
0000
0000
0000
0000
0000
0000
0100
0000
0000
0000
0000
0000
0000
0000
0000
0000
0000
0000
0000
0000
0000
0000
0001
0000
0000
0000
0000
0000
0000
,
0000
0000
0000
0000
0000
0000
0000
0000
0000
0000
0000
0000
0000
0000
0000
0000
0000
0000
0000
0000
0000
0000
0000
0000
0000
1000
0000
0000
0000
0000
0000
0000
,
0000
0000
0000
0000
0000
0000
0000
0000
0000
0000
0000
0000
0000
0000
0000
0000
0000
0000
0000
0000
0000
0000
0000
0000
0000
0100
0000
0000
0000
0000
0000
0000
,
0000
0000
0000
0000
0000
0000
0000
0000
0000
0010
0000
0000
0000
0000
0000
0000
0000
0000
0000
0000
0000
0000
0000
0000
0000
0001
0000
0000
0000
0000
0000
0000
,
0000
0000
0000
0000
0000
0000
0000
0000
0000
1000
0000
0000
0000
0000
0000
0000
0000
0000
0000
0000
0000
0000
0000
0000
0000
0100
0000
0000
0000
0000
0000
0000
,
0000
0000
0000
0000
0000
0000
0000
0000
0000
0100
0000
0000
0000
0000
0000
0000
0000
0000
0000
0000
0000
0000
0000
0000
0000
0010
0000
0000
0000
0000
0000
0000
,
0000
0000
0000
0000
0000
0000
0000
0000
0000
0010
0000
0000
0000
0000
0000
0000
0000
0000
0000
0000
0000
0000
0000
0000
0000
0001
0000
0000
0000
0000
0000
0000
,
0000
0000
0000
0000
0000
0000
0000
0000
0000
1000
0000
0000
0000
0000
0000
0000
0000
0000
0000
0000
0000
0000
0000
0000
0000
0001
0000
0000
0000
0000
0000
0000
,
0000
0000
0000
0000
0000
0000
0000
0000
0000
1000
0000
0000
0000
0000
0000
0000
0000
0000
0000
0000
0000
0000
0000
0000
0000
0100
0000
0000
0000
0000
0000
0000
,
0000
0000
0000
0000
0000
0000
0000
0000
0000
0000
0000
0000
0000
0000
0000
0000
0000
0000
0000
0000
0000
0000
0000
0000
0000
0100
0000
0000
0000
0000
0000
0000
,
0000
0000
0000
0000
0000
0000
0000
0000
0000
0000
0000
0000
0000
0000
0000
0000
0000
0000
0000
0000
0000
0000
0000
0000
0000
1001
0000
0000
0000
0000
0000
0000
;
