#TITLE:Tussle Among Trees;
#SUBTITLE:;
#ARTIST:OMORI;
#TITLETRANSLIT:;
#SUBTITLETRANSLIT:;
#ARTISTTRANSLIT:;
#GENRE:OMORI;
#CREDIT:[Ness];
#BANNER:OMORI - Tussle Among Trees (for TapMania).png;
#BACKGROUND:OMORI - Tussle Among Trees (for TapMania)-bg.png;
#LYRICSPATH:;
#CDTITLE:;
#MUSIC:OMORI - Tussle Among Trees (for TapMania).mp3;
#OFFSET:1.560000;
#SAMPLESTART:0.051938;
#SAMPLELENGTH:20.800001;
#LASTBEATHINT:192.500000;
#SELECTABLE:YES;
#BPMS:0.000000=150.000000
;
#STOPS:
;
#BGCHANGES:;
#KEYSOUNDS:;
#ATTACKS:;

//---------------dance-single - ----------------
#NOTES:
     dance-single:
     :
     Challenge:
     11:
     0.922843,1.030033,0.466981,0.000000,1.050706,498.000000,462.000000,36.000000,0.000000,12.000000,0.000000,0.922843,1.030033,0.466981,0.000000,1.050706,498.000000,462.000000,36.000000,0.000000,12.000000,0.000000:
// measure 0
0000
0000
0000
0000
,  // measure 1
0010
1000
0100
1000
0010
1000
0010
1000
0001
1000
0100
1000
0001
0100
0010
0100
,  // measure 2
0001
0010
0001
1000
0001
0100
0001
0010
0100
0010
0001
1000
0001
0100
0010
1000
,  // measure 3
0100
0010
0100
1000
0001
1000
0100
0010
0100
1000
0010
0100
0010
1000
0001
1000
,  // measure 4
0010
0100
0001
0100
0010
1000
0001
1000
0100
0010
0100
1000
0001
0010
0100
1000
,  // measure 5
0001
0000
0010
0100
1000
0000
0001
0000
0100
0000
0001
1000
0010
0100
0001
0100
,  // measure 6
0010
1000
0100
1000
0001
0010
0100
1000
0010
0100
0010
1000
0001
0100
0010
1000
,  // measure 7
0001
1000
0001
1000
0001
1000
0001
1000
0010
0100
0010
0100
0010
0100
0010
0100
,  // measure 8
0010
1000
0001
0010
0100
1000
0001
0100
0010
1000
0001
0010
0100
1000
0001
0100
,  // measure 9
0010
0000
0000
0000
0000
0000
0000
0000
0000
0000
0000
0000
0100
0001
1000
0010
,  // measure 10
0100
0000
0000
0001
0000
0000
1000
0010
0100
0001
0000
0000
0010
0000
0100
1000
,  // measure 11
0001
0000
0000
1000
0010
0000
0100
0000
0001
0010
0000
0000
0100
0000
1000
0000
,  // measure 12
0010
0000
0000
1000
0000
0000
0001
1000
0100
0010
0000
0000
0001
0000
0100
0000
,  // measure 13
0010
1000
0001
0100
0001
0000
1000
0000
0000
1000
0100
0010
0001
0000
1000
0000
,  // measure 14
0100
0000
0000
0010
0000
0000
0001
1000
0010
0100
0000
0000
0001
0000
1000
0000
,  // measure 15
0100
0000
0010
0001
1000
0000
0010
0000
0100
0001
0000
0000
1000
0000
0100
0000
,  // measure 16
0010
0000
0000
0001
0000
0000
0100
0001
0010
0100
0000
0000
1000
0000
0010
0000
,  // measure 17
1000
0000
0000
0001
0000
0010
0100
1000
0001
0100
0010
1000
0001
0000
0000
0000
,  // measure 18
MMMM
0000
0000
0000
MMMM
0000
0001
0010
0100
1000
0000
0000
0010
0000
0100
0001
,  // measure 19
1000
0000
0000
0001
0010
0000
0100
0000
1000
0010
0000
0000
0100
0001
0010
0100
,  // measure 20
1000
0000
0000
0001
0000
0000
1000
0001
0100
0010
0000
0000
1000
0000
0100
0000
,  // measure 21
0010
0001
1000
0100
1000
0000
0001
0000
0000
0001
0100
0010
1000
0000
0001
0000
,  // measure 22
0100
0000
0000
0010
0000
0000
1000
0001
0010
0100
0000
0000
1000
0000
0001
0000
,  // measure 23
0100
0000
0010
1000
0001
0000
0010
0000
0100
1000
0000
0000
0001
0000
0100
0000
,  // measure 24
0010
0000
0000
1000
0000
0000
0100
1000
0010
0100
0000
0000
0001
0000
0010
0000
,  // measure 25
0001
0000
0000
1000
0000
0010
0100
0001
1000
0100
0010
0001
1000
0100
0010
0001
,  // measure 26
1000
0000
0000
1000
0100
0000
0001
0000
0000
0001
0100
0000
1000
0000
0010
0000
,  // measure 27
0100
0000
0000
0100
0001
0000
0010
0000
0000
0010
1000
0000
0001
1000
0100
0010
,  // measure 28
0001
0010
0011
0011
0100
1000
1100
1100
,  // measure 29
1000
0001
0101
0101
0100
0010
1010
1010
,  // measure 30
1000
0000
0001
1000
0100
0000
0100
0000
0010
0000
0001
0000
0011
0000
0011
0000
,  // measure 31
0010
0000
0100
0000
1100
0000
1100
0000
1000
0000
0010
0000
1010
0000
1000
0001
,  // measure 32
1000
0000
0100
0000
0110
0000
0110
0000
0001
0000
1000
0000
1001
0000
0001
0010
,  // measure 33
0001
0010
0011
0011
0100
1000
1100
1100
,  // measure 34
1000
0010
1010
1010
1000
0001
0101
0101
,  // measure 35
0100
0000
0010
0000
1001
0000
0001
1000
0100
0010
0001
1000
0100
0010
0001
1000
,  // measure 36
0100
0010
0001
0100
0010
0000
1000
0000
0100
0000
0100
0000
0010
0000
0100
0000
,  // measure 37
1000
0000
0010
0100
0001
0000
0001
0000
1000
0000
0001
0000
1000
0000
1000
0000
,  // measure 38
0100
0010
0001
0100
0010
0000
0010
0000
1000
0000
0001
0000
0001
0010
0100
1000
,  // measure 39
0001
1000
0100
0010
0001
1000
0010
1000
0001
1000
0100
0010
0001
1000
0100
0010
,  // measure 40
0100
0000
1100
1001
0100
0000
0101
0011
,  // measure 41
0010
0000
0011
1100
0100
0000
1010
1001
,  // measure 42
0001
0000
0000
0000
0011
0000
1001
0000
1000
0000
0000
0010
0100
0000
0001
0000
,  // measure 43
1000
0001
0100
0010
1000
0100
0010
0001
1000
0010
1000
0001
0100
0010
0100
0001
,  // measure 44
0010
0100
1000
0001
1000
0010
0100
0001
1000
0100
0010
0100
1000
0001
0010
0000
,  // measure 45
0110
0000
0000
0000
,  // measure 46
0000
0000
0000
0000
,  // measure 47
0000
0000
0000
0000
,  // measure 48
0000
MMMM
0000
0000
0000
0000
0000
0000
;

//---------------dance-single - ----------------
#NOTES:
     dance-single:
     :
     Hard:
     8:
     0.485512,0.466981,0.142688,0.557782,0.207547,262.000000,251.000000,11.000000,43.000000,0.000000,0.000000,0.485512,0.466981,0.142688,0.557782,0.207547,262.000000,251.000000,11.000000,43.000000,0.000000,0.000000:
0000
0000
0000
0000
,
1010
0000
0000
1000
0000
0000
0001
0000
0000
0000
0010
0001
0010
0000
0100
0000
,
1000
0000
0000
0001
0000
0000
0200
0000
0000
0000
0000
0000
0310
0000
0000
0000
,
1000
0000
0000
0100
0000
0000
1000
0000
0000
0000
0001
0010
0001
0000
0100
0000
,
0010
0000
0000
0100
0000
0000
0002
0000
0000
0000
0000
0000
1003
0000
0000
0000
,
0100
0000
0000
0010
0000
0000
0110
0000
0000
0000
1000
0001
1000
0000
0010
0000
,
0100
0001
1000
0200
0000
0000
0310
0000
,
0011
0001
1000
0000
1001
0000
0010
0000
,
1000
0001
1000
0001
2000
0000
0000
0000
0000
0000
0000
0000
0000
0000
0000
0000
,
3000
0000
0000
0000
,
0200
0000
0000
0000
0000
0000
0310
0001
2000
0000
0000
0000
3001
0000
0000
0000
,
0010
0000
0000
0001
0200
0000
0000
0000
0301
0000
0000
0000
1000
0000
0000
0000
,
0200
0000
0000
0000
0000
0000
1300
0100
0020
0000
0000
0000
0031
0000
0000
0000
,
1000
0001
1000
0001
0200
0000
0000
0000
0000
0000
0000
0000
0310
0000
0010
0000
,
2000
0000
0000
0000
3100
0000
0010
0001
0200
0000
0000
0000
0301
0000
0000
0000
,
1000
0000
0001
1000
0020
0000
0000
0000
0000
0000
0000
0000
0130
0000
0000
0000
,
0002
0000
0000
0000
1003
0000
0100
1000
0020
0000
0000
0000
0130
0000
0000
0000
,
0002
0000
0000
0000
0000
0000
1003
0001
0200
0000
0000
0000
0300
0000
0000
0000
,
0000
0000
0000
0000
0000
0000
0001
1000
0020
0000
0000
0000
1030
0000
0000
0000
,
0100
0000
0000
1000
0002
0000
0000
0000
0103
0000
0000
0000
0010
0000
0000
0000
,
0100
0000
0000
0000
0001
0000
1000
0010
0200
0000
0000
0000
0310
0000
0000
0000
,
1000
0100
1000
0100
2000
0000
0000
0000
3001
0000
0000
0000
1000
0000
0000
0000
,
0100
0000
0000
0000
0010
0000
0001
0100
0020
0000
0000
0000
0130
0000
0000
0000
,
0001
0000
1000
0001
0020
0000
0000
0000
0130
0000
0000
0000
1000
0000
0000
0000
,
0002
0000
0000
0000
1003
0000
0010
0100
0020
0000
0000
0000
1030
0000
0000
0000
,
0002
0000
0000
0000
1003
0000
0100
1000
0200
0000
0000
0000
0310
0000
0000
0000
,
0001
0000
0000
0100
0000
0000
1000
0000
0000
0100
0000
0000
0001
0000
0100
0000
,
0001
0000
0000
1000
0000
0000
0010
0000
0000
0100
0000
0000
0001
0000
1000
0000
,
0100
0100
0010
0001
0100
0100
0001
0000
,
1000
0010
0100
0100
0010
1000
0100
0000
,
1000
1000
0001
1000
0100
0100
0010
0000
,
0001
0100
0010
0010
0100
0001
1000
0000
,
0001
0001
0010
0100
0010
0010
0100
0000
,
1000
0100
1000
1000
0001
1000
0100
0000
,
0010
0010
0001
0100
0001
0001
1000
0000
,
0100
1000
0001
0001
1000
0010
0100
0000
,
0002
0000
1003
0001
0200
0000
0310
1000
,
0200
0000
1300
0010
2000
0000
3001
0010
,
0200
0000
0310
0001
2000
0000
3001
0100
,
0020
0000
0130
0100
0002
0000
1003
0001
,
0200
0000
0310
1000
2000
0000
3100
1000
,
0020
0000
0130
0001
0200
0000
0310
1000
,
0002
0000
0013
0100
2000
0000
3001
0000
,
1002
0103
2001
3100
,
1100
0011
1010
0101
,
1001
0000
0000
0000
;

//---------------dance-single - ----------------
#NOTES:
     dance-single:
     :
     Medium:
     4:
     0.309467,0.408608,0.129717,0.272405,0.000000,167.000000,157.000000,10.000000,21.000000,0.000000,0.000000,0.309467,0.408608,0.129717,0.272405,0.000000,167.000000,157.000000,10.000000,21.000000,0.000000,0.000000:
0000
0000
0000
0000
,
1000
1000
0001
0001
,
1000
0010
0001
0010
,
1000
0100
0010
0100
,
0010
0001
0100
1000
,
0001
0001
1000
1000
,
0001
0010
1000
0010
,
0220
0330
2002
3003
,
0001
0010
0100
1000
,
0020
0000
0030
0000
,
2000
0000
3100
0010
,
0001
0100
1000
0100
,
0002
0000
0013
0100
,
1000
0010
0001
0010
,
2000
0000
3001
1000
,
0100
1000
0001
0100
,
0002
0000
0013
0100
,
0020
0000
0200
0330
,
0000
0000
2002
3003
,
0010
0001
0100
0100
,
2000
0000
3001
1000
,
0100
0010
0100
0010
,
0002
0000
0013
0100
,
1000
0010
0001
0100
,
1000
1000
0001
1000
,
0020
0000
0200
0330
,
0001
0100
0001
0001
,
1000
0100
1000
1000
,
0001
0010
0010
0100
,
0100
0010
0010
0001
,
0001
1000
1000
0100
,
0100
0010
0010
0100
,
0100
1000
1000
0001
,
0001
0100
0100
0010
,
0010
1000
1000
0001
,
0001
0010
0100
1000
,
1000
0100
0001
0001
,
0010
0100
0010
0010
,
0001
0100
1000
1000
,
0100
0010
0100
0100
,
0010
1000
0001
0001
,
0010
0100
0010
0010
,
0001
1000
0001
0001
,
0220
0330
2002
3003
,
1100
1100
0011
0011
,
1001
0000
0000
0000
;

//---------------dance-single - ----------------
#NOTES:
     dance-single:
     :
     Easy:
     2:
     0.166779,0.175118,0.038915,0.194575,0.000000,90.000000,87.000000,3.000000,15.000000,0.000000,0.000000,0.166779,0.175118,0.038915,0.194575,0.000000,90.000000,87.000000,3.000000,15.000000,0.000000,0.000000:
0000
0000
0000
0000
,
1000
0000
1000
0000
,
0001
0000
0001
0000
,
0100
0000
0100
0000
,
0010
0000
0010
0000
,
1000
0000
0100
0000
,
0001
0000
0010
0000
,
0100
0000
0010
0000
,
0110
0000
0000
0000
,
0000
0000
0000
0000
,
0002
0000
0013
0000
,
2000
0000
3100
0000
,
0020
0000
0130
0000
,
2000
0000
3001
0000
,
0020
0000
0130
0000
,
0002
0000
0013
0000
,
0200
0000
1300
0000
,
0002
0000
1003
0000
,
0000
0000
1001
0000
,
0001
0000
1000
0000
,
0010
0000
0100
0000
,
0010
0000
0100
0000
,
0001
0000
0010
0000
,
1000
0000
0100
0000
,
0010
0000
0100
0000
,
2000
0000
3001
0000
,
0002
0000
0103
0000
,
2000
0000
3100
0000
,
0000
0010
0000
0010
,
0000
0001
0000
0001
,
0000
1000
0000
1000
,
0000
0100
0000
0100
,
0000
0010
0000
0001
,
0000
0010
0000
1000
,
0000
0001
0000
0100
,
0000
1000
0000
0100
,
0100
0100
0000
0010
,
0000
0001
0000
1000
,
0000
0001
0000
0100
,
0000
0010
0000
1000
,
1000
1000
0000
0100
,
0000
0001
0000
0010
,
0000
0100
0000
0010
,
0002
0003
2000
3000
,
0020
0030
0200
0300
,
1001
0000
0000
0000
;

//---------------dance-single - ----------------
#NOTES:
     dance-single:
     :
     Beginner:
     1:
     0.068565,0.116745,0.012972,0.000000,0.000000,37.000000,36.000000,1.000000,0.000000,0.000000,0.000000,0.068565,0.116745,0.012972,0.000000,0.000000,37.000000,36.000000,1.000000,0.000000,0.000000,0.000000:
0000
0000
0000
0000
,
1000
0000
0000
0000
,
1000
0000
0000
0000
,
0100
0000
0000
0000
,
0100
0000
0000
0000
,
0010
0000
0000
0000
,
0010
0000
0000
0000
,
0001
0000
0000
0000
,
0001
0000
0000
0000
,
0000
0000
0000
0000
,
0000
0000
0100
0000
,
0000
0000
0000
0000
,
0000
0000
0010
0000
,
0000
0000
0000
0000
,
0000
0000
1000
0000
,
0000
0000
0000
0000
,
0000
0000
0001
0000
,
0000
0000
0000
0000
,
0000
0000
0010
0000
,
0000
0000
0000
0000
,
0000
0000
0100
0000
,
0000
0000
0000
0000
,
0000
0000
1000
0000
,
0000
0000
0000
0000
,
0000
0000
0001
0000
,
0000
0000
0000
0000
,
0100
0000
0000
0000
,
0100
0000
0000
0000
,
0010
0000
0000
0000
,
1000
0000
0000
0000
,
0001
0000
0000
0000
,
0010
0000
0000
0000
,
0100
0000
0000
0000
,
0001
0000
0000
0000
,
1000
0000
0000
0000
,
0100
0000
0000
0000
,
0010
0000
0000
0000
,
0001
0000
0000
0000
,
1000
0000
0000
0000
,
0100
0000
0000
0000
,
0010
0000
0000
0000
,
0001
0000
0000
0000
,
0010
0000
0000
0000
,
1000
0000
0000
0000
,
0001
0000
0000
0000
,
1001
0000
0000
0000
;
