#TITLE:Three Bar Logos;
#SUBTITLE:;
#ARTIST:OMORI;
#TITLETRANSLIT:;
#SUBTITLETRANSLIT:;
#ARTISTTRANSLIT:;
#GENRE:OMORI;
#CREDIT:[Ness];
#BANNER:OMORI - Three Bar Logos (for TapMania).png;
#BACKGROUND:OMORI - Three Bar Logos (for TapMania)-bg.png;
#LYRICSPATH:;
#CDTITLE:;
#MUSIC:OMORI - Three Bar Logos (for TapMania).mp3;
#OFFSET:-0.040000;
#SAMPLESTART:26.374521;
#SAMPLELENGTH:18.580645;
#LASTBEATHINT:173.001007;
#SELECTABLE:YES;
#BPMS:0.000000=155.000000
;
#STOPS:156.000000=0.387000,
156.500000=0.387000,
157.000000=0.774000
;
#BGCHANGES:;
#KEYSOUNDS:;
#ATTACKS:;

//---------------dance-single - ----------------
#NOTES:
     dance-single:
     :
     Challenge:
     9:
     0.580547,0.768184,0.596786,0.738878,0.035523,286.000000,244.000000,42.000000,52.000000,38.000000,0.000000,0.580547,0.768184,0.596786,0.738878,0.035523,286.000000,244.000000,42.000000,52.000000,38.000000,0.000000:
0000
0000
0000
1000
0010
0001
0100
0010
,
1000
0100
0010
0002
0000
1003
0010
0200
,
0000
1300
0100
0001
0000
0100
0110
0000
,
0001
0100
0010
2000
0000
3100
0010
0002
,
0000
0013
0100
2000
0000
3001
0101
0000
,
1001
0100
0010
2000
0000
3010
0100
0002
,
0000
0013
0001
2000
0000
3100
0110
0000
,
0100
0000
1000
0000
0001
0000
0200
0000
0010
0000
0310
0000
1000
0001
0010
0100
,
1000
0000
0000
1100
0010
0100
0101
0001
,
2001
0000
3001
0010
0000
11MM
0000
0201
,
0000
0310
1000
0100
0000
M11M
0000
0002
,
0010
0000
0000
0000
0020
0003
1000
0000
0000
0000
1000
0030
0000
0000
2200
0000
,
00MM
3300
0010
0202
M0M0
0303
1001
0100
,
0020
0000
1030
0100
0000
M1M1
0000
1200
,
0000
1300
0010
0100
0000
M1M1
0000
2000
,
0100
0000
0000
0000
0200
3000
0001
0000
0000
0000
0001
0300
0000
0000
0022
0000
,
MM00
0033
0001
2200
3300
0010
1000
0001
,
1002
0000
1003
0100
0000
MM11
0000
1020
,
0000
0130
0001
0010
0000
1MM1
0000
2000
,
0010
0000
0000
0000
0020
3000
0001
0000
0000
0000
0001
0000
0030
0000
2020
0000
,
0M0M
3030
0100
0022
MM00
0033
1001
0010
,
0200
0000
0301
1000
0000
11MM
0000
0021
,
0000
0031
0010
1000
0000
M11M
0000
0002
,
0100
0000
0000
0000
0200
0003
1000
0000
0000
0000
1000
0300
0000
0000
0100
0010
,
0100
1000
0010
0001
1000
0100
0001
0100
,
0020
1000
1030
2000
0100
3100
2200
0000
,
3300
0001
0010
1000
MMMM
1000
0010
0001
,
1000
0010
0001
1000
0100
0001
1000
0010
,
0200
0000
1000
0010
0000
0001
0310
0000
,
1000
0000
0001
0100
0000
0110
0000
1100
,
0000
0001
0100
0020
0000
0031
0010
2000
,
0000
3001
0100
0010
1000
0100
1000
0100
,
0001
0000
0100
0000
0001
0000
0100
0000
0010
0000
0001
0000
1000
0100
0010
0001
,
0200
0001
0001
0302
1000
1003
2002
0000
,
3003
0001
0010
1000
MMMM
1000
0010
0001
,
1000
0010
0001
1000
0100
0001
1000
0010
,
0200
0000
0301
0020
0000
0130
1000
0000
,
1100
0100
0010
0101
0100
0010
1100
0100
,
0010
0101
0100
0010
1100
0100
0101
0100
,
1100
0110
1001
1000
0010
0001
0100
0010
,
2002
0000
3003
0000
,
0000
0000
0000
0000
,
0000
0000
0000
0000
,
0000
MMMM
0000
0000
;

//---------------dance-single - ----------------
#NOTES:
     dance-single:
     :
     Hard:
     7:
     0.468903,0.489151,0.426276,0.809924,0.000000,231.000000,201.000000,30.000000,57.000000,0.000000,0.000000,0.468903,0.489151,0.426276,0.809924,0.000000,231.000000,201.000000,30.000000,57.000000,0.000000,0.000000:
0000
0000
0000
0000
,
1000
0100
0010
0002
0000
1003
0010
2000
,
0000
3001
0010
0200
0000
0000
1300
0000
,
0001
0100
0001
2000
0000
3100
0010
0002
,
0000
0013
0100
2000
0000
3001
0200
0000
,
0310
1000
0001
0020
0000
0130
1000
0002
,
0000
0103
0010
0200
0000
0000
0301
0000
,
1000
0100
1000
0002
0000
0013
0100
1000
,
1001
0000
0000
0110
0000
0000
1001
0000
,
0020
0000
0031
1000
0000
0100
0000
0201
,
0000
0310
1000
0100
0000
0110
0000
0002
,
0010
0003
0200
1000
0300
0010
0000
0202
,
0000
0303
0000
2002
0000
3003
1100
0000
,
0020
0000
1030
0001
0000
0100
0000
1200
,
0000
0310
0001
0100
0000
0110
0000
2000
,
0010
3000
0200
0001
0300
0010
0000
2200
,
0000
3300
0000
0020
0000
1030
0001
0100
,
2001
0000
3001
0010
0000
0100
0000
1020
,
0000
0130
0001
1000
0000
0110
0000
0002
,
0010
0003
0200
1000
0300
0010
0000
0202
,
0000
0303
0000
2002
0000
3003
1100
0000
,
0002
0000
1003
0010
0000
0100
0000
0021
,
0000
0130
1000
0001
0000
0110
0000
2000
,
0010
3000
0200
0001
0300
0010
0000
1100
,
0000
1000
0100
0010
0001
1000
0100
0010
,
0002
0000
1003
0200
0000
0310
0220
0000
,
0330
0001
0100
0001
0000
1000
0010
0100
,
0001
1000
0001
0010
0100
0010
0100
1000
,
0002
0000
0000
0010
0000
0000
1003
0000
,
1001
0000
0001
0100
0000
0110
0000
0101
,
0000
0001
1000
0020
0000
0130
0001
2000
,
0000
0000
0000
0000
3001
0100
0001
0000
,
1000
0010
1000
0000
0001
1000
0100
0000
,
0020
0000
0031
2000
0000
3010
2020
0000
,
3030
0100
0010
1000
0000
0001
0100
0010
,
1000
0001
1000
0010
0100
0010
0100
0001
,
2000
0000
0000
0010
0000
0000
3001
0000
,
1002
0000
1003
0020
0000
1030
0200
0000
,
0310
0002
0000
1003
0020
0000
0130
0000
,
0101
1100
1001
0000
0001
1000
0010
0100
,
2002
0000
3003
0000
;

//---------------dance-single - ----------------
#NOTES:
     dance-single:
     :
     Medium:
     6:
     0.294333,0.287736,0.028418,0.312602,0.000000,145.000000,143.000000,2.000000,22.000000,0.000000,0.000000,0.294333,0.287736,0.028418,0.312602,0.000000,145.000000,143.000000,2.000000,22.000000,0.000000,0.000000:
0000
0000
0000
0000
,
1001
0010
0001
0010
,
0100
1000
0001
0100
,
0010
1000
0001
0010
,
0100
0000
1000
0000
0000
0001
0100
0000
,
0010
1000
0001
0010
,
0100
1000
0001
0010
,
0001
0100
0010
1000
,
0100
0000
0000
0100
0000
0000
0100
0000
,
1000
0000
1000
0001
0000
0100
0000
0001
,
0000
0000
0001
1000
0000
0100
0000
0010
,
0100
0000
0100
1000
0000
0001
0000
0200
,
0000
0000
0300
0020
0000
0000
1030
0000
,
0100
0000
0010
0100
0000
1000
0000
0001
,
0000
0000
0010
0100
0000
0010
0000
0001
,
1000
0000
0001
1000
0000
0001
0000
0200
,
0000
0000
0000
0320
0000
0000
1030
0000
,
0100
0000
0010
0100
0000
0010
0000
0001
,
0000
0000
1000
0100
0000
0010
0000
0100
,
1000
0000
0001
0100
0000
0001
0000
2000
,
0000
0000
0000
3002
0000
0000
1003
0000
,
0001
0000
0010
0001
0000
0010
0000
0100
,
0000
0000
1000
0001
0000
1000
0000
0100
,
1000
0000
0100
0010
0000
0001
0000
2000
,
0000
3001
0100
0010
,
2000
0000
0000
3200
0000
0000
0320
0000
,
0000
0000
0000
0000
0030
0000
0001
1000
,
0100
0010
0100
0010
,
0001
0000
0000
1000
0000
0000
0010
0000
,
0100
0000
0001
0010
0000
0001
0000
0100
,
0000
0000
0010
1000
0000
0001
1000
0002
,
0000
0000
0023
0000
,
0032
0000
0103
0000
,
2000
0000
0000
3002
0000
0000
0203
0000
,
0000
0000
0000
0000
0300
0000
0010
1000
,
0100
0010
0001
1000
,
0100
0000
0000
0010
0000
0000
0001
0000
,
2000
0000
3000
0020
0000
0030
0002
0000
,
0003
0020
0000
0030
1000
0000
0001
0000
,
0100
0100
0100
0000
0000
0000
0000
0000
,
2002
0000
3003
0000
;

//---------------dance-single - ----------------
#NOTES:
     dance-single:
     :
     Easy:
     3:
     0.205018,0.230189,0.014209,0.198929,0.000000,101.000000,100.000000,1.000000,14.000000,0.000000,0.000000,0.205018,0.230189,0.014209,0.198929,0.000000,101.000000,100.000000,1.000000,14.000000,0.000000,0.000000:
// measure 0
0000
0000
0000
0000
,  // measure 1
1000
0100
0000
0001
,  // measure 2
0000
0100
0000
0010
,  // measure 3
0001
0010
0000
0001
,  // measure 4
0000
1000
0000
0010
,  // measure 5
0100
0010
0000
1000
,  // measure 6
0000
0100
0000
0010
,  // measure 7
0001
1000
0000
0001
,  // measure 8
1000
0000
0100
0100
,  // measure 9
0010
0001
0000
1000
,  // measure 10
0000
0001
0000
0100
,  // measure 11
0010
1000
0100
0010
,  // measure 12
0002
0000
2003
0000
,  // measure 13
3100
0010
0000
0001
,  // measure 14
0000
1000
0000
0010
,  // measure 15
0100
0001
0010
0100
,  // measure 16
2000
0000
3002
0000
,  // measure 17
1003
0100
0000
0010
,  // measure 18
0000
0001
0000
0100
,  // measure 19
0010
1000
0100
0010
,  // measure 20
0200
0000
2300
0000
,  // measure 21
3001
0010
0000
0100
,  // measure 22
0000
0010
0000
0001
,  // measure 23
1000
0001
0100
0001
,  // measure 24
2000
0000
3200
0000
,  // measure 25
0310
0000
0001
0000
,  // measure 26
0100
0000
0100
0010
,  // measure 27
1000
1000
0001
0001
,  // measure 28
0100
0000
0010
0000
,  // measure 29
1000
0000
0100
0000
,  // measure 30
0010
0000
0001
0000
,  // measure 31
0200
0000
0010
0000
,  // measure 32
0010
0000
0310
0000
,  // measure 33
1000
0000
0001
0000
,  // measure 34
0010
0000
0100
0100
,  // measure 35
1000
0001
0100
0001
,  // measure 36
1000
0000
0001
0000
,  // measure 37
0200
0000
0300
0200
,  // measure 38
0000
0300
0200
0300
,  // measure 39
0010
0000
0000
0000
,  // measure 40
2002
0000
3003
0000
;

//---------------dance-single - ----------------
#NOTES:
     dance-single:
     :
     Beginner:
     1:
     0.123823,0.143868,0.014209,0.028418,0.000000,61.000000,60.000000,1.000000,2.000000,0.000000,0.000000,0.123823,0.143868,0.014209,0.028418,0.000000,61.000000,60.000000,1.000000,2.000000,0.000000,0.000000:
// measure 0
0000
0000
0000
0000
,  // measure 1
0010
0000
0000
0000
,  // measure 2
0001
0000
0000
0000
,  // measure 3
0010
0000
0000
0000
,  // measure 4
1000
0000
0000
0000
,  // measure 5
0001
0000
0000
0000
,  // measure 6
1000
0000
0000
0000
,  // measure 7
0010
0000
0000
0000
,  // measure 8
0100
0000
0001
0000
,  // measure 9
0100
0000
0100
0000
,  // measure 10
0100
0000
0100
0000
,  // measure 11
0100
0000
0100
0000
,  // measure 12
0100
0000
0000
0000
,  // measure 13
0010
0000
0010
0000
,  // measure 14
0010
0000
0010
0000
,  // measure 15
0010
0000
0010
0000
,  // measure 16
0010
0000
0000
0000
,  // measure 17
1000
0000
1000
0000
,  // measure 18
1000
0000
1000
0000
,  // measure 19
1000
0000
1000
0000
,  // measure 20
1000
0000
0000
0000
,  // measure 21
0001
0000
0001
0000
,  // measure 22
0001
0000
0001
0000
,  // measure 23
0001
0000
0001
0000
,  // measure 24
0001
0000
0000
0000
,  // measure 25
0010
0000
0001
0000
,  // measure 26
0010
0000
0000
0000
,  // measure 27
1000
0000
0010
0000
,  // measure 28
1000
0000
0000
0000
,  // measure 29
0100
0000
1000
0000
,  // measure 30
0100
0000
0001
0000
,  // measure 31
0100
0000
0000
0000
,  // measure 32
0010
0000
0000
0000
,  // measure 33
1000
0000
0100
0000
,  // measure 34
1000
0000
0000
0000
,  // measure 35
0100
0000
0001
0000
,  // measure 36
0100
0000
0000
0000
,  // measure 37
0001
0000
0000
0001
,  // measure 38
0000
0000
0001
0000
,  // measure 39
1000
0000
0000
0000
,  // measure 40
2002
0000
3003
0000
;
