#TITLE:Tee-hee Time;
#SUBTITLE:;
#ARTIST:OMORI;
#TITLETRANSLIT:;
#SUBTITLETRANSLIT:;
#ARTISTTRANSLIT:;
#GENRE:OMORI;
#CREDIT:[Ness];
#BANNER:OMORI - Tee-hee Time (for TapMania).png;
#BACKGROUND:Tee-hee Time (for TapMania)-bg.png;
#LYRICSPATH:;
#CDTITLE:;
#MUSIC:Tee-hee Time (for TapMania).mp3;
#OFFSET:0.020000;
#SAMPLESTART:15.729512;
#SAMPLELENGTH:19.393940;
#LASTBEATHINT:359.000000;
#SELECTABLE:YES;
#BPMS:0.000000=198.000000
;
#STOPS:
;
#BGCHANGES:;
#KEYSOUNDS:;
#ATTACKS:;

//---------------dance-single - ----------------
#NOTES:
     dance-single:
     :
     Challenge:
     15:
     1.199917,1.336035,1.046544,0.911215,1.145785,931.000000,813.000000,116.000000,101.000000,35.000000,1.000000,1.199917,1.336035,1.046544,0.911215,1.145785,931.000000,813.000000,116.000000,101.000000,35.000000,1.000000:
// measure 0
0000
0000
0000
0000
,  // measure 1
0000
0000
0000
0000
,  // measure 2
0000
0000
0000
0000
,  // measure 3
0000
0000
0000
0000
,  // measure 4
0000
0000
0000
0000
,  // measure 5
0000
0000
0000
0000
,  // measure 6
0000
0000
0000
0000
,  // measure 7
0000
0000
0000
0000
,  // measure 8
0000
0000
0000
0000
,  // measure 9
0000
0000
0000
0000
,  // measure 10
0000
0000
0000
0000
,  // measure 11
0000
0000
0000
0000
,  // measure 12
0000
0000
0000
0000
0000
0000
1000
0010
0100
0000
0101
0000
0001
0010
0100
0000
,  // measure 13
1200
1300
0012
0103
0010
2001
3100
0102
,  // measure 14
0103
1000
0210
0301
0010
1020
0100
0031
,  // measure 15
2000
3100
1002
0010
1003
1100
0201
0010
,  // measure 16
0301
1000
0201
0302
1003
0011
1100
0210
,  // measure 17
1300
0100
0021
0001
0130
0102
0103
2100
,  // measure 18
3010
0100
2010
3002
1003
1001
0020
0032
,  // measure 19
2003
3010
0102
1003
0001
1100
0210
0301
,  // measure 20
1000
0010
0100
0001
0010
0001
1000
0010
0100
1000
0100
0010
2002
0000
3003
0000
,  // measure 21
0102
0000
0013
1200
0000
1300
0120
0130
,  // measure 22
1002
0203
0310
1010
0000
1002
0023
0031
,  // measure 23
0102
0000
0103
2100
0000
3100
0101
0020
,  // measure 24
0130
0002
2000
0003
3100
0000
1010
0000
0020
0000
0032
0000
2003
0000
3001
0000
,  // measure 25
1200
0300
2001
0100
3000
1002
0013
2100
,  // measure 26
3200
1300
0102
0100
0003
1020
0130
0010
,  // measure 27
0200
0000
0300
0000
2001
0000
0100
0000
3000
0000
0001
0000
0010
0000
0100
1000
,  // measure 28
0020
0000
0100
0000
0030
0000
0101
0000
0001
1000
0100
1000
0001
0010
0100
1000
,  // measure 29
0001
0000
0001
0000
1010
0000
0000
0001
1000
0001
0100
1000
0100
0001
1000
0001
,  // measure 30
0100
0000
0010
1000
0100
0000
0010
0001
0100
0000
0010
1000
0100
0000
0010
0001
,  // measure 31
1000
0000
0010
1000
0001
0000
0010
0100
1000
0000
0010
0100
0001
0000
0010
0100
,  // measure 32
1000
0000
0010
0100
0001
0000
0010
0100
0001
0000
0010
0100
0001
0000
1000
0010
,  // measure 33
0100
0000
1000
0010
0100
0000
1000
0100
0010
0000
0001
0100
0010
0000
1000
0001
,  // measure 34
0100
0000
0010
1000
0100
0000
0010
1000
0100
0000
0010
1000
0100
0000
0010
1000
,  // measure 35
0001
0000
0010
0001
0100
0000
0010
0001
0100
0000
0010
0001
0100
0000
0010
1000
,  // measure 36
0001
0000
1000
0100
0010
0000
0001
0100
0010
0000
1000
0100
0010
0000
0001
0100
,  // measure 37
0010
1000
0001
1000
0010
0100
0010
1000
0001
0010
0100
1000
1000
0100
0010
0001
,  // measure 38
1000
0001
0100
0001
1000
0001
0100
0001
1000
0001
0100
0001
1000
0001
0100
0001
,  // measure 39
1000
0010
1000
0001
1000
0010
1000
0001
1000
0010
1000
0001
1000
0010
1000
0001
,  // measure 40
1000
0100
0010
0100
1000
0100
0010
0100
1000
0100
0010
0100
1000
0100
0010
0100
,  // measure 41
1000
0001
0010
0100
0010
0001
1000
0001
0100
0010
1000
0001
0100
0010
1000
0010
,  // measure 42
0100
0001
0010
0100
1000
0010
0001
0010
1000
0100
0010
0100
1000
0010
0100
0010
,  // measure 43
1000
0100
0001
0100
1000
0010
0100
0010
1000
0001
0010
0100
0010
0001
0010
1000
,  // measure 44
0010
0100
1000
0100
0010
0001
0100
0001
1000
0010
0100
0010
1000
0100
0001
0100
,  // measure 45
1000
0010
1000
0100
1000
0001
0100
1000
0100
0001
1000
0001
0100
0010
1000
0100
,  // measure 46
0001
0000
0001
0110
1010
1000
0100
0010
,  // measure 47
1001
0000
0000
1000
0010
0000
0100
0000
0101
0000
0100
0010
1000
0001
0100
0000
,  // measure 48
0110
0000
1001
0000
0110
0000
1000
0000
0010
0000
0001
0000
0101
0000
1000
0100
,  // measure 49
0010
0000
0000
0010
0000
0000
0010
0001
0010
0001
0010
0001
0010
0000
0000
0010
0000
0000
1001
0000
0000
0110
0000
0000
,  // measure 50
1001
0000
0100
1001
0011
1000
0100
0001
,  // measure 51
1100
0000
0000
1010
0100
0000
0011
0000
1001
0000
0001
1000
0010
0100
0001
0000
,  // measure 52
0101
0000
1010
0000
0101
0000
0001
0000
0010
0000
1000
0000
1100
0000
0010
0001
,  // measure 53
0100
0000
0000
0000
0000
0000
0010
0000
0000
0000
0000
0000
1000
0000
0001
0000
1000
0000
0001
0000
1000
0000
0001
0000
1000
0000
0000
0000
0000
0000
0100
0000
0000
0010
0000
0000
0001
0000
0000
1000
0000
0000
0010
0000
0000
0000
0000
0000
,  // measure 54
0100
0001
0100
1000
0100
0000
0010
0000
1010
0000
0001
0000
0011
0000
1010
0000
,  // measure 55
1002
0103
0021
0130
2010
3100
0011
1010
,  // measure 56
0021
0130
2001
3100
1002
0103
1010
0101
,  // measure 57
0120
0130
2001
3100
0201
0301
1002
0103
,  // measure 58
2100
3100
0210
0310
1010
0101
0011
1100
,  // measure 59
1002
0103
1020
0130
2100
3100
0101
0110
,  // measure 60
0201
0310
1002
0013
0021
0130
1100
1010
,  // measure 61
2001
3100
0012
0103
2001
3100
1020
0130
,  // measure 62
1002
0000
0013
0000
2010
0000
3100
0000
0101
0000
0100
0001
0010
0100
1000
0001
,  // measure 63
1000
0000
0001
0100
0010
0000
1000
0010
0100
0000
1000
0100
0001
0000
0010
0001
,  // measure 64
1000
0000
0010
0100
0001
0000
0010
1000
0010
0000
0100
1000
0001
0000
1000
0100
,  // measure 65
0010
0000
0001
0100
0010
0000
1000
0001
0010
0000
0100
0001
0100
0000
1000
0100
,  // measure 66
0010
0000
0001
1000
0010
0000
0100
1000
0100
0000
0001
1000
0100
0000
0010
0001
,  // measure 67
0201
0000
0310
1200
0000
1300
0101
0010
,  // measure 68
2001
3100
0202
0303
,  // measure 69
1020
023M
2300
32M0
0302
2M03
3020
M032
,  // measure 70
2003
32M0
0302
M023
2030
3M02
0203
23M0
,  // measure 71
3020
023M
2300
3M02
0023
203M
3200
M310
,  // measure 72
1001
0000
0110
0000
1010
0000
0110
0000
1001
0000
0001
1000
0100
0010
0001
1000
,  // measure 73
0100
0000
M0MM
0100
M0MM
0000
M1MM
0000
M1MM
0000
M0MM
0000
M11M
0000
M00M
0000
,  // measure 74
0100
0010
0001
0010
0100
1000
0100
0010
0001
1000
0100
0010
0100
1000
0001
0010
,  // measure 75
0100
1000
0010
0100
0001
0100
0010
1000
0010
0100
0001
1000
0010
0100
0010
1000
,  // measure 76
0001
0100
0010
1000
0100
0001
0100
0010
0001
1000
0010
0100
1000
0100
0001
1000
,  // measure 77
0010
0100
0010
1000
0100
0001
0010
0100
1000
0010
0001
0100
0010
1000
0100
0010
,  // measure 78
1000
0100
0001
0100
0010
0001
1000
0100
0001
0010
0100
0001
0010
1000
0100
0010
,  // measure 79
1000
0100
0001
1000
0100
0001
0010
0100
0001
0010
1000
0100
0010
0001
0100
1000
,  // measure 80
0010
0001
1000
0100
0010
1000
0100
0001
0010
0100
0010
0001
1000
0100
0001
0010
,  // measure 81
0100
1000
0010
0001
0100
1000
0010
0100
1000
0001
0010
0100
1000
0010
0001
0100
,  // measure 82
1000
0100
0010
1000
0100
0001
1000
0010
0100
1000
0010
0001
0100
0010
0001
0100
,  // measure 83
1000
0001
0100
0010
1000
0100
0010
0100
1000
0010
0100
1000
0001
0010
0100
0001
,  // measure 84
0010
0100
0010
0100
0010
0100
0010
0100
1000
0001
1000
0001
1000
0001
1000
0001
,  // measure 85
0100
0010
0100
0010
1000
0001
1000
0001
0100
0000
0000
0000
1111
0000
0000
0000
,  // measure 86
0000
0000
0000
0000
,  // measure 87
0000
0000
0000
0000
,  // measure 88
0000
0000
0000
0000
,  // measure 89
0000
0000
0000
MMMM
;

//---------------dance-single - ----------------
#NOTES:
     dance-single:
     :
     Hard:
     12:
     0.980813,1.160446,0.478162,0.036088,0.820996,761.000000,708.000000,53.000000,4.000000,0.000000,0.000000,0.980813,1.160446,0.478162,0.036088,0.820996,761.000000,708.000000,53.000000,4.000000,0.000000,0.000000:
0000
0000
0000
0000
,
0000
0000
0000
0000
,
0000
0000
0000
0000
,
0000
0000
0000
0000
,
0000
0000
0000
0000
,
0000
0000
0000
0000
,
0000
0000
0000
0000
,
0000
0000
0000
0000
,
0000
0000
0000
0000
,
0000
0000
0000
0000
,
0000
0000
0000
0000
,
0000
0000
0000
0000
,
0000
0000
0000
0000
0000
0000
1000
0100
1000
0000
0001
0000
0100
0010
0100
0000
,
0101
0010
1001
0100
0000
0101
0000
1100
,
1001
0010
0110
1000
0000
0101
0000
0000
,
1001
0010
0011
0100
0000
0110
1001
0000
,
0101
1000
1100
0100
0000
0110
0110
1001
,
0000
0000
0101
1000
0000
1010
0100
0101
,
0001
1000
1100
0100
0000
1001
0000
0000
,
1010
0100
0110
0001
0000
1001
0110
0000
,
0001
0100
0001
0000
1000
0100
1000
0000
0010
0100
0001
1000
0010
0000
0100
0000
,
0101
0000
0010
1100
0000
1000
0110
0100
,
1001
0100
0010
1010
0000
1001
0010
0001
,
0101
0000
0100
1100
0000
0100
0101
0010
,
0100
0001
1000
0000
0100
0000
1010
0000
0010
0000
0001
0000
1000
0000
0001
0000
,
1100
0000
1001
0100
0000
1001
0010
1100
,
0100
1000
0101
0100
0000
1010
0100
0010
,
0100
0000
0000
0000
1001
0000
0100
0000
0000
0000
0001
0000
0010
0000
0100
1000
,
0010
0000
0100
0000
0000
0000
0101
0000
0001
1000
0001
1000
0001
1000
0001
1000
,
0100
0000
0100
0000
1001
0000
0000
0000
0010
0100
0010
0100
1000
0001
1000
0001
,
1000
0000
0100
1000
0100
0000
1000
0100
1000
0000
0100
1000
0100
0000
1000
0100
,
0010
0000
0001
0010
0001
0000
0010
0001
0010
0000
0001
0010
0001
0000
0010
0001
,
1000
0000
0001
1000
0001
0000
1000
0001
1000
0000
0001
1000
0001
0000
1000
0001
,
0100
0000
0001
0100
0001
0000
0100
0010
0100
0000
0010
0100
0010
0000
1000
0010
,
1000
0000
0001
1000
0001
0000
1000
0001
1000
0000
0001
1000
0001
0000
1000
0001
,
0010
0000
0001
0010
0001
0000
0010
0001
0010
0000
0001
0010
0001
0000
0010
0001
,
0100
0000
0010
0100
0010
0000
0100
0010
0100
0000
0010
0100
0010
0000
1000
0010
,
1000
0001
1000
0001
1000
0001
1000
0001
1000
0100
0010
0001
1000
0100
0010
0001
,
1000
0100
1000
0000
0001
0100
0001
0000
1000
0100
1000
0000
0001
0100
0001
0000
,
1000
0010
1000
0000
0001
0010
0001
0000
1000
0010
1000
0000
0001
0010
0001
0000
,
1000
0001
0100
0000
0001
1000
0100
0000
1000
0001
0100
0000
0001
1000
0100
0000
,
0010
0001
0100
0000
0010
1000
0100
0000
1000
0010
0100
0000
0001
0010
0100
0000
,
1000
0010
1000
0000
0001
1000
0001
0000
0010
0001
0010
0000
0001
1000
0001
0000
,
0100
0001
0100
0000
0010
0100
0010
0000
1000
0010
1000
0000
0001
1000
0001
0000
,
1000
0100
1000
0000
0100
0010
0100
0000
0010
0001
0010
0000
0001
1000
0001
0000
,
0100
0001
0100
0000
0010
0100
0010
0000
1000
0010
1000
0000
0001
1000
0001
0000
,
0100
0000
0001
0100
0010
1000
0010
0100
,
0001
0000
0000
0001
0010
0000
0000
0010
1000
0000
0000
1000
0010
0000
0000
0010
,
0001
0000
1000
0100
0010
0001
0100
0010
,
1000
0000
0000
0100
0001
0000
0000
1000
0010
0000
0000
0001
0100
0000
0000
0000
,
0101
0000
0001
0010
1000
0001
0100
1000
,
0100
0000
0000
0100
0010
0000
0000
0010
0001
0000
0000
0001
1000
0000
0000
1000
,
0010
0000
0001
0010
1000
0001
0100
1000
,
0100
0000
0000
0001
0010
0000
0000
1000
0100
0000
0000
0010
0001
0000
0000
0000
,
1000
0001
1000
0001
1000
0000
0100
0000
0010
0000
0001
0000
0010
0000
1000
0000
,
0010
0100
1000
0100
0001
0100
0010
0001
,
1000
0001
0100
1000
0100
0010
1000
0010
,
0100
1000
0100
0001
0010
0001
0100
1000
,
0100
0010
0100
0001
1000
0010
0100
0001
,
0010
0001
0010
0100
0010
1000
0001
1000
,
0010
0100
0010
0001
0010
1000
0010
0001
,
1000
0001
0010
0100
1000
0001
0100
0010
,
0100
1000
0100
0010
0100
1000
0001
1000
,
0100
0000
0001
0100
0001
0000
1000
0000
0010
0000
1000
0100
1000
0000
0001
0000
,
0010
0000
0100
1000
0001
0000
0100
0000
0010
0000
1000
0001
0010
0000
0100
0000
,
1000
0000
0100
0010
0001
0000
1000
0000
0010
0000
0100
0010
1000
0000
0001
0000
,
0100
0000
1000
0100
0010
0000
0100
0000
0001
0000
1000
0010
0100
0000
0001
0000
,
0101
0000
0010
1100
0000
1000
0101
0000
,
2002
3003
0220
0330
,
1010
1000
0010
1000
0001
1000
0001
1000
,
0001
0010
0001
0010
0100
1000
0100
1000
,
0001
0100
0001
0100
0010
1000
0010
1000
,
0001
0000
1000
0000
0001
0000
1000
0000
0010
0100
0010
0100
0010
0100
0010
0100
,
0010
0000
0000
0010
0000
0000
0010
0000
0010
0000
0000
0000
0110
0000
0000
0000
,
0001
0100
0001
0100
0001
0100
0001
0000
1000
0100
1000
0100
1000
0100
1000
0000
,
0001
0010
0001
0010
0001
0010
0001
0000
1000
0010
1000
0010
1000
0010
1000
0000
,
0001
1000
0001
1000
0001
1000
0001
0000
0100
0010
0100
0010
0100
0010
0100
0000
,
0010
1000
0010
1000
0010
1000
0010
0000
1000
0001
1000
0001
1000
0001
1000
0000
,
0001
0010
0001
1000
0001
0010
0001
0000
1000
0100
1000
0001
1000
0100
1000
0000
,
0001
0100
0001
1000
0001
0100
0001
0000
0100
0010
0100
0001
0100
0010
0100
0000
,
0010
0100
0010
1000
0010
0100
0010
0000
1000
0100
1000
0010
1000
0100
1000
0000
,
0001
0010
0001
0100
0001
0010
0001
0000
0100
0010
0100
1000
0100
0010
0100
0000
,
0010
0100
0010
0001
0010
0100
0010
0000
1000
0001
1000
0100
1000
0001
1000
0000
,
0001
0100
0001
1000
0001
0100
0001
0000
1000
0100
0010
0100
1000
0100
0010
0000
,
0001
0010
0100
0010
0001
0010
0100
0000
1000
0001
1000
0001
0100
0010
1000
0000
,
0001
1000
0001
1000
0010
0100
0001
0000
1000
0000
0000
0000
1001
0000
0000
0000
;

//---------------dance-single - ----------------
#NOTES:
     dance-single:
     :
     Medium:
     9:
     0.648290,0.657586,0.297724,0.180439,0.004511,503.000000,470.000000,33.000000,20.000000,0.000000,0.000000,0.648290,0.657586,0.297724,0.180439,0.004511,503.000000,470.000000,33.000000,20.000000,0.000000,0.000000:
0000
0000
0000
0000
,
0000
0000
0000
0000
,
0000
0000
0000
0000
,
0000
0000
0000
0000
,
0000
0000
0000
0000
,
0000
0000
0000
0000
,
0000
0000
0000
0000
,
0000
0000
0000
0000
,
0000
0000
0000
0000
,
0000
0000
0000
0000
,
0000
0000
0000
0000
,
0000
0000
0000
0000
,
0000
0000
0000
1000
1000
0000
0001
0001
,
0100
0010
1000
0001
0000
1001
0000
0010
,
0100
0010
1000
0001
0000
1001
0000
0010
,
0100
0010
0001
1000
0000
0010
0010
0100
,
0001
1000
0100
0010
0000
0100
0100
1000
,
0001
0100
0010
1000
0000
1010
0000
1001
,
0010
0001
0100
0010
0000
0110
0000
1000
,
0100
1000
0001
0100
0000
0001
0001
0010
,
0100
1000
0010
0100
0000
0010
0010
0000
,
1001
0000
1000
0100
0000
1000
0001
0000
,
0010
0000
0001
0100
0000
0010
1000
0000
,
0010
0000
0100
0001
0000
0010
0100
0000
,
0010
0001
1000
0020
0000
0000
0130
0000
,
0010
0000
1000
0100
0000
0010
0001
0000
,
1000
0000
0001
0010
0000
0100
0010
0000
,
0001
0000
0100
0010
0000
1000
0100
0000
,
1000
0001
0100
0010
1000
0000
0001
0000
,
1001
0000
0010
0000
0100
0010
0100
0000
,
0001
0010
0001
0010
0001
0010
0001
0010
,
1000
0010
1000
0010
1000
0010
1000
0010
,
0001
0010
0001
0010
0001
0010
0001
0010
,
0100
1000
0100
1000
0001
0100
0001
0100
,
0010
1000
0010
1000
0010
1000
0010
1000
,
0001
0010
0001
0010
0001
0010
0001
0010
,
0100
1000
0100
1000
0100
1000
0100
1000
,
0001
0100
0010
1000
0001
0100
0001
0100
,
0010
1000
0001
0100
0010
1000
0001
0000
,
0010
0001
1000
0100
0010
0001
1000
0000
,
0100
0010
0001
1000
0010
0100
0001
0000
,
1000
0100
1000
0001
0010
0100
1000
0000
,
0001
0010
0001
0100
0010
0100
0010
0000
,
1000
0100
0010
0001
0100
0010
0100
0000
,
0010
1000
0001
0100
0010
1000
0001
0000
,
0010
0001
0100
0010
1000
0100
1000
0001
,
0010
0000
0100
1000
0010
1000
0100
0010
,
0002
0203
0320
2030
,
3000
0000
0001
0010
0001
0100
0010
1000
,
0200
0320
0230
2300
,
3000
0000
0100
0010
0001
1000
0010
0100
,
0002
0023
2030
3020
,
0030
0000
0001
0100
0010
1000
0100
0010
,
0002
2003
3020
0130
,
0110
0000
1001
0000
0010
0001
0100
0000
,
0101
0000
1010
0000
1100
0000
0010
0001
,
1000
0000
1001
0000
0110
0000
1000
0100
,
0010
0011
0110
1100
,
1001
0000
0101
0000
0010
1000
0100
0010
,
0001
0000
0011
0000
0110
0000
1000
0010
,
1000
0000
1010
0000
0110
0000
1000
0100
,
0010
0011
0101
0110
,
1100
0000
0101
0000
0010
1000
0100
0010
,
0001
0000
1000
0010
1000
0100
0010
0000
,
0001
0010
0001
0100
0010
1000
0100
0000
,
1000
0000
0001
0100
0010
0100
0001
0000
,
1000
0010
0100
0010
1000
0100
1000
0000
,
0001
0000
0000
1001
0000
0000
0010
0000
,
2002
3003
0220
0330
,
1000
0100
1000
0100
0001
0100
0001
0100
,
1000
0100
1000
0100
0001
0100
0001
0100
,
1000
0100
1000
0100
0001
0100
0001
0100
,
0010
0001
0010
0001
1000
0010
1000
0010
,
0100
0000
0000
0100
0000
0000
0100
0000
0100
0000
0000
0000
0110
0000
0000
0000
,
0001
0100
0010
1000
0001
0100
0010
1000
,
0001
0010
0100
1000
0001
0010
0100
1000
,
0010
0100
0001
1000
0010
0100
0001
1000
,
0100
0010
0001
1000
0100
0010
0001
1000
,
0010
0100
0010
1000
0001
0100
0010
0100
,
0001
1000
0100
0010
0100
1000
0001
0010
,
0100
0010
0001
1000
0010
0100
0010
1000
,
0001
0100
0010
1000
0001
0100
0010
1000
,
0100
0001
0100
1000
0010
0001
0010
1000
,
0100
0001
0100
1000
0010
0001
0010
1000
,
0100
0001
0010
1000
0100
0001
0010
1000
,
0100
0001
0010
1000
0100
0000
1001
0000
;

//---------------dance-single - ----------------
#NOTES:
     dance-single:
     :
     Easy:
     6:
     0.485895,0.541541,0.198482,0.225548,0.004511,377.000000,355.000000,22.000000,25.000000,0.000000,0.000000,0.485895,0.541541,0.198482,0.225548,0.004511,377.000000,355.000000,22.000000,25.000000,0.000000,0.000000:
0000
0000
0000
0000
,
0000
0000
0000
0000
,
0000
0000
0000
0000
,
0000
0000
0000
0000
,
0000
0000
0000
0000
,
0000
0000
0000
0000
,
0000
0000
0000
0000
,
0000
0000
0000
0000
,
0000
0000
0000
0000
,
0000
0000
0000
0000
,
0000
0000
0000
0000
,
0000
0000
0000
0000
,
0000
0000
0000
0001
0000
0000
1000
0000
,
0010
0000
0100
0000
0000
0001
0000
1000
,
0100
0000
0010
0000
0000
1001
0000
0000
,
0100
0000
0010
0000
0000
1000
1000
0000
,
0001
0000
0010
0000
0000
0100
0100
0100
,
0000
0000
1000
0000
0000
0001
0000
0100
,
0010
0000
1000
0000
0000
0110
0000
0000
,
0001
0000
0010
0000
0000
0100
0100
0000
,
1000
0100
1000
0000
0001
0100
0001
0000
,
0020
0000
0000
0230
0000
0000
0310
0000
,
0002
0000
0000
2003
0000
0000
3010
0000
,
2000
0000
0000
3200
0000
0000
0310
0000
,
0002
0000
0000
0203
0000
0000
0310
0000
,
2000
0000
0000
3020
0000
0000
0130
0000
,
0002
0000
0000
0023
0000
0000
0130
0000
,
2000
0000
0000
3002
0000
0000
0013
0000
,
0200
0000
0000
0320
0000
0000
0000
0000
,
0031
0000
1000
0000
0010
0100
0010
0000
,
1000
0010
1000
0000
0010
1000
0010
0000
,
0100
0001
0100
0000
0001
0100
0001
0000
,
0010
0001
0010
0000
0001
0010
0001
0000
,
1000
0100
1000
0000
0001
0010
0100
0000
,
0010
0100
0010
0000
0100
0010
0100
0000
,
1000
0100
1000
0000
0100
1000
0100
0000
,
1000
0001
1000
0000
0001
1000
0001
0000
,
0100
0010
0100
0000
0001
1000
0010
0000
,
0100
0001
0100
0000
0010
1000
0100
0000
,
1000
0100
1000
0000
0001
0010
0100
0000
,
0010
0001
0010
0000
0001
0100
0010
0000
,
1000
0001
1000
0000
0010
0100
0001
0000
,
1000
0010
1000
0000
0100
0010
0100
0000
,
1000
0001
1000
0000
0010
0001
0010
0000
,
0100
0001
0100
0000
1000
0001
1000
0000
,
0010
1000
0010
0000
0100
1000
0100
0000
,
1001
0000
0010
0001
0100
0000
0100
0000
,
0010
1000
0200
0310
,
0000
0000
0001
1000
0010
0000
0100
0000
,
0001
0010
0200
1300
,
0000
0000
0001
0100
0001
0000
1000
0000
,
0010
0100
0002
0013
,
0000
0000
0001
1000
0001
0000
0100
0000
,
0010
1000
0200
0310
,
0002
1003
0110
1001
,
1000
0101
0010
1100
,
0001
1010
0100
0011
,
1000
0110
0001
0110
,
1000
0000
0001
0000
0100
0010
0100
0000
,
0001
0011
1000
1100
,
0010
0110
1000
1001
,
0010
0001
0100
0000
0010
1000
0100
0000
,
1000
0001
0100
0000
0010
1000
0100
0000
,
1000
0000
0001
0000
0010
0001
0010
0000
,
0100
0000
1000
0000
0010
0100
0010
0000
,
1000
0000
0001
0000
1000
0100
0010
0000
,
0001
0000
1000
0000
0010
0100
0010
0000
,
1001
0000
0000
0110
0000
0000
1001
0000
,
0220
0330
2002
3003
,
0010
1000
0100
0000
1000
0000
0100
0000
,
0010
0001
0100
0000
0001
0000
1000
0000
,
0010
0001
0010
0000
1000
0010
1000
0000
,
0100
0001
0100
0000
1000
0100
1000
0000
,
0010
0000
0000
0010
0000
0000
0010
0000
0010
0000
0000
0000
0110
0000
0000
0000
,
0001
0100
0010
0000
0010
0100
0001
0000
,
1000
0010
0100
0000
0100
0010
1000
0000
,
0100
0010
0001
0000
0001
0010
0100
0000
,
0010
0100
1000
0000
1000
0100
0010
0000
,
0001
1000
0010
0000
0010
1000
0001
0000
,
1000
0001
0010
0000
0010
0001
1000
0000
,
0100
1000
0001
0000
0001
1000
0100
0000
,
0010
0001
0100
0000
0100
0001
0010
0000
,
1000
0010
0001
0000
0001
0010
1000
0000
,
1000
0100
0001
0000
0001
0100
1000
0000
,
1000
0010
0001
0000
0010
0001
0100
0000
,
0001
0100
1000
0000
0100
0000
1001
0000
;

//---------------dance-single - ----------------
#NOTES:
     dance-single:
     :
     Beginner:
     3:
     0.329945,0.696268,0.442075,0.000000,0.000000,256.000000,207.000000,49.000000,0.000000,0.000000,0.000000,0.329945,0.696268,0.442075,0.000000,0.000000,256.000000,207.000000,49.000000,0.000000,0.000000,0.000000:
0000
0000
0000
0000
,
0000
0000
0000
0000
,
0000
0000
0000
0000
,
0000
0000
0000
0000
,
0000
0000
0000
0000
,
0000
0000
0000
0000
,
0000
0000
0000
0000
,
0000
0000
0000
0000
,
0000
0000
0000
0000
,
0000
0000
0000
0000
,
0000
0000
0000
0000
,
0000
0000
0000
0000
,
0000
0000
0000
0000
,
0001
0001
0000
0010
,
0010
0010
0000
0100
,
0100
0100
0000
1000
,
1000
1000
0000
0010
,
0010
0010
0000
0001
,
0001
0001
0000
0010
,
0010
0010
0000
1000
,
1000
1000
0000
0100
,
0100
0000
0010
0000
,
0001
0000
1000
0000
,
0010
0000
0100
0000
,
0001
0000
0010
0000
,
1000
0000
0100
0000
,
0010
0000
0001
0000
,
0100
0000
0010
0000
,
1000
0000
0001
0000
,
0100
0100
0100
0000
,
0010
0010
0010
0010
,
0010
0010
0010
0010
,
0010
0010
0010
0010
,
0010
0010
0010
0000
,
0100
0100
0100
0100
,
0100
0100
0100
0100
,
0100
0100
0100
0100
,
0100
0000
0000
0000
,
0001
0001
0001
0001
,
0001
0001
0001
0001
,
0001
0001
0001
0001
,
0001
0001
0001
0000
,
1000
1000
1000
1000
,
1000
1000
1000
1000
,
1000
1000
1000
1000
,
1000
1000
1000
0000
,
0010
0000
1001
0000
,
0100
0000
0010
0000
,
0100
0000
1001
0000
,
0010
0000
0001
0000
,
0010
0000
1001
0000
,
0100
0000
1000
0000
,
0010
0000
1001
0000
,
0010
0000
0100
0000
,
0001
0000
1000
0000
,
1001
1001
1001
1001
,
1001
1001
1001
1001
,
1001
1001
1001
1001
,
1001
0000
0010
0000
,
0110
0110
0110
0110
,
0110
0110
0110
0110
,
0110
0110
0110
0110
,
0110
0000
0100
0000
,
1001
0000
0010
0000
,
0001
0001
0001
0000
,
0010
0000
0100
0000
,
1000
1000
1000
0000
,
1001
0000
0110
0000
,
1001
0000
0110
0000
,
1001
0000
0010
0000
,
0001
0000
0010
0000
,
1000
0000
0001
0000
,
0010
0000
0100
0000
,
1000
0000
0000
0000
,
0001
0001
0001
0000
,
1000
1000
1000
0000
,
0010
0010
0010
0000
,
0100
0100
0100
0000
,
0001
0001
0001
0000
,
0010
0010
0010
0000
,
1000
1000
1000
0000
,
0100
0100
0100
0000
,
0110
0110
0110
0000
,
1001
1001
1001
0000
,
0110
0110
0110
0000
,
1001
1001
1001
1001
;
