#TITLE:Squall;
#SUBTITLE:;
#ARTIST:OMORI;
#TITLETRANSLIT:;
#SUBTITLETRANSLIT:;
#ARTISTTRANSLIT:;
#GENRE:OMORI;
#CREDIT:[Ness];
#BANNER:OMORI - Squall (for TapMania).png;
#BACKGROUND:OMORI - Squall (for TapMania)-bg.png;
#LYRICSPATH:;
#CDTITLE:;
#MUSIC:OMORI - Squall (for TapMania).mp3;
#OFFSET:-0.040000;
#SAMPLESTART:5.465909;
#SAMPLELENGTH:16.363636;
#SELECTABLE:YES;
#BPMS:0.000000=176.000000
;
#STOPS:
;
#BGCHANGES:;
#KEYSOUNDS:;
#ATTACKS:;

//---------------dance-single - ----------------
#NOTES:
     dance-single:
     :
     Challenge:
     9:
     0.699021,0.819825,0.510397,0.310676,0.277389,441.000000,395.000000,46.000000,28.000000,87.000000,0.000000,0.699021,0.819825,0.510397,0.310676,0.277389,441.000000,395.000000,46.000000,28.000000,87.000000,0.000000:
0000
0000
0000
0000
,
0000
0000
0000
0000
,
0000
0000
0000
0000
,
0000
0000
0000
0000
,
0100
1000
0100
0002
0000
0103
1000
0100
,
0010
0001
0010
2000
0000
3010
0001
0100
,
1000
0100
0001
0200
0000
0310
1000
0010
,
0001
0010
1000
0200
0000
0310
0001
0100
,
1000
0100
0001
0020
0000
0031
0100
1000
,
0100
0001
0010
2000
0000
3010
0001
0010
,
0100
1000
0100
0002
0000
0103
1000
0010
,
0001
0010
1000
0200
0000
0310
0001
0010
,
0100
0000
1000
0000
0100
0000
0001
0000
MMMM
0000
0110
0000
0000
0000
0100
1000
,
0100
1000
0001
0100
MMMM
0101
0000
0010
,
1000
0000
0001
0000
0100
0000
0110
0000
MMMM
0000
1001
0000
0000
0000
0001
0010
,
0100
1000
0010
0001
MMMM
0110
0000
1000
,
0100
0010
0001
0101
MMMM
1001
0000
1100
,
0100
1000
0001
0101
MMMM
0011
0000
1010
,
0010
0000
0100
0000
0001
0000
1001
0000
MMMM
0000
1100
0000
0000
0000
0100
1000
,
0010
0000
0100
0000
0001
0000
1000
0000
0100
0000
0100
0010
0001
1000
0010
0100
,
0001
0000
1000
0000
0100
0000
0110
0000
1000
0000
0100
0000
0010
0000
0001
1000
,
0001
0100
0010
1010
0000
1000
0100
0001
,
1000
0000
0010
0000
0001
0000
0100
0000
0010
0000
1000
0000
0100
0000
0010
0001
,
0100
1000
0100
0101
0000
0001
0100
1000
,
0001
0000
0010
0000
1000
0000
1010
0000
MMMM
0000
1001
0000
0000
0000
0100
0001
,
0010
0100
1000
0110
MMMM
1001
0000
0100
,
0010
0000
1000
0000
0001
0000
0010
0000
0100
0000
1100
0000
1000
0100
0010
0001
,
0100
0010
1000
1001
0001
0010
0100
0010
,
0001
0000
0100
0000
0010
0000
0101
0000
0000
0000
1100
0000
0000
0000
0010
0001
,
0100
1000
0100
0001
0000
1000
0010
0001
,
1000
0000
0100
0000
0001
0000
0010
0000
0000
0000
0110
0000
0000
0000
0001
0100
,
0010
0100
1000
0100
0000
0010
1000
0100
,
0010
0000
0001
0000
1000
0000
0001
0000
0000
0000
0010
0000
0100
0000
1000
0010
,
0100
0001
0010
0100
0000
0010
0001
0100
,
0010
0000
1000
0000
0100
0000
0010
0000
0001
0000
1001
0000
0000
0000
1000
0100
,
1000
0010
0100
0101
0000
1010
0000
1000
,
0100
0000
0010
0000
0001
0000
1000
0000
0100
0000
0010
0000
0001
0000
0100
0010
,
0100
0001
1000
0200
0000
0310
0001
1000
,
0010
0000
0100
0000
0001
0000
1000
0000
0100
0000
0010
0000
0001
0000
0010
0100
,
1000
0010
1000
1200
0000
1300
0100
0010
,
0001
0000
0100
0000
0010
0000
1001
0000
MMMM
0000
0110
0000
0000
0000
1000
0001
,
0100
0001
0010
0011
MMMM
1001
0000
0010
,
0100
0000
1000
0000
0010
0000
0110
0000
0001
0000
1000
0000
0010
0000
0100
0001
,
1000
0001
0100
1001
0000
0110
0000
1001
,
0010
0000
0000
1000
0M00
0000
0001
0000
0000
0200
00M0
0000
0000
0000
M000
0000
0000
0000
100M
0000
0000
0000
00M0
0000
,
0001
0000
M000
0000
0000
0000
000M
0000
0000
1000
00M0
0000
0300
0000
000M
0100
0000
0000
0010
0000
0000
1000
0000
0000
,
00M1
0000
0000
0000
0000
0000
0000
0000
0M00
0000
0000
0000
0001
0000
0000
0000
M000
0000
0020
0000
0000
0000
0000
0000
0M00
0000
0000
0000
0000
0000
0000
0000
000M
0000
0000
0000
0130
0000
0000
0000
0000
0000
1000
0000
0000
0001
0000
0000
,
1M00
0000
0000
0000
00M0
0000
0000
0000
000M
0100
0000
0000
M000
0000
0000
0010
0000
0000
0M01
0000
0000
1000
0000
0000
,
0010
0000
M000
0001
0000
0000
10M0
0000
0000
0200
000M
0000
0000
0000
M000
0000
0000
0000
10M0
0000
0000
0000
0000
0000
,
M001
0000
0000
0000
000M
0000
0000
0000
M000
0010
0000
0000
0000
0000
00M0
0301
0000
0000
0100
0000
0000
0010
000M
0000
,
1000
0000
0000
0000
0M00
0000
0000
0000
0000
0000
0000
0000
010M
0000
0000
0000
0000
0000
2000
0000
00M0
0000
0000
0000
0000
0000
0000
0000
0M00
0000
0001
0000
0000
0000
0000
0000
3100
0000
0000
0000
000M
0000
1000
0000
0000
0100
0000
0000
,
10M0
0000
0000
0001
0000
0000
M010
0000
0000
0100
000M
0000
0000
0000
0000
0010
M000
0000
0001
0000
0M00
0001
0000
0000
,
1001
0000
0010
0200
0000
0301
0100
0010
,
1000
0010
0100
0002
0000
1003
0010
0001
,
0010
0000
1000
0200
0000
0301
0100
1000
,
0010
0000
0001
0010
1000
0000
0200
0000
0000
0000
0310
0000
1000
0000
0010
0000
,
0001
0000
0010
2200
0000
3300
1001
0000
,
1010
0000
0010
0202
0000
0303
1001
0000
,
2020
0000
3030
2002
3003
2200
3300
0010
,
0001
1000
0010
0100
0001
0010
1000
0010
,
0001
0000
0100
1000
0100
0000
0001
0000
0100
1000
0100
0000
0001
0000
1000
0000
,
0100
0000
0000
0000
,
0000
0000
0000
0000
,
0000
0000
0000
0000
,
0000
MMMM
0000
0000
;

//---------------dance-single - ----------------
#NOTES:
     dance-single:
     :
     Hard:
     8:
     0.524662,0.642989,0.133147,0.343963,0.016643,331.000000,319.000000,12.000000,31.000000,0.000000,0.000000,0.524662,0.642989,0.133147,0.343963,0.016643,331.000000,319.000000,12.000000,31.000000,0.000000,0.000000:
0000
0000
0000
0000
,
0000
0000
0000
0000
,
0000
0000
0000
0000
,
0000
0000
0000
0000
,
1000
0100
1000
0002
0000
1003
0100
0000
,
0010
0001
0010
0200
0000
0310
0001
0000
,
1000
0001
0100
0002
0000
1003
0100
0000
,
1000
0001
0100
0020
0000
1030
0100
0010
,
0001
0010
0100
2000
0000
3001
0010
0100
,
1000
0100
0010
0002
0000
1003
0010
0100
,
0001
0100
0010
2000
0000
3001
0100
0010
,
1000
0010
0100
0002
0000
1003
0000
0000
,
0010
0100
0010
1000
0000
0001
0000
0010
,
0100
0010
0001
1000
0000
0001
0000
0010
,
0100
1000
0100
0010
0000
0001
0000
1000
,
0001
0100
0010
1000
0000
0010
0000
1000
,
0100
0010
0100
1000
0000
0001
0000
0010
,
0100
0010
0001
0100
0000
0010
0000
1000
,
0001
0100
0010
1000
0000
0010
0000
0100
,
0001
0010
0100
1000
0001
0100
0010
1000
,
1001
0001
0010
0100
,
1000
0000
0010
0200
0000
0301
0100
0002
,
0000
1003
0010
1000
,
0100
0000
0010
0100
0000
1000
0001
0100
,
0010
1000
0020
0100
0000
0130
0000
0010
,
1000
0001
2000
0010
0000
3010
0000
0000
,
0100
0001
0100
0001
1000
0100
1000
0100
,
0010
0001
0010
0001
1000
0010
1000
0010
,
0100
0001
1000
0020
0000
1030
0000
0200
,
0000
0310
0001
2000
0000
3100
0010
0100
,
0000
0000
0001
0010
0000
0001
0000
2000
,
0000
3000
0010
0100
0000
0010
1000
0100
,
0010
0001
1000
0020
0000
1030
0100
0020
,
0000
0031
1000
0002
0000
1003
0010
0100
,
0000
0000
0110
0000
1000
0100
0000
1001
,
0000
0010
0001
0100
0000
0101
0000
0000
,
1100
0100
0010
0001
,
1000
0000
0010
0200
0000
0301
0100
0001
,
0000
1000
0010
1000
,
0100
0000
0010
0002
0000
1003
0010
0100
,
0001
1000
0001
0010
0000
0100
0000
0100
,
1000
0001
1000
0010
0000
0100
0000
0000
,
0001
0000
0010
0000
0001
0000
0010
0000
0100
0000
1000
0000
0100
0000
0010
0001
,
0010
0100
1000
0001
0000
1001
0000
1000
,
0010
0100
0001
0200
0000
0000
0010
0000
,
0001
0000
0000
0010
0000
0000
1000
0000
,
0001
0000
0000
0010
0000
0000
1000
0000
,
0010
0000
0000
0001
0000
0000
0310
0000
,
1000
0100
0010
0200
0000
0000
1000
0000
,
0010
0000
0000
0001
0000
0000
1000
0000
,
0010
0000
0000
1000
0000
0000
0010
0000
,
0001
0000
0000
1000
0000
0000
0310
0000
,
0110
0000
0001
0200
0000
0301
1000
0100
,
0010
0100
1000
0002
0000
1003
0100
0010
,
0100
0000
1000
0002
0000
0103
0010
1000
,
0010
0100
0001
2000
0000
3010
0100
0010
,
2000
0000
3001
0010
0000
0000
1010
0000
,
0200
0000
1300
0001
0000
0000
1001
0000
,
0022
0000
0033
1001
0000
1100
0000
0010
,
0001
1000
0100
0010
0001
0100
0010
1000
,
0001
0000
0100
0010
0100
0000
0001
0000
0100
0010
0100
0000
0001
0000
1000
0000
,
0100
0000
0000
0000
;

//---------------dance-single - ----------------
#NOTES:
     dance-single:
     :
     Medium:
     6:
     0.351888,0.439940,0.188625,0.321772,0.000000,222.000000,205.000000,17.000000,29.000000,0.000000,0.000000,0.351888,0.439940,0.188625,0.321772,0.000000,222.000000,205.000000,17.000000,29.000000,0.000000,0.000000:
0000
0000
0000
0000
,
0000
0000
0000
0000
,
0000
0000
0000
0000
,
0000
0000
0000
0000
,
2001
0000
0000
3020
0000
0000
2030
0000
,
3002
0000
0000
0203
0000
0000
0310
0100
,
0002
0000
0000
0023
0000
0000
0130
0000
,
1000
0200
0000
0320
0000
0031
1000
0001
,
0200
0000
0000
0320
0000
0000
2030
0000
,
3002
0000
0000
0023
0000
0000
0130
1000
,
0200
0000
0000
0320
0000
0000
0032
0000
,
2003
0000
0000
3020
0000
0200
0000
0330
,
0001
0000
0000
0101
0000
0000
1000
0000
,
0100
0000
0000
1100
0000
0000
0010
0000
,
0100
0000
0000
0110
0000
0000
0010
0000
,
1000
0000
0000
1001
0000
0000
0010
0000
,
0100
0000
0000
0011
0000
0000
0100
0000
,
0010
0000
0000
1100
0000
0000
0010
0000
,
1000
0000
0000
0101
0000
0000
0001
0000
,
1000
0000
0100
0000
0010
0001
1000
0000
,
0001
0100
0010
1000
,
0001
0000
0010
0100
0000
0010
0100
0010
,
0000
0001
1000
0010
,
0100
0000
0010
1000
0000
0010
1000
0000
,
0100
0000
0000
0010
0000
0000
0001
0000
,
0100
0000
0000
0010
0000
0000
1000
0000
,
0001
0100
1000
0100
,
0001
0010
0100
1000
,
0010
0000
1000
0001
0000
0010
0000
0100
,
0000
0010
0100
1000
,
0001
0000
1000
0010
0000
0100
0000
0001
,
0000
0010
0100
1000
,
0001
0000
1000
0200
0000
0000
0000
0320
,
0000
0000
0000
0032
0000
0000
1003
0000
,
0010
0000
0100
0000
0001
0100
0000
0001
,
0000
0010
0100
1001
,
0000
1000
0010
0001
,
0010
0000
1000
0100
0000
0010
0100
1000
,
0000
0001
0010
0100
,
1000
0000
0010
0100
0000
0010
1000
0010
,
2000
0000
0000
0000
,
3002
0000
0000
0000
,
0103
0010
1000
0001
,
0010
0100
1000
0001
,
2001
0000
0000
0010
0000
0000
0001
0000
,
0010
0000
0000
0001
0000
0000
0100
0000
,
0001
0000
0000
0010
0000
0000
0001
0000
,
3100
0000
0000
0010
0000
0000
0001
0000
,
1002
0000
0000
0010
0000
0000
1000
0000
,
0100
0000
0000
0010
0000
0000
0100
0000
,
1000
0000
0000
0010
0000
0000
1000
0000
,
0103
0000
0000
0010
0000
0000
1000
0000
,
0100
0000
0010
0200
0000
0300
1000
0000
,
0010
1000
0100
0010
,
0001
0000
0100
0002
0000
0003
0010
0000
,
0100
1000
0001
0100
,
0110
0000
0000
1000
0000
0000
0001
0000
,
1001
0000
0000
0010
0000
0000
0100
0000
,
1001
0000
0000
0100
0000
0010
0000
1000
,
0100
1000
0100
0000
0010
0001
0010
0000
,
1001
0000
0000
0110
0000
0000
1001
0000
,
0010
0000
0000
0000
;

//---------------dance-single - ----------------
#NOTES:
     dance-single:
     :
     Easy:
     3:
     0.225082,0.338415,0.066573,0.221912,0.000000,142.000000,136.000000,6.000000,20.000000,0.000000,0.000000,0.225082,0.338415,0.066573,0.221912,0.000000,142.000000,136.000000,6.000000,20.000000,0.000000,0.000000:
// measure 0
0000
0000
0000
0000
,  // measure 1
0000
0000
0000
0000
,  // measure 2
0000
0000
0000
0000
,  // measure 3
0000
0000
0000
0000
,  // measure 4
1000
0000
0000
1000
0000
0000
0000
0000
,  // measure 5
0001
0000
0000
0001
0000
0000
0000
0000
,  // measure 6
1000
0000
0000
1000
0000
0000
0000
0000
,  // measure 7
0010
0000
0000
0100
0000
0000
0000
0000
,  // measure 8
0001
0000
0000
0001
0000
0000
0000
0000
,  // measure 9
1000
0000
0000
1000
0000
0000
0000
0000
,  // measure 10
0001
0000
0000
0001
0000
0000
0000
0000
,  // measure 11
0010
0000
0000
0100
0000
0000
0000
0000
,  // measure 12
1000
0000
1000
1000
,  // measure 13
0100
0000
0001
0001
,  // measure 14
0010
0000
0100
0100
,  // measure 15
0010
0000
0001
0001
,  // measure 16
1000
0000
0010
0010
,  // measure 17
0100
0000
0001
0001
,  // measure 18
1000
0000
0100
0100
,  // measure 19
1000
0100
0010
0001
,  // measure 20
0100
0000
0010
0000
,  // measure 21
1000
0010
0100
0000
,  // measure 22
0001
0000
1000
0000
,  // measure 23
0001
0010
0100
0000
,  // measure 24
2002
0000
3003
0000
,  // measure 25
0220
0000
0330
0000
,  // measure 26
0001
1000
0100
0010
,  // measure 27
0001
1000
0001
0000
,  // measure 28
1000
0010
0100
0000
,  // measure 29
0010
1000
0001
0000
,  // measure 30
0010
0001
0010
0000
,  // measure 31
0100
1000
0001
0000
,  // measure 32
0010
0001
0010
0000
,  // measure 33
1000
0001
1000
0000
,  // measure 34
0010
1000
0010
0000
,  // measure 35
0100
0000
0010
0000
,  // measure 36
1001
0000
0010
0000
,  // measure 37
1000
0100
0010
0000
,  // measure 38
0001
0100
0001
0000
,  // measure 39
0010
0100
1000
0000
,  // measure 40
2002
0000
3003
0000
,  // measure 41
0220
0000
0330
0000
,  // measure 42
0001
0001
1000
1000
,  // measure 43
0010
0010
0100
0100
,  // measure 44
0220
0000
0000
0000
,  // measure 45
0330
0000
0000
0001
,  // measure 46
0200
0000
0000
0000
,  // measure 47
0300
0000
0000
1000
,  // measure 48
0020
0000
0000
0000
,  // measure 49
0030
0000
0000
1000
,  // measure 50
0200
0000
0000
0000
,  // measure 51
0300
0000
0001
0001
,  // measure 52
0010
0200
0300
0100
,  // measure 53
0010
0001
2000
3000
,  // measure 54
1000
0020
0030
0010
,  // measure 55
1000
0001
2000
3000
,  // measure 56
0200
0000
0000
0300
,  // measure 57
0020
0000
0000
0030
,  // measure 58
0002
0000
0000
0003
,  // measure 59
1000
1000
0001
0001
,  // measure 60
0100
0000
0000
0100
0000
0000
0100
0000
,  // measure 61
0100
0000
0000
0000
;

//---------------dance-single - ----------------
#NOTES:
     dance-single:
     :
     Beginner:
     2:
     0.139487,0.199720,0.022191,0.000000,0.000000,88.000000,86.000000,2.000000,0.000000,0.000000,0.000000,0.139487,0.199720,0.022191,0.000000,0.000000,88.000000,86.000000,2.000000,0.000000,0.000000,0.000000:
// measure 0
0000
0000
0000
0000
,  // measure 1
0000
0000
0000
0000
,  // measure 2
0000
0000
0000
0000
,  // measure 3
0000
0000
0000
0000
,  // measure 4
0010
0000
0000
0000
,  // measure 5
0001
0000
0000
0000
,  // measure 6
0010
0000
0000
0000
,  // measure 7
0001
0000
0000
0000
,  // measure 8
0100
0000
0000
0000
,  // measure 9
1000
0000
0000
0000
,  // measure 10
0100
0000
0000
0000
,  // measure 11
1000
0000
0000
0000
,  // measure 12
1000
0000
1000
0000
,  // measure 13
0001
0000
0001
0000
,  // measure 14
1000
0000
1000
0000
,  // measure 15
0001
0000
0001
0000
,  // measure 16
0100
0000
0100
0000
,  // measure 17
1000
0000
1000
0000
,  // measure 18
0100
0000
0100
0000
,  // measure 19
0001
0000
0001
0000
,  // measure 20
1000
0000
0001
0000
,  // measure 21
1000
0000
0001
0000
,  // measure 22
0010
0000
0100
0000
,  // measure 23
0010
0000
0100
0000
,  // measure 24
1000
0000
0000
0000
,  // measure 25
0001
0000
0000
0000
,  // measure 26
0100
0000
0100
0000
,  // measure 27
0010
0000
0010
0000
,  // measure 28
1000
0000
0100
0000
,  // measure 29
0010
0000
0001
0000
,  // measure 30
0001
0000
0010
0000
,  // measure 31
0100
0000
1000
0000
,  // measure 32
1000
0000
0001
0000
,  // measure 33
1000
0000
0001
0000
,  // measure 34
0100
0000
0100
0000
,  // measure 35
0010
0000
0010
0000
,  // measure 36
1000
0000
1000
0000
,  // measure 37
0100
0000
0100
0000
,  // measure 38
0001
0000
0001
0000
,  // measure 39
0100
0000
0100
0000
,  // measure 40
1000
0000
0000
0000
,  // measure 41
0001
0000
0000
0000
,  // measure 42
0000
0100
0100
0000
,  // measure 43
0010
0000
0010
0000
,  // measure 44
1001
0000
0000
0000
,  // measure 45
0000
0000
0010
0000
,  // measure 46
0001
0000
0000
0000
,  // measure 47
0000
0000
0000
0000
,  // measure 48
1000
0000
0000
0000
,  // measure 49
0000
0000
0010
0000
,  // measure 50
0100
0000
0000
0000
,  // measure 51
0000
0000
0001
0000
,  // measure 52
1000
0000
0000
0000
,  // measure 53
1000
0000
0000
0000
,  // measure 54
0001
0000
0000
0000
,  // measure 55
0001
0000
0000
0000
,  // measure 56
0100
0000
0000
0000
,  // measure 57
0010
0000
0000
0000
,  // measure 58
1000
0000
1000
0000
,  // measure 59
0001
0000
0001
0000
,  // measure 60
1001
0000
0000
0000
;
