#TITLE:Splintered Sweets In The Castle;
#SUBTITLE:;
#ARTIST:OMORI;
#TITLETRANSLIT:;
#SUBTITLETRANSLIT:;
#ARTISTTRANSLIT:;
#GENRE:OMORI;
#CREDIT:[Ness];
#BANNER:OMORI - Splintered Sweets In The Castle (for TapMania).png;
#BACKGROUND:OMORI - Splintered Sweets In The Castle (for TapMania)-bg.png;
#LYRICSPATH:;
#CDTITLE:;
#MUSIC:OMORI - Splintered Sweets In The Castle (for TapMania).mp3;
#OFFSET:-0.040000;
#SAMPLESTART:14.820592;
#SAMPLELENGTH:14.769231;
#SELECTABLE:YES;
#BPMS:0.000000=130.000000
;
#STOPS:
;
#BGCHANGES:;
#KEYSOUNDS:;
#ATTACKS:;

//---------------dance-single - ----------------
#NOTES:
     dance-single:
     :
     Challenge:
     11:
     0.817216,0.948111,0.208241,0.122495,1.310696,467.000000,450.000000,17.000000,10.000000,36.000000,0.000000,0.817216,0.948111,0.208241,0.122495,1.310696,467.000000,450.000000,17.000000,10.000000,36.000000,0.000000:
0000
0000
0000
0000
,
0000
0000
0000
0000
,
0000
0000
0000
0000
,
0000
0000
0000
0000
,
0001
0000
0000
0000
0001
0100
0010
1000
0000
0000
0010
0000
0000
0100
0000
0000
,
0001
0000
0100
0000
0010
0000
0002
0000
0000
0000
0013
0000
0000
1000
0000
0000
,
0010
1000
0001
0010
0100
1000
0001
0100
0010
1000
0001
0010
0100
1000
0001
0100
,
0010
0000
0000
0000
1010
0000
0000
1001
0000
0000
0110
0000
0000
0101
0000
0000
,
1001
1000
0100
0010
0002
0000
0000
0010
0000
0000
1000
0000
0003
1000
0001
0100
,
0020
0000
0000
0000
0000
0000
0000
0000
1030
0000
0100
0000
2000
0000
0000
0000
0000
0000
0000
0000
0000
0100
0000
0000
0000
0000
0000
0000
0000
0000
3001
0000
0000
0010
0000
0000
0100
0000
0000
1000
0000
0000
0010
0000
0000
0100
0000
0000
,
0001
0000
0000
1000
0000
0000
0010
0000
0000
0100
0000
0000
0002
0000
0000
0000
0000
0000
0000
0000
0000
0010
0000
0000
0000
0000
0000
0000
0000
0000
1000
0000
0000
0000
0000
0000
0023
0000
0000
0000
0000
0000
0000
0000
0031
0000
1000
0000
,
0200
0000
0000
0000
0001
0000
0000
0010
0000
0000
1300
0100
0010
0001
0010
0100
,
1000
0000
0000
0000
1000
0010
0100
0001
0000
0000
1000
0000
0000
0001
0000
0000
,
0010
0000
1000
0000
0001
0000
0020
0000
0000
0000
0100
0000
0000
0130
0000
0000
,
0100
1000
0001
0100
0010
1000
0010
0100
0001
0010
0100
1000
0001
0010
0001
1000
,
0100
0000
0000
0000
1100
0000
0000
0101
0000
0000
0110
0000
0000
1001
0000
0000
,
0010
1000
010M
1000
0010
1000
010M
1000
0010
1000
010M
1000
0010
1000
010M
1000
,
0001
1000
01M0
1000
0001
1000
01M0
1000
0001
1000
01M0
1000
0001
1000
01M0
1000
,
0001
0100
M010
0100
0001
0100
M010
0100
0001
0100
M010
0100
0001
0100
M010
0100
,
0001
0010
M100
0010
0001
0010
M100
0010
0001
0010
M100
0010
0001
0010
M100
0010
,
0001
1000
0M01
0010
0001
1000
0M01
0010
0001
1000
0M01
0010
0001
1000
0M01
0010
,
0100
0010
M001
0010
0100
0010
M001
0010
0100
0010
M001
0010
0100
0010
M001
0010
,
0100
1000
00M1
1000
0100
1000
00M1
1000
0100
1000
00M1
1000
0100
1000
00M1
1000
,
0010
0100
M001
0100
0010
0100
M001
0100
0010
0100
M001
0100
0010
0100
M001
0100
,
0010
1000
0100
0010
0001
0000
1000
0000
1001
0000
0100
0010
1000
0000
0100
0010
,
0001
0000
1000
0000
0010
0000
0100
0000
0001
0000
0000
0000
0001
0000
0000
0000
1000
0001
1000
0000
0002
0000
0000
0000
0000
0000
0000
0000
0103
0000
0001
0000
,
0200
0000
0000
0000
0310
1000
0001
1000
0010
0100
0001
0100
0010
1000
0100
1000
,
0000
1000
0001
0000
1000
0000
0100
0010
0001
1000
0010
0100
0010
1000
0001
1000
,
0000
0100
0010
0000
0001
0000
0010
0100
1000
0001
1000
0100
0010
0001
1000
0010
,
0000
0100
0001
0000
1000
0000
0001
1000
0010
0100
0010
1000
0100
0010
0001
1000
,
0000
0010
0100
0000
0010
0000
1000
0100
1000
0001
0010
0100
1000
0010
0100
0001
,
0000
1000
0100
0000
1000
0000
0001
0010
0100
1000
0010
0100
0010
1000
0001
0010
,
0000
0100
0010
0000
0001
1000
0100
0000
1100
0100
0010
0001
1000
0001
0100
0010
,
1000
0000
0000
0000
0000
0000
0000
0000
0000
0000
0000
0000
0001
0000
0000
0000
0000
0000
0000
0000
0000
0000
0000
0000
0100
0000
0000
0000
0000
0000
0000
0000
0000
0000
0000
0000
0010
0000
0000
0000
0000
0000
0000
0000
0000
0000
0000
0000
1000
0000
0000
0000
0000
0000
0000
0000
0010
0000
0000
0000
0000
0000
0000
0000
0100
0000
0000
0000
0000
0000
0000
0000
0001
0000
0000
0000
0000
0000
0000
0000
0100
0000
0000
0000
0000
0000
0000
0000
0010
0000
0000
0000
0000
0000
0000
0000
1000
0000
0000
0000
0000
0000
0000
0000
0000
0000
0000
0000
0000
0000
0000
0000
0000
0000
0000
0000
0000
0000
0000
0000
0000
0000
0000
0000
0000
0000
0000
0000
0000
0000
0000
0000
0100
0000
0000
0000
0000
0000
0010
0000
0000
0000
0000
0000
0100
0000
0000
0000
0000
0000
0000
0000
0000
0000
0000
0000
0000
0000
0000
0000
0000
0000
0000
0000
0000
0000
0000
0000
0000
0000
0000
0000
0000
0000
0000
0000
0000
0000
0000
0000
0010
0000
0000
0000
0000
0000
0000
0000
0000
0000
0000
0000
,
0000
0000
0000
0000
0000
0000
1001
0000
0000
1000
0000
0000
0001
0000
0000
0000
0000
0000
0000
0000
0010
0000
0100
0000
1000
0000
0000
0000
0000
0000
0001
0000
0000
0100
0000
0000
0000
0000
0000
0100
0000
0000
0010
0000
0000
0000
0000
0000
,
1001
0000
0010
1000
0000
1000
0100
0000
0101
0100
0010
1000
0001
1000
0100
0010
,
0001
0010
0100
1000
0001
0010
0001
1000
0010
0100
0010
1000
0001
0100
0010
1000
,
0100
0000
0000
0000
0000
0000
0000
0000
0000
0000
0000
0000
1000
0000
0000
0000
0000
0000
0000
0000
0000
0000
0000
0000
0001
0000
0000
0000
0000
0000
0000
0000
0000
0000
0000
0000
0100
0000
0000
0000
0000
0000
0000
0000
0000
0000
0000
0000
0010
0000
0000
0000
0000
0000
0000
0000
1000
0000
0000
0000
0000
0000
0000
0000
0100
0000
0000
0000
0000
0000
0000
0000
0010
0000
0000
0000
0000
0000
0000
0000
0001
0000
0000
0000
0000
0000
0000
0000
1000
0000
0000
0000
0000
0000
0000
0000
0100
0000
0000
0000
0000
0000
0000
0000
0000
0000
0000
0000
0000
0000
0000
0000
0000
0000
0000
0000
0000
0000
0000
0000
0000
0000
0000
0000
0000
0000
0000
0000
0000
0000
0000
0000
1000
0000
0000
0000
0000
0000
0001
0000
0000
0000
0000
0000
1000
0000
0000
0000
0000
0000
0000
0000
0000
0000
0000
0000
0000
0000
0000
0000
0000
0000
0000
0000
0000
0000
0000
0000
0000
0000
0000
0000
0000
0000
0000
0000
0000
0000
0000
0000
0010
0000
0000
0000
0000
0000
0000
0000
0000
0000
0000
0000
,
0000
0000
0000
0000
0000
0000
0110
0000
0000
0000
0000
0000
0000
0000
0000
0000
0000
0000
0000
0000
1000
0000
0001
0000
0100
0000
0000
0000
0000
0000
0001
0000
0000
0010
0000
0000
0000
0000
0000
0010
0000
0000
1000
0000
0000
0000
0000
0000
,
1010
0000
1000
0100
0000
0100
0001
0000
1001
1000
0100
1000
0001
0100
0010
1000
,
0001
1000
0100
0010
0001
0010
0100
1000
0001
0000
0000
0000
0000
0000
0000
0000
,
0000
0000
0000
0000
,
0000
0000
0000
0000
,
MMMM
0000
0000
0000
;

//---------------dance-single - ----------------
#NOTES:
     dance-single:
     :
     Hard:
     7:
     0.407733,0.471299,0.110245,0.048998,0.208241,233.000000,224.000000,9.000000,4.000000,0.000000,0.000000,0.407733,0.471299,0.110245,0.048998,0.208241,233.000000,224.000000,9.000000,4.000000,0.000000,0.000000:
0000
0000
0000
0000
,
0000
0000
0000
0000
,
0000
0000
0000
0000
,
0000
0000
0000
0000
,
1001
0000
0100
0001
0010
0100
1000
0000
,
0010
1000
0100
0020
0000
0000
0031
0000
,
1000
0100
0001
0100
1000
0010
0100
0010
,
1000
0000
0000
0000
0001
0000
0000
0010
0000
0000
0100
0000
0000
1000
0000
0000
,
0101
0000
0000
0000
0001
0000
0000
0010
0000
0000
0100
0000
0000
0010
0000
0000
,
1001
0000
0000
0000
0010
0000
0000
1000
0000
0000
0100
0000
0000
0010
0000
0000
,
0110
0000
0000
0000
0001
0000
0000
0100
0000
0000
0010
0000
0000
1000
0000
0000
,
1100
0000
0000
0000
0010
0000
0000
0100
0000
0000
0001
0000
0000
0010
0000
0000
,
1001
0000
0010
0001
0100
0010
1000
0000
,
0001
0010
0100
2000
0000
0000
3001
0000
,
0010
0001
0100
0010
1000
0100
0001
0100
,
1000
0000
0000
0000
0010
0000
0000
0100
0000
0000
0001
0000
0000
0010
0000
0000
,
0110
0000
1000
0000
0001
0100
0001
0000
,
0010
0010
0010
0000
0001
0100
1000
0000
,
0001
0010
0001
0000
1000
0100
0010
0000
,
0001
1000
0100
0000
1000
1000
1000
0000
,
0001
0000
1001
0000
0010
0001
0100
0000
,
0001
0100
0001
0000
1000
0010
1000
0000
,
0100
0100
0100
0000
0010
0100
1000
0001
,
0100
0010
0100
0000
0010
0010
0010
0000
,
1000
0100
1000
0100
0001
0100
0001
0100
,
1000
0010
0100
0010
2000
0000
0000
0002
,
0000
0000
0000
0000
3003
0000
0000
0000
1001
0000
0000
0000
0010
0000
0000
0001
,
0000
1000
0000
0000
0100
0000
0010
0000
0100
0000
0000
0000
1000
0000
0000
0001
,
0000
0010
0000
0000
0001
0000
0100
0000
0010
0000
0000
0000
1000
0000
0000
0001
,
0000
0010
0000
0000
0001
0000
1000
0000
0100
0000
0000
0000
0010
0000
0000
0100
,
0000
1000
0000
0000
0001
0000
0010
0000
0001
0000
0000
0000
0100
0000
0000
0010
,
0000
0100
0000
0000
0001
0000
1000
0000
0010
0000
0000
0000
0100
0000
0000
0001
,
0000
0010
0000
0000
0100
0000
0000
0000
1000
0000
0100
0000
0001
0000
0100
0000
,
1000
0000
0010
0000
0100
0000
0001
0000
0010
0000
0000
0000
0100
0000
0000
0010
,
0000
0000
0001
0000
0000
0000
1000
0000
0100
0000
1000
0001
0000
1000
0001
0000
,
0100
0000
0001
1000
0000
0001
1000
0000
0100
0000
0000
0000
0010
0000
0000
0000
,
0001
0100
0010
0000
1000
0100
0001
0100
,
1000
0000
0100
0000
0010
0000
0001
0000
0100
0000
0000
0000
0001
0000
0000
0010
,
0000
0000
0100
0000
0000
0000
1000
0000
0010
0000
1000
0001
0000
1000
0001
0000
,
0010
0000
0001
1000
0000
0001
1000
0000
0010
0000
0100
0000
0001
0000
0010
0000
,
0100
1000
0001
0100
0010
0000
0000
0000
;

//---------------dance-single - ----------------
#NOTES:
     dance-single:
     :
     Medium:
     5:
     0.309737,0.322468,0.134744,0.073497,0.024499,177.000000,166.000000,11.000000,6.000000,0.000000,0.000000,0.309737,0.322468,0.134744,0.073497,0.024499,177.000000,166.000000,11.000000,6.000000,0.000000,0.000000:
0000
0000
0000
0000
,
0000
0000
0000
0000
,
0000
0000
0000
0000
,
0000
0000
0000
0000
,
1001
0000
0010
0000
0001
0100
0001
0000
,
0010
0100
1000
0001
,
0100
0100
0100
0000
0010
0010
0010
0000
,
1000
0000
0001
0000
0010
0100
0010
0000
,
1001
0100
0010
1000
,
0100
0000
0010
0000
0100
1000
0001
0000
,
0100
0010
0100
0001
,
0010
0100
1000
0001
,
0010
0000
0001
1000
0010
0000
0100
0000
,
0001
1000
0010
0100
,
0010
0010
0010
0000
1000
1000
1000
0000
,
0100
0000
0010
0000
0001
1000
0100
0000
,
2200
0300
0001
3100
,
0010
0001
0100
0010
,
1000
0001
0100
0010
,
0100
0001
1000
0010
,
0202
0300
1000
0103
,
0010
0001
1000
0100
,
0001
0100
1000
0010
,
0100
0001
0010
0100
,
1000
0100
1000
0000
0001
0100
0001
0000
,
1000
0010
0100
0000
0220
0000
0000
0000
,
0330
0000
1001
0010
,
1000
0001
1000
0000
0010
0000
0100
0000
,
1000
0100
1000
0000
0010
0000
0100
0000
,
0001
0010
1000
0000
0010
0000
0100
0000
,
1000
0001
0100
0000
0010
0000
1000
0000
,
0010
0100
0001
0000
0010
0000
1000
0000
,
0010
0001
0010
0000
0001
0000
1001
0000
,
0010
0110
1000
0100
,
0001
0000
0000
0000
0010
0000
0000
0000
0100
0000
0000
0100
0000
0000
0100
0000
,
0010
0000
0000
0010
0000
0000
0010
0000
0001
0000
0000
0000
1000
0000
0000
0000
,
0010
0100
0010
0000
1000
0000
1001
0000
,
0010
0110
0001
0010
,
0100
0000
0000
0000
1000
0000
0000
0000
0001
0000
0000
0001
0000
0000
0001
0000
,
1000
0000
0000
1000
0000
0000
1000
0000
0010
0000
0000
0000
0100
0000
0000
0000
,
0001
1000
0100
0000
1100
0000
0000
0000
;

//---------------dance-single - ----------------
#NOTES:
     dance-single:
     :
     Easy:
     3:
     0.199492,0.223247,0.036748,0.220491,0.000000,114.000000,111.000000,3.000000,18.000000,0.000000,0.000000,0.199492,0.223247,0.036748,0.220491,0.000000,114.000000,111.000000,3.000000,18.000000,0.000000,0.000000:
// measure 0
0000
0000
0000
0000
,  // measure 1
0000
0000
0000
0000
,  // measure 2
0000
0000
0000
0000
,  // measure 3
0000
0000
0000
0000
,  // measure 4
0001
0001
0010
0010
,  // measure 5
0100
1000
0100
1000
,  // measure 6
0010
0010
0100
0100
,  // measure 7
0001
0100
0002
0003
,  // measure 8
2000
3000
0002
0003
,  // measure 9
0010
0100
1000
0001
,  // measure 10
0100
0010
0200
0300
,  // measure 11
0010
1000
0020
0030
,  // measure 12
0200
0300
0002
0003
,  // measure 13
1000
0100
0010
0001
,  // measure 14
1000
1000
0001
0001
,  // measure 15
0100
0010
0100
0000
,  // measure 16
2002
3003
0010
0000
,  // measure 17
1000
0000
0001
0000
,  // measure 18
0010
0000
0001
0000
,  // measure 19
0010
0000
1000
0000
,  // measure 20
0200
0300
0020
0030
,  // measure 21
0002
0003
2000
3000
,  // measure 22
0020
0000
0030
0000
,  // measure 23
0200
0300
0002
0003
,  // measure 24
1000
1000
0001
0001
,  // measure 25
0100
0010
0220
0330
,  // measure 26
0000
0000
1000
0100
,  // measure 27
1000
0000
0001
0010
,  // measure 28
0001
0000
1000
0001
,  // measure 29
1000
0000
0010
0100
,  // measure 30
0010
0000
1000
0100
,  // measure 31
0010
0000
0001
0100
,  // measure 32
0010
0000
1000
0100
,  // measure 33
1000
0100
0010
0001
,  // measure 34
0010
0001
0100
0001
,  // measure 35
0100
0001
1000
0010
,  // measure 36
0100
0000
0010
1000
,  // measure 37
0010
1000
0001
0100
,  // measure 38
0001
0100
0001
1000
,  // measure 39
0001
1000
0001
0010
,  // measure 40
0100
0000
1001
0000
;

//---------------dance-single - ----------------
#NOTES:
     dance-single:
     :
     Beginner:
     1:
     0.125995,0.173637,0.012249,0.024499,0.000000,72.000000,71.000000,1.000000,2.000000,0.000000,0.000000,0.125995,0.173637,0.012249,0.024499,0.000000,72.000000,71.000000,1.000000,2.000000,0.000000,0.000000:
// measure 0
0000
0000
0000
0000
,  // measure 1
0000
0000
0000
0000
,  // measure 2
0000
0000
0000
0000
,  // measure 3
0000
0000
0000
0000
,  // measure 4
0001
0000
0001
0000
,  // measure 5
0010
0000
0010
0000
,  // measure 6
1000
0000
1000
0000
,  // measure 7
0010
0000
0010
0000
,  // measure 8
0100
0000
0100
0000
,  // measure 9
0100
0000
0100
0000
,  // measure 10
0001
0000
0001
0000
,  // measure 11
0001
0000
0001
0000
,  // measure 12
1000
0000
1000
0000
,  // measure 13
0100
0000
0100
0000
,  // measure 14
0001
0000
0001
0000
,  // measure 15
0100
0000
0100
0000
,  // measure 16
1000
0000
0000
0000
,  // measure 17
0000
0000
0000
0000
,  // measure 18
0001
0000
0000
0000
,  // measure 19
0000
0000
0000
0000
,  // measure 20
0100
0000
0100
0000
,  // measure 21
0100
0000
0100
0000
,  // measure 22
0020
0000
0030
0000
,  // measure 23
0020
0000
0030
0000
,  // measure 24
1000
0000
1000
0000
,  // measure 25
0001
0000
1001
0000
,  // measure 26
0000
0000
0010
0010
,  // measure 27
0010
0000
0010
0010
,  // measure 28
0010
0000
0001
0001
,  // measure 29
0001
0000
0001
0001
,  // measure 30
0001
0000
1000
1000
,  // measure 31
1000
0000
1000
1000
,  // measure 32
1000
0000
0100
0000
,  // measure 33
0010
0000
0001
0000
,  // measure 34
1000
0000
0010
0000
,  // measure 35
0100
0000
0001
0000
,  // measure 36
1000
0000
0100
0000
,  // measure 37
0010
0000
0100
0000
,  // measure 38
0010
0000
0001
0000
,  // measure 39
1000
0000
0100
0000
,  // measure 40
0010
0000
0001
0000
;
