#TITLE:Push & Shove;
#SUBTITLE:;
#ARTIST:OMORI;
#TITLETRANSLIT:;
#SUBTITLETRANSLIT:;
#ARTISTTRANSLIT:;
#GENRE:OMORI;
#CREDIT:[Ness];
#BANNER:OMORI - Push & Shove (for TapMania).png;
#BACKGROUND:OMORI - Push & Shove (for TapMania)-bg.png;
#LYRICSPATH:;
#CDTITLE:;
#MUSIC:OMORI - Push & Shove (for TapMania).mp3;
#OFFSET:-0.040000;
#SAMPLESTART:31.464190;
#SAMPLELENGTH:15.736414;
#SELECTABLE:YES;
#BPMS:0.000000=122.009995
;
#STOPS:
;
#BGCHANGES:;
#KEYSOUNDS:;
#ATTACKS:;

//---------------dance-single - ----------------
#NOTES:
     dance-single:
     :
     Challenge:
     10:
     0.710967,0.816433,0.000000,0.000000,1.046985,347.000000,347.000000,0.000000,0.000000,36.000000,0.000000,0.710967,0.816433,0.000000,0.000000,1.046985,347.000000,347.000000,0.000000,0.000000,36.000000,0.000000:
0000
0000
0000
0000
,
0000
0000
0000
0000
,
1000
0000
0000
0000
0001
0000
0000
1000
0000
0001
0100
0000
0001
0000
0000
0000
,
0010
0000
0000
0000
0100
0000
1000
0001
0000
1000
0000
0100
0010
0100
0000
0000
,
1000
0001
1000
0000
0010
0000
0100
0010
0000
1000
0010
0000
0100
0000
0001
0000
,
0010
0001
0010
0000
0100
0000
1000
0100
0000
1000
0001
1000
0100
0010
0001
0000
,
0100
0001
1000
0000
0010
0000
0100
0001
0000
1000
0100
0000
0010
0000
0100
0000
,
1000
0001
0100
0000
0010
0000
1000
0100
0000
0010
0001
1000
0100
0010
0001
0000
,
1000
01M0
1000
010M
1000
01M0
1000
010M
0010
M001
0010
0M01
0010
M001
0010
0M01
,
1000
01M0
1000
010M
0010
M001
0010
0M01
1000
01M0
1000
010M
0010
M001
0010
0M01
,
1000
0100
0010
0001
1000
0100
0010
0001
1000
0100
0010
0001
1000
0100
0010
0001
,
1000
0001
0100
0010
1000
0100
0010
0001
1000
0001
0100
0010
1000
0100
0010
0001
,
0100
0001
0100
0000
0010
0000
0100
0001
0000
1000
0010
0000
0100
0000
0010
0000
,
1000
0100
0010
0000
0001
0000
1000
0010
0000
0100
0001
0010
0100
1000
0001
0000
,
1000
0100
1000
0000
0001
0000
0010
0100
0000
0010
0001
0000
1000
0000
0001
0000
,
0100
0010
1000
0000
0100
0000
0010
0001
0000
1000
0010
0100
0001
0010
0100
0000
,
1000
0000
0000
0000
0001
0000
0000
0010
0000
0100
0010
0000
0001
0000
0000
0000
,
1000
0000
0000
0000
0100
0000
0010
0001
0000
1000
0000
0001
0100
0001
0000
0000
,
0010
0000
0000
0000
0100
0000
0000
1000
0000
0010
0100
0000
0001
0000
0000
0000
,
1000
0000
0000
0000
0100
0000
0010
0001
0000
1000
0000
0010
0100
0001
0000
0000
,
0010
0001
0100
0000
0010
0000
1000
0100
0000
0001
0100
0000
0010
0000
0001
0000
,
1000
0001
0010
0000
0100
0000
1000
0100
0000
0010
0001
1000
0010
0100
0010
0000
,
0100
0001
0010
0000
0100
0000
1000
0010
0000
0100
0001
0000
1000
0000
0001
0000
,
1000
0100
1000
0000
0010
0000
0100
0001
0000
1000
0010
0100
0001
0010
0100
0000
,
1000
01M0
1000
010M
1000
01M0
1000
010M
0010
M001
0010
0M01
0010
M001
0010
0M01
,
1000
01M0
1000
010M
0010
M001
0010
0M01
1000
01M0
1000
010M
0010
M001
0010
0M01
,
1000
0100
0010
0001
1000
0100
0010
0001
1000
0100
0010
0001
1000
0100
0010
0001
,
1000
0001
0100
0010
1000
0100
0010
0001
1000
0001
0100
0010
1000
0100
0010
0001
,
0100
0001
0100
0000
0010
0000
0100
0001
0000
1000
0010
0000
0100
0000
0010
0000
,
1000
0100
0010
0000
0001
0000
1000
0010
0000
0100
0001
0010
0100
1000
0001
0000
,
1000
0100
1000
0000
0001
0000
0010
0100
0000
0010
0001
0000
1000
0000
0001
0000
,
0100
0010
1000
0000
0100
0000
0010
0001
0000
1000
0010
0100
0001
0010
0100
0000
,
0010
0000
0000
0000
,
0000
0000
0000
0000
,
0000
0000
MMMM
0000
;

//---------------dance-single - ----------------
#NOTES:
     dance-single:
     :
     Hard:
     7:
     0.428219,0.455367,0.645402,0.000000,0.308359,209.000000,164.000000,45.000000,0.000000,0.000000,0.000000,0.428219,0.455367,0.645402,0.000000,0.308359,209.000000,164.000000,45.000000,0.000000,0.000000,0.000000:
0000
0000
0000
0000
,
0000
0000
0000
0000
,
0010
0000
0000
0000
0100
0000
0000
1000
0000
0001
1000
0000
0100
0000
0000
0000
,
0010
0000
0000
0000
0001
0000
0000
1000
0000
0010
0000
0100
0001
0000
0000
0000
,
0010
0001
0010
0000
0100
0000
0000
1000
0000
0000
0001
0000
0100
0000
0000
0000
,
0010
0000
0000
0000
1000
0000
0000
0001
0000
0010
0000
0000
0100
0000
1000
0000
,
0001
0000
0100
0000
0010
0000
0000
1000
0000
0001
1000
0000
0100
0000
0000
0000
,
0010
0000
0001
0000
0100
0000
0001
1000
0000
0001
0000
1000
0100
0000
0000
0000
,
0000
0010
0000
1100
0000
1000
0000
0101
,
0000
0100
0000
0011
0000
0001
0000
1010
,
0000
0010
0000
1100
0000
0100
0000
0101
,
0000
0010
0000
1001
0000
0010
0000
0001
,
1000
0000
1001
0000
0000
0000
0011
0000
0000
1001
0000
0000
0101
0000
0000
0110
,
0000
0000
0000
1000
0000
0000
1100
0000
0000
0110
0000
0000
0011
0000
0000
0000
,
0000
0000
1010
0000
0000
0000
1001
0000
0000
0110
0000
0000
0101
0000
0000
0000
,
0000
0000
0001
0000
0000
0000
0011
0000
0000
0110
0000
0000
1100
0000
0000
0000
,
0100
0000
0000
0000
0010
0000
0000
0001
0000
0000
0100
0000
0010
0000
0000
0000
,
1000
0000
0000
0000
0100
0000
0000
0010
0000
0001
0000
0000
0100
0000
0000
0000
,
1000
0000
0000
0000
0010
0000
0000
0100
0000
0001
0100
0000
0001
0000
0000
0000
,
0100
0000
0000
0000
1000
0000
0000
0010
0000
0100
0000
0001
1000
0000
0000
0000
,
1000
0001
1000
0000
0010
0000
0000
0100
0000
0000
0001
0000
0010
0000
0000
0000
,
0100
0000
0000
0000
1000
0000
0000
0010
0000
0100
0000
0000
0001
0000
1000
0000
,
0010
0000
0010
0000
0100
0000
0000
0001
0000
1000
0100
0000
1000
0000
0000
0000
,
0001
0000
0010
0000
0100
0000
1000
0100
0000
0010
0000
0001
0100
0000
0000
0000
,
0010
0100
0000
1001
0000
0100
0000
0011
,
0001
1000
0000
0110
0000
0001
0100
1010
,
0000
0010
1000
1100
0000
0001
0000
1001
,
0000
0010
0100
1001
0000
0100
0100
0001
,
1000
0000
1010
0000
0000
0000
0110
0000
0000
0101
0000
0000
1001
0000
0000
1100
,
0000
0000
0000
0010
0000
0000
0011
0000
0000
0110
0000
0000
1001
0000
0000
0000
,
0000
0000
0110
0000
0000
0000
1001
0000
0000
1010
0000
0000
1100
0000
0000
0000
,
0000
0000
1001
0000
0000
0000
0011
0000
0000
0101
0000
0000
1100
0000
0000
0000
;

//---------------dance-single - ----------------
#NOTES:
     dance-single:
     :
     Medium:
     5:
     0.319628,0.320012,0.186449,0.000000,0.000000,156.000000,143.000000,13.000000,0.000000,0.000000,0.000000,0.319628,0.320012,0.186449,0.000000,0.000000,156.000000,143.000000,13.000000,0.000000,0.000000,0.000000:
0000
0000
0000
0000
,
0000
0000
0000
0000
,
0000
0001
0000
1000
0000
0100
0000
0010
,
0000
0100
0000
1000
0000
0010
0000
0100
,
0000
0001
0001
0001
0000
1000
0000
0010
,
0000
0100
0100
0100
0000
0001
1000
0010
,
0000
1000
1000
1000
0000
0100
0100
0000
,
0000
0010
0010
0010
0000
0001
0000
1001
,
0000
1000
0000
0010
0000
0001
0000
0010
,
0000
1000
0000
0001
0000
0100
0000
1001
,
0000
0010
0000
0001
0000
0010
0000
1100
,
0000
0010
0000
1000
0000
0010
0000
0101
,
0000
1000
0001
0100
0000
0010
0000
0100
,
0000
0001
0010
0100
0000
1000
1000
0010
,
0000
0001
1000
0100
0000
0010
0010
0100
,
0000
0010
0100
0010
0000
0001
0000
1001
,
0000
0010
0000
1000
0000
0010
0000
0001
,
0000
0010
0000
0100
0000
1000
0000
0001
,
0000
1000
0000
0110
0000
0001
0000
1000
,
0000
0001
0000
1010
0000
0001
0000
0100
,
0000
0010
1000
0100
0000
1000
0000
0110
,
0000
0001
0100
0001
0000
1000
0100
0010
,
0000
0001
1000
0010
0000
0100
0010
1000
,
0000
0001
1000
0100
0000
0010
0000
1001
,
0000
0010
0000
0011
0000
0100
0000
0010
,
0000
0100
0000
0101
0000
0010
0000
1000
,
0000
0100
0000
0010
0000
0100
0000
1000
,
0000
0001
0000
0100
0000
0010
0000
1001
,
0000
0010
1000
0100
0000
1000
0000
0110
,
0000
0001
0001
0001
0000
0001
0100
0010
,
0000
1000
0001
1000
0000
0100
0100
0010
,
0000
0001
0001
0100
0000
1000
0000
0001
;

//---------------dance-single - ----------------
#NOTES:
     dance-single:
     :
     Easy:
     3:
     0.247916,0.206529,0.000000,0.000000,0.000000,121.000000,121.000000,0.000000,0.000000,0.000000,0.000000,0.247916,0.206529,0.000000,0.000000,0.000000,121.000000,121.000000,0.000000,0.000000,0.000000,0.000000:
// measure 0
0000
0000
0000
0000
,  // measure 1
0000
0000
0000
0000
,  // measure 2
1000
1000
0001
0001
,  // measure 3
1000
1000
0001
0001
,  // measure 4
1000
0001
0001
1000
,  // measure 5
1000
0001
0001
1000
,  // measure 6
0001
1000
1000
0001
,  // measure 7
0001
1000
0001
1000
,  // measure 8
0010
0100
0010
0010
,  // measure 9
0100
0010
0100
0100
,  // measure 10
0001
0010
0100
1000
,  // measure 11
0001
0010
0100
1000
,  // measure 12
0001
0010
0001
0010
,  // measure 13
1000
0010
1000
0001
,  // measure 14
1000
0100
1000
0100
,  // measure 15
0001
0100
0001
1000
,  // measure 16
0001
0001
1000
1000
,  // measure 17
0001
1000
0001
0001
,  // measure 18
1000
0001
1000
0001
,  // measure 19
1000
0001
0001
1000
,  // measure 20
0001
0010
0010
0001
,  // measure 21
1000
0010
0010
0100
,  // measure 22
0010
1000
1000
0001
,  // measure 23
0001
1000
0001
1000
,  // measure 24
0100
0100
0010
0001
,  // measure 25
0010
0100
0010
0001
,  // measure 26
1000
1000
0001
0001
,  // measure 27
1000
0001
1000
0100
,  // measure 28
0010
0100
0010
0010
,  // measure 29
0100
0100
1000
1000
,  // measure 30
0001
0001
1000
0001
,  // measure 31
1000
0001
0001
1000
,  // measure 32
0100
0000
0000
0000
;

//---------------dance-single - ----------------
#NOTES:
     dance-single:
     :
     Beginner:
     1:
     0.120885,0.114738,0.000000,0.000000,0.000000,59.000000,59.000000,0.000000,0.000000,0.000000,0.000000,0.120885,0.114738,0.000000,0.000000,0.000000,59.000000,59.000000,0.000000,0.000000,0.000000,0.000000:
// measure 0
0000
0000
0000
0000
,  // measure 1
0000
0000
0000
0000
,  // measure 2
0010
0000
0000
0000
,  // measure 3
0010
0000
0000
0000
,  // measure 4
0001
0000
0001
0000
,  // measure 5
0001
0000
0001
0000
,  // measure 6
1000
0000
1000
0000
,  // measure 7
1000
0000
1000
0000
,  // measure 8
0100
0000
0100
0000
,  // measure 9
0100
0000
0100
0000
,  // measure 10
0100
0000
0100
0000
,  // measure 11
0100
0000
0100
0000
,  // measure 12
0010
0000
0010
0000
,  // measure 13
0001
0000
0001
0000
,  // measure 14
1000
0000
1000
0000
,  // measure 15
0001
0000
0001
0000
,  // measure 16
0100
0000
0100
0000
,  // measure 17
0010
0000
0010
0000
,  // measure 18
0100
0000
0100
0000
,  // measure 19
0010
0000
0010
0000
,  // measure 20
1000
0000
1000
0000
,  // measure 21
0001
0000
0001
0000
,  // measure 22
0010
0000
0010
0000
,  // measure 23
0001
0000
0001
0000
,  // measure 24
0100
0000
0100
0000
,  // measure 25
0100
0000
0100
0000
,  // measure 26
0100
0000
0100
0000
,  // measure 27
0100
0000
0100
0000
,  // measure 28
1000
0000
0001
0000
,  // measure 29
1000
0000
0001
0000
,  // measure 30
0010
0000
0100
0000
,  // measure 31
0010
0000
0100
0000
,  // measure 32
1000
0000
0000
0000
;
