#TITLE:Lost, Then Found!;
#SUBTITLE:;
#ARTIST:OMORI;
#TITLETRANSLIT:;
#SUBTITLETRANSLIT:;
#ARTISTTRANSLIT:;
#GENRE:OMORI;
#CREDIT:[Ness];
#BANNER:Lost, Then Found-bn (for TapMania).png;
#BACKGROUND:Lost, Then Found (for TapMania)-bg.png;
#LYRICSPATH:;
#CDTITLE:;
#MUSIC:Lost, Then Found (for TapMania).mp3;
#OFFSET:-0.020000;
#SAMPLESTART:17.465908;
#SAMPLELENGTH:16.909092;
#SELECTABLE:YES;
#BPMS:0.000000=110.000000
;
#STOPS:
;
#BGCHANGES:;
#KEYSOUNDS:;
#ATTACKS:;

//---------------dance-single - ----------------
#NOTES:
     dance-single:
     :
     Hard:
     7:
     0.316724,0.369084,0.205047,0.205047,0.121746,173.000000,157.000000,16.000000,16.000000,0.000000,0.000000,0.316724,0.369084,0.205047,0.205047,0.121746,173.000000,157.000000,16.000000,16.000000,0.000000,0.000000:
0000
0000
0000
0000
,
0000
0000
0000
0000
,
0000
0000
0000
0000
,
0000
0000
0000
0000
,
1001
0000
1000
0020
0000
0000
0130
0000
,
0101
0000
0001
0020
0000
0000
0130
0000
,
1100
0000
0001
0200
0000
0300
0010
1000
,
0000
0000
0001
0000
0000
1000
0000
0000
1001
0000
0000
0110
0000
0000
1001
0000
,
0020
0000
0031
0000
0001
1000
0100
1000
,
0002
0000
0100
0000
1003
0001
0100
0010
,
1000
0000
0001
0020
0000
0100
0130
0000
,
0001
0000
1000
0020
0000
0100
0130
0000
,
2000
0000
3100
0000
0010
0001
0100
0010
,
0200
0000
0301
1000
0010
0000
0100
0001
,
0010
0000
0001
0200
0000
0001
0301
0000
,
1000
0000
0000
0010
0000
0000
0100
0000
0010
0000
0000
0000
0110
0000
0000
0000
,
2002
0000
3003
0010
0000
0001
0100
1000
,
0200
0000
0000
0000
0300
0000
0000
0000
0010
0000
0000
1000
0000
0000
0100
0000
,
1000
0000
0000
0001
0000
0000
0010
0000
0100
0000
0000
0010
0000
0000
0001
0000
,
0200
0000
0300
0001
1000
0000
1001
0000
,
0200
0000
0000
0000
0300
1000
0100
0010
,
0001
0000
0000
0000
1000
0000
0000
0000
0010
0000
0000
0100
0000
0000
0010
0000
,
1000
0000
0000
0100
0000
0000
0010
0000
0001
0000
0000
0010
0000
0000
0100
0000
,
1000
0000
0000
0001
0000
0000
0010
0000
0001
0000
0000
0011
0000
0000
1001
0000
,
0010
0000
0000
0010
0001
0000
0010
0000
0000
0000
0100
0000
1000
0000
0100
0000
,
1000
0000
0000
1000
0001
0000
1000
0000
0100
0000
0000
0010
0000
0000
0001
0000
,
0100
0000
0000
0001
0000
0000
1000
0000
0100
0000
0000
0010
0000
0000
0100
0000
,
2000
0000
0000
0000
3000
0000
0001
0000
0100
0000
0000
0110
0000
0000
0110
0000
,
1001
0000
0001
1000
0001
1000
0010
1000
,
0001
1000
0001
1000
0100
1000
0001
0010
,
0100
0010
0100
0010
0001
1000
0100
0010
,
0001
0000
0000
0100
0000
0000
0001
0000
1000
0000
0000
0010
0000
0000
0110
0000
,
1001
0000
0000
0000
;

//---------------dance-single - ----------------
#NOTES:
     dance-single:
     :
     Medium:
     5:
     0.219693,0.246056,0.064077,0.128154,0.025631,120.000000,115.000000,5.000000,10.000000,0.000000,0.000000,0.219693,0.246056,0.064077,0.128154,0.025631,120.000000,115.000000,5.000000,10.000000,0.000000,0.000000:
0000
0000
0000
0000
,
0000
0000
0000
0000
,
0000
0000
0000
0000
,
0000
0000
0000
0000
,
0001
0000
0000
0010
0000
0000
0100
0000
,
1000
0000
0000
0010
0000
0000
1000
0000
,
0001
0000
0000
0010
0000
0000
0100
1000
,
0000
0000
0010
0000
0000
0010
0000
0000
0100
0000
0000
0100
0000
0000
0100
0000
,
0002
0000
0000
0000
1003
0100
1000
0000
,
0020
0000
0000
0000
0130
0001
0100
0000
,
0010
0000
1000
0000
0001
0010
0001
0000
,
0010
0000
0100
0000
1000
0100
1000
0000
,
0002
0000
0000
0000
1003
0010
0100
0000
,
0020
0000
0000
0000
1030
0001
0100
0000
,
0001
0000
0010
0000
0100
1000
0100
0000
,
1000
0001
0100
1001
,
0020
0000
0000
1030
0000
0000
0001
0000
,
0020
0000
0000
0031
0000
0000
1000
0000
,
0010
0010
0100
0100
,
0002
0000
1003
0100
,
0020
0000
0000
0130
0000
0000
1000
0000
,
0002
0000
0000
1003
0000
0000
0010
0000
,
0100
0100
0001
0001
,
1000
0001
0010
0010
,
1001
0000
0010
0000
0001
0000
0010
0100
,
1000
0000
0010
0000
1000
0100
0010
0000
,
0001
0000
0100
0010
1000
0000
0010
0100
,
0001
1000
0100
0100
,
0020
0000
0130
1001
,
0010
1000
0010
1001
,
0100
0001
0100
1001
,
0001
0000
0000
0010
0000
0000
0100
0000
1000
0000
0000
0010
0000
0000
0100
0000
,
0001
0000
0000
0000
;

//---------------dance-single - ----------------
#NOTES:
     dance-single:
     :
     Easy:
     3:
     0.140970,0.184542,0.012815,0.269124,0.000000,77.000000,76.000000,1.000000,21.000000,0.000000,0.000000,0.140970,0.184542,0.012815,0.269124,0.000000,77.000000,76.000000,1.000000,21.000000,0.000000,0.000000:
// measure 0
0000
0000
0000
0000
,  // measure 1
0000
0000
0000
0000
,  // measure 2
0000
0000
0000
0000
,  // measure 3
0000
0000
0000
0000
,  // measure 4
1000
0000
0100
0010
,  // measure 5
0100
0000
0010
0010
,  // measure 6
0001
0000
1000
0000
,  // measure 7
0000
0001
0001
0100
,  // measure 8
2000
0000
3000
0100
,  // measure 9
0002
0000
0003
0100
,  // measure 10
2000
3000
0010
1000
,  // measure 11
0002
0003
0010
0001
,  // measure 12
2000
0000
3000
0100
,  // measure 13
0002
0000
0003
0010
,  // measure 14
1000
0100
1000
0000
,  // measure 15
0001
0010
0001
1000
,  // measure 16
0002
0000
0003
0100
,  // measure 17
0020
0030
1000
0100
,  // measure 18
2000
3000
0002
0003
,  // measure 19
0200
0300
0020
0030
,  // measure 20
2000
0000
3000
0010
,  // measure 21
0002
0003
0010
0100
,  // measure 22
1000
1000
0001
0001
,  // measure 23
0100
0100
0010
0000
,  // measure 24
0200
0000
0300
0010
,  // measure 25
2000
3000
0001
0001
,  // measure 26
0010
0100
0010
0100
,  // measure 27
2000
3000
0002
0003
,  // measure 28
0200
0000
0300
0010
,  // measure 29
2000
3000
0001
0010
,  // measure 30
0200
0300
1000
0001
,  // measure 31
0100
0100
0010
0000
,  // measure 32
1001
0000
0000
0000
;

//---------------dance-single - ----------------
#NOTES:
     dance-single:
     :
     Beginner:
     1:
     0.109846,0.143533,0.038446,0.000000,0.000000,60.000000,57.000000,3.000000,0.000000,0.000000,0.000000,0.109846,0.143533,0.038446,0.000000,0.000000,60.000000,57.000000,3.000000,0.000000,0.000000,0.000000:
// measure 0
0000
0000
0000
0000
,  // measure 1
0000
0000
0000
0000
,  // measure 2
0000
0000
0000
0000
,  // measure 3
0000
0000
0000
0000
,  // measure 4
0010
0000
0000
1000
,  // measure 5
1000
0000
0000
0001
,  // measure 6
0001
0000
0010
0000
,  // measure 7
0100
0000
0000
0000
,  // measure 8
0100
0000
0000
1000
,  // measure 9
1000
0000
0000
0001
,  // measure 10
0001
0000
0010
0000
,  // measure 11
0001
0000
0010
0000
,  // measure 12
1000
0000
0000
0010
,  // measure 13
0010
0000
1000
0000
,  // measure 14
0100
0000
0010
0000
,  // measure 15
0001
0001
0001
0000
,  // measure 16
1001
0000
0000
0010
,  // measure 17
0010
0000
1000
0000
,  // measure 18
0001
0000
1000
0000
,  // measure 19
0100
0000
0010
0000
,  // measure 20
0001
0000
0000
1000
,  // measure 21
1000
0000
0001
0000
,  // measure 22
0100
0000
0100
0000
,  // measure 23
0010
0000
0100
0000
,  // measure 24
1001
0000
0000
0001
,  // measure 25
0001
0000
1000
0000
,  // measure 26
0010
0000
0100
0000
,  // measure 27
0001
0000
1000
0000
,  // measure 28
0010
0000
0000
0100
,  // measure 29
0100
0000
0001
0000
,  // measure 30
1000
0000
0100
0000
,  // measure 31
0010
0000
0100
0000
,  // measure 32
1001
0000
0000
0000
;
