#TITLE:Jawbreaker;
#SUBTITLE:;
#ARTIST:OMORI;
#TITLETRANSLIT:;
#SUBTITLETRANSLIT:;
#ARTISTTRANSLIT:;
#GENRE:OMORI;
#CREDIT:[Ness];
#BANNER:OMORI - Jawbreaker (for TapMania).png;
#BACKGROUND:OMORI - Jawbreaker (for TapMania)-bg.png;
#LYRICSPATH:;
#CDTITLE:;
#MUSIC:OMORI - Jawbreaker (for TapMania).mp3;
#OFFSET:-0.040000;
#SAMPLESTART:57.031364;
#SAMPLELENGTH:16.000000;
#SELECTABLE:YES;
#BPMS:0.000000=240.000000
;
#STOPS:
;
#BGCHANGES:;
#KEYSOUNDS:;
#ATTACKS:;

//---------------dance-single - ----------------
#NOTES:
     dance-single:
     :
     Challenge:
     10:
     0.814420,0.935097,1.105412,0.298088,1.006049,459.000000,370.000000,89.000000,24.000000,112.000000,0.000000,0.814420,0.935097,1.105412,0.298088,1.006049,459.000000,370.000000,89.000000,24.000000,112.000000,0.000000:
0000
0000
0000
0000
,
0000
0000
0000
0000
,
0000
0000
0000
0000
,
0000
0000
0000
0000
,
0000
0000
0000
0000
,
1000
0100
0001
0100
,
0010
0000
0000
0001
0000
0000
1000
0000
0010
0100
0000
0001
,
0000
0000
0001
0100
0000
0010
1000
0000
0000
1100
0000
0000
,
1001
0000
0000
0010
0000
0100
0000
0000
1000
0010
0000
0100
,
0001
0000
0000
0011
0000
0000
1200
0000
0000
0310
0000
0100
,
0000
0000
1MM1
0000
0000
0100
0000
0000
0001
0010
0000
0100
,
1000
0000
0000
0210
0000
0000
0301
0000
0000
1000
0000
0020
,
0000
0130
0110
1MM1
,
0MM1
0000
0000
0101
0000
0000
1020
0000
0000
0130
0000
0010
,
0000
0000
10MM
0000
0000
0001
0000
0000
0010
0100
0000
1000
,
0010
0101
1100
1001
,
1000
0000
0001
0100
0000
0001
1000
0000
0000
1001
0000
0000
,
0010
0000
0000
0101
0000
0000
0100
0000
1010
0000
0M0M
0000
,
1001
0000
0MM0
0000
0000
1100
00MM
0000
0000
0011
MM00
0000
,
1000
0100
0010
0001
1000
0010
0100
0000
M00M
0110
0000
0000
,
1001
0000
0000
0020
0000
020M
0000
0000
0000
M330
0000
00M0
,
0000
0000
0000
0000
0100
0000
0001
0000
0100
0000
0001
0000
0100
0000
0000
0010
0000
0000
1000
0000
0000
0001
0000
0000
0100
0000
0000
0000
0000
0000
0000
0000
00MM
0000
0000
0000
1100
0000
0000
0000
0000
0000
0000
0000
0000
0000
0000
0000
,
0011
0000
0M00
1000
0000
0010
0000
M000
0101
0000
0000
1100
,
00M0
0000
0000
0000
0000
0000
0000
0000
010M
0000
0000
0000
0010
0000
0000
0000
0100
0000
0000
0000
0010
0000
0000
0001
M010
0000
0000
0000
0000
0000
0000
0000
0M00
0000
0000
0000
1001
0000
0000
0000
0000
0000
0000
0000
00M0
0000
0000
0000
,
1000
0000
0010
M100
0000
1001
0000
0000
MMMM
0000
0000
0000
,
0100
0102
1003
2100
,
3001
0000
0000
0201
0000
0000
0310
0000
0000
1001
0000
0001
,
0100
0201
1300
1200
,
0301
0000
0000
0101
0000
0000
0010
0000
0100
1000
0000
0001
,
0100
2010
3100
0102
,
0013
0000
0000
0110
0000
0000
1000
0000
0010
0001
0000
0010
,
0100
0021
1030
1020
,
0031
0000
0000
M1M1
0000
0010
1M0M
0000
0000
1M1M
0000
0000
,
1MM1
0000
0000
0110
0000
0010
1000
0000
0000
1001
0000
0000
,
0010
0000
0001
0100
0000
0010
0000
0000
1000
0010
0000
0100
,
0001
0000
0100
0010
1000
0010
0100
0000
0000
1001
0000
0000
,
0001
0000
0010
0001
0000
1000
0100
0000
0000
0110
0000
0000
,
0010
0000
0001
1000
0000
0010
0100
0000
0000
0101
0000
0000
,
1001
0000
0000
2010
0000
0100
0000
3000
0100
0010
0001
1000
,
0100
0000
0000
0000
1001
0000
0000
0000
M00M
0000
0010
0000
0100
0000
00MM
0000
0000
0000
0010
0000
0000
1001
0000
0000
,
0MM0
0000
0001
0010
M000
0100
1000
000M
0000
0M01
0000
00M0
,
0101
0000
2000
0100
0000
0000
0001
0000
0100
0000
0000
0002
,
0000
0000
0000
0000
3003
0000
0000
0000
1000
0100
0000
0001
,
0100
0000
0000
0110
0000
0000
1001
0000
0000
0110
0000
0200
,
0000
0000
0000
0000
0000
0000
0300
0000
0001
0100
0000
0010
,
1000
0000
0000
0110
0000
0000
0001
0000
0000
1010
0000
0101
,
0000
0000
0001
0010
0100
1000
0010
0000
0000
1001
0000
0000
,
0100
0000
0000
0101
0000
0000
0000
0000
1100
0000
0000
0000
,
0110
0000
0001
0000
0000
1001
0000
0000
0000
1100
0000
0000
,
1001
0000
0000
0010
0000
1000
0020
0000
0000
0130
0000
0000
,
0010
0000
0001
0010
0000
0100
0020
0000
0000
0130
0000
0000
,
0010
0000
1000
0010
0000
1000
0020
0000
0000
0001
0000
0000
,
0130
0000
0010
1000
0000
0001
0010
0000
0000
0100
0000
0000
,
1000
0000
0100
1000
0000
0100
0010
0000
0000
0110
0000
0000
,
0001
0000
0000
2000
0000
0010
3000
0000
0001
0010
0000
0100
,
1000
1100
0101
1001
,
0100
0000
0010
1000
0000
0001
0100
0000
0000
0110
0000
0000
,
1001
0000
0001
M100
0000
0001
1M00
0000
0001
M100
0000
0001
,
1M00
0000
010M
1000
0000
0M01
1000
0000
010M
1000
0000
0M01
,
0010
0000
0100
1000
0000
0001
0100
0000
0000
0110
0000
0000
,
0002
0010
1000
0103
,
0001
0000
0010
0001
0000
10M0
0001
0000
M010
0001
0000
1000
,
001M
0000
1000
00M1
0000
1000
010M
0000
1000
0M01
0000
1000
,
001M
0000
0100
0001
0000
1001
0000
0000
0000
1001
0000
0000
,
0010
0000
0000
1MM1
0000
0000
0110
0000
0000
1MM1
0000
M000
,
0100
M000
010M
0010
000M
0M10
1000
0M00
10M0
0001
00M0
M001
,
0100
M000
010M
0010
000M
0M10
1000
0M00
10M0
0001
00M0
M001
,
0100
M000
0010
1000
0000
0100
0010
0000
0001
0100
0000
0000
,
0001
0000
0010
0001
0000
1000
0010
0000
0100
0001
0000
0000
,
0101
0000
0000
1M1M
0000
0000
0100
0000
11MM
0000
0000
0011
,
0000
0000
0000
1MM1
0000
0000
0110
0000
1MM1
0000
0000
0011
,
0000
1001
0110
1100
,
1MM1
0000
0000
M10M
0000
0100
M01M
0000
0000
0MM1
0000
0001
,
1MM0
0000
0000
0000
,
0000
0000
0000
0000
,
0000
0000
0000
0000
,
0000
0000
0000
0000
,
0000
0000
0000
0000
,
0000
0000
0000
0000
,
0000
MMMM
0000
0000
;

//---------------dance-single - ----------------
#NOTES:
     dance-single:
     :
     Hard:
     9:
     0.560690,0.625261,0.459553,0.198726,0.447133,316.000000,279.000000,37.000000,16.000000,0.000000,0.000000,0.560690,0.625261,0.459553,0.198726,0.447133,316.000000,279.000000,37.000000,16.000000,0.000000,0.000000:
0000
0000
0000
0000
,
0000
0000
0000
0000
,
0000
0000
0000
0000
,
0000
0000
0000
0000
,
0000
0000
0000
0000
,
1000
0010
0100
0001
,
0010
0000
0000
0100
0000
0000
0010
0000
0001
0100
0000
0010
,
0000
0000
1000
0010
0000
0100
0001
0000
0000
1000
0000
0000
,
0100
0000
0000
0010
0000
0001
0000
0000
0000
1001
0000
0000
,
0010
0000
0000
1000
0000
0000
0001
0000
0000
0010
0000
0100
,
0000
0000
1000
0000
0000
0100
0000
0000
0010
0001
0000
0000
,
1000
0000
0000
0001
0000
0000
0100
0000
0000
0010
0000
2000
,
0000
3000
0001
1001
,
0010
0000
0000
0100
0000
0000
1000
0000
0000
0001
0000
0100
,
0000
0000
0010
0000
0000
1000
0000
0000
0001
0010
0000
0000
,
1100
0010
0100
0010
,
1000
0000
0100
1000
0000
0100
1000
0000
0000
0001
0000
0000
,
0000
0000
0000
0110
0000
0000
0000
0000
1001
0000
0000
0000
,
0011
0000
0000
0000
0000
1010
0000
0000
0000
0110
0000
0000
,
1000
0100
0001
0010
,
0100
0000
0000
1000
0000
0200
0000
0000
0000
0300
0000
0000
,
0010
0001
1000
0001
,
0100
0000
0000
0010
0000
1000
0000
0000
0001
0000
0000
0100
,
0000
0000
0010
1000
0000
0000
0001
0000
0000
1001
0000
0000
,
0001
0000
0010
0100
0000
0010
0000
0000
0000
0000
0000
0000
,
1001
0100
0001
0100
,
0010
1000
0100
0010
,
0100
1000
0001
0010
,
0001
0100
0010
1000
,
0100
0001
0100
1000
,
0010
1000
0100
0010
,
0001
0100
1000
0100
,
0001
1001
0110
0110
,
1001
0100
0010
0100
,
0001
0010
0100
1000
,
0010
1000
0100
0010
,
0001
1000
0100
0010
,
0001
0010
1000
0100
,
0001
0100
1000
0010
,
0100
0000
0000
0000
0010
0000
0000
0000
0000
0000
1000
0000
0001
0000
0000
0000
0000
0000
0010
0000
0000
0100
0000
0000
,
0000
0000
1000
0100
0000
0010
0001
0000
0000
1000
0000
0000
,
1001
0000
1000
0100
0000
0000
1000
0000
0100
0000
0000
0002
,
0000
0000
0000
0000
0000
0003
0000
0000
0100
0001
0000
0100
,
0001
0000
0000
1000
0000
0000
0010
0000
0000
1000
0000
0002
,
0000
0000
0000
0000
0000
0000
0003
0000
0010
0100
0000
1000
,
0010
0000
0000
0100
0000
0000
0001
0000
0000
1000
0000
0100
,
0000
0010
0001
1001
,
0000
0000
0000
1010
0000
0000
0000
0000
0101
0000
0000
0000
,
0100
0000
0010
0000
0000
1001
0000
0000
0000
0110
0000
0000
,
1001
0000
0000
1000
0000
0100
2000
0000
0000
3100
0000
0000
,
1000
0000
0100
1000
0000
0100
2000
0000
0000
3100
0000
0000
,
0010
0000
0001
0010
0000
0001
0020
0000
0000
0031
0000
0000
,
0100
0000
0001
0100
0000
0001
0200
0000
0000
0310
0000
0000
,
0000
0000
1000
0010
0000
1000
0010
0000
0000
1000
0000
0000
,
0100
0000
0000
0010
0000
0001
0000
0000
1000
0010
0000
0100
,
0001
0010
0100
1000
,
0001
0000
1000
0010
0000
0100
0001
0000
0000
1000
0000
0000
,
2002
0000
0000
3003
0000
0000
1001
0000
0010
0000
0000
2000
,
0000
3001
0010
0100
,
1000
0000
0001
0100
0000
0020
0000
0000
0000
0000
0000
0000
,
0030
1000
0100
0010
,
0002
0000
0000
0000
0000
0000
1003
0000
0010
0000
0000
1001
,
0000
0001
1000
0010
,
0200
0000
0000
0300
0000
0020
0000
0000
0030
1000
0000
0000
,
0001
1001
0010
0110
,
1001
0000
0000
0100
0000
0000
0010
0000
1000
0000
0000
0100
,
0000
0010
0001
1001
,
0001
0000
0010
0100
0000
2000
0000
0000
0000
0000
0000
0000
,
3000
0001
1000
0010
,
0100
0000
0000
0010
0000
0000
1001
0000
1001
0000
0000
0011
,
0000
0000
0000
0000
0000
0000
1001
0000
1001
0000
0000
1010
,
0000
0000
0000
0000
0000
0000
0110
0000
0110
0000
0000
1001
;

//---------------dance-single - ----------------
#NOTES:
     dance-single:
     :
     Medium:
     7:
     0.420518,0.453343,0.136624,0.086942,0.031051,237.000000,226.000000,11.000000,7.000000,0.000000,0.000000,0.420518,0.453343,0.136624,0.086942,0.031051,237.000000,226.000000,11.000000,7.000000,0.000000,0.000000:
0000
0000
0000
0000
,
0000
0000
0000
0000
,
0000
0000
0000
0000
,
0000
0000
0000
0000
,
0000
0000
0000
0000
,
1000
0001
0100
0000
,
0001
0000
0010
0100
,
1000
0001
0100
0010
,
1000
0001
0100
0000
,
0001
0010
0001
0010
,
0001
1000
0100
0000
,
1000
0010
1000
0001
,
0100
0000
0001
0100
,
0001
0010
0001
0010
,
0001
1000
0100
0000
,
1000
0001
1000
0001
,
0100
0010
0100
0010
,
1000
0010
0000
1000
,
0000
0100
0000
0001
,
0010
0100
0010
0100
,
1000
0001
0100
0000
,
0010
1000
0100
0010
,
0100
1000
0001
0000
,
0010
0001
0100
0010
,
1000
0001
0100
0000
,
1001
0000
0100
0000
,
0010
0000
1000
0100
,
1000
0000
0001
0000
,
0010
0000
0100
1000
,
0001
0100
0001
0000
,
0010
0100
0010
0000
,
0100
1000
0001
0100
,
0010
1000
0001
0000
,
1000
0010
1000
0100
,
1000
0010
1000
0000
,
0001
0100
0001
0010
,
0001
0100
0001
0000
,
0010
0001
0100
1000
,
0100
0001
0010
0000
,
0000
0000
0000
0000
0100
0000
0000
0000
0000
0000
0000
0000
0100
0000
0000
0000
0000
0000
0000
0000
0000
0100
0000
0000
,
0000
0001
1000
1001
,
0000
0001
0010
0100
,
2000
0000
0000
3001
,
1000
0010
0100
0001
,
0200
0000
0000
0310
,
1000
0001
0010
0100
,
0010
0001
0100
0010
,
0000
0000
0000
1000
0000
0000
0000
0000
0001
0000
0000
0000
,
0100
0000
0000
0000
0000
0010
0000
0000
0000
1001
0000
0000
,
0000
1000
0010
0001
,
0010
1000
0010
1000
,
0001
0010
0001
0010
,
1000
0010
0001
0100
,
0000
0001
0100
1000
,
0100
0001
0100
1000
,
0001
1000
0010
0100
,
0001
0010
0100
0000
,
1000
0010
0100
0001
,
0010
1000
0010
0001
,
0100
0010
1000
0100
,
0001
0100
1000
0001
,
1000
0010
0100
0001
,
0010
0001
0100
0010
,
1000
0100
0010
0000
,
0000
2002
3003
0110
,
2002
3003
0010
0001
,
0100
1000
0100
0001
,
0010
0100
2000
0000
,
0000
3001
1000
0010
,
0100
0000
0000
1001
0000
0000
0000
0000
1001
0000
0000
0000
,
0000
0000
0000
0110
0000
0000
0000
0000
0110
0000
0000
0000
,
0000
0001
0100
1000
,
0010
0100
0001
1000
,
1001
0000
0000
0000
;

//---------------dance-single - ----------------
#NOTES:
     dance-single:
     :
     Easy:
     5:
     0.283894,0.362674,0.211146,0.074522,0.000000,160.000000,143.000000,17.000000,6.000000,0.000000,0.000000,0.283894,0.362674,0.211146,0.074522,0.000000,160.000000,143.000000,17.000000,6.000000,0.000000,0.000000:
// measure 0
0000
0000
0000
0000
,  // measure 1
0000
0000
0000
0000
,  // measure 2
0000
0000
0000
0000
,  // measure 3
0000
0000
0000
0000
,  // measure 4
0000
0000
0000
0000
,  // measure 5
1001
0000
0001
0000
,  // measure 6
0100
0000
0010
1000
,  // measure 7
0100
0000
1000
0001
,  // measure 8
0100
0000
0010
0000
,  // measure 9
1000
0000
0001
0000
,  // measure 10
1001
0000
1001
0000
,  // measure 11
0010
0000
0100
0000
,  // measure 12
0110
0000
0010
1000
,  // measure 13
0001
0000
0010
0000
,  // measure 14
1001
0000
0110
0000
,  // measure 15
0001
0000
1000
0000
,  // measure 16
0010
0100
0010
0000
,  // measure 17
1001
0000
0010
0000
,  // measure 18
1000
0000
1000
0000
,  // measure 19
0100
0000
0010
0000
,  // measure 20
0100
0000
0010
0000
,  // measure 21
0001
0000
0100
0000
,  // measure 22
0010
0000
1000
0000
,  // measure 23
0100
0000
0010
0000
,  // measure 24
0001
0000
1000
0000
,  // measure 25
1001
0000
0000
0000
,  // measure 26
0010
0000
0000
0000
,  // measure 27
1000
0000
0100
0000
,  // measure 28
0001
0000
0000
0000
,  // measure 29
0010
0000
0001
0000
,  // measure 30
0010
0000
1000
0000
,  // measure 31
0010
0000
0001
0000
,  // measure 32
0100
0000
0010
0000
,  // measure 33
1000
0000
0100
0000
,  // measure 34
0010
0000
0001
0000
,  // measure 35
1000
0000
0001
0000
,  // measure 36
0100
0000
0010
0000
,  // measure 37
1000
0000
0100
0000
,  // measure 38
0010
0000
0001
0000
,  // measure 39
1000
0000
0001
0000
,  // measure 40
0100
0000
0010
0000
,  // measure 41
1001
0000
0010
0000
,  // measure 42
2000
0000
0000
0000
,  // measure 43
3001
0000
0010
0000
,  // measure 44
0002
0000
0000
0000
,  // measure 45
0013
0000
0100
0000
,  // measure 46
1000
0000
0001
0000
,  // measure 47
0000
2002
0000
3003
,  // measure 48
2002
0000
0000
3003
,  // measure 49
1001
0000
0010
0000
,  // measure 50
0100
0000
0010
0000
,  // measure 51
0100
0000
0010
0000
,  // measure 52
1000
0000
0100
0000
,  // measure 53
0001
0000
1000
0000
,  // measure 54
0001
0000
1000
0000
,  // measure 55
0100
0000
0010
0000
,  // measure 56
0001
0000
1000
0000
,  // measure 57
1001
0000
1001
0000
,  // measure 58
0010
0000
1000
0001
,  // measure 59
0100
0000
0010
0000
,  // measure 60
1000
0000
0100
0010
,  // measure 61
0100
0000
1000
0010
,  // measure 62
1000
0000
0001
1000
,  // measure 63
0100
0000
0010
0000
,  // measure 64
0001
0000
1000
0000
,  // measure 65
1001
0000
1001
0000
,  // measure 66
0010
0000
0100
0001
,  // measure 67
1000
0010
0100
0000
,  // measure 68
0001
0000
1000
0010
,  // measure 69
0100
0000
0010
1000
,  // measure 70
0001
0000
0010
0100
,  // measure 71
1000
0000
0001
1000
,  // measure 72
0010
0000
0000
0000
,  // measure 73
1001
0000
0000
0000
;

//---------------dance-single - ----------------
#NOTES:
     dance-single:
     :
     Beginner:
     3:
     0.184531,0.272006,0.062102,0.000000,0.000000,104.000000,99.000000,5.000000,0.000000,0.000000,0.000000,0.184531,0.272006,0.062102,0.000000,0.000000,104.000000,99.000000,5.000000,0.000000,0.000000,0.000000:
// measure 0
0000
0000
0000
0000
,  // measure 1
0000
0000
0000
0000
,  // measure 2
0000
0000
0000
0000
,  // measure 3
0000
0000
0000
0000
,  // measure 4
0000
0000
0000
0000
,  // measure 5
0010
0000
0010
0000
,  // measure 6
0010
0000
0000
0000
,  // measure 7
0100
0000
0000
0000
,  // measure 8
0001
0000
0000
0000
,  // measure 9
1000
0000
1000
0000
,  // measure 10
1000
0000
1000
0000
,  // measure 11
0100
0000
0100
0000
,  // measure 12
0100
0000
0000
0000
,  // measure 13
0001
0000
0001
0000
,  // measure 14
0001
0000
0001
0000
,  // measure 15
0010
0000
0010
0000
,  // measure 16
0010
0000
0000
0000
,  // measure 17
0100
0000
0100
0000
,  // measure 18
0100
0000
0100
0000
,  // measure 19
1000
0000
0100
0000
,  // measure 20
0001
0000
0100
0000
,  // measure 21
1000
0000
0001
0000
,  // measure 22
1000
0000
1000
0000
,  // measure 23
0001
0000
0001
0000
,  // measure 24
1000
0000
1000
0000
,  // measure 25
1001
0000
0000
0000
,  // measure 26
0000
0000
0000
0000
,  // measure 27
0010
0000
0000
0000
,  // measure 28
0000
0000
0000
0000
,  // measure 29
0100
0000
0100
0000
,  // measure 30
0100
0000
0100
0000
,  // measure 31
0100
0000
0000
0000
,  // measure 32
0001
0000
0000
0000
,  // measure 33
0010
0000
0000
0000
,  // measure 34
0000
0000
0000
0000
,  // measure 35
0100
0000
0000
0000
,  // measure 36
0000
0000
0000
0000
,  // measure 37
1000
0000
1000
0000
,  // measure 38
1000
0000
1000
0000
,  // measure 39
1000
0000
0000
0000
,  // measure 40
0000
0000
0000
0000
,  // measure 41
1001
0000
0000
0000
,  // measure 42
0000
0000
0000
0000
,  // measure 43
0010
0000
0010
0000
,  // measure 44
0001
0000
0000
0000
,  // measure 45
1000
0000
1000
0000
,  // measure 46
0001
0000
0001
0000
,  // measure 47
0000
0000
0000
0000
,  // measure 48
0000
0000
0000
0000
,  // measure 49
1001
0000
0000
0000
,  // measure 50
0100
0000
0000
0000
,  // measure 51
0010
0000
0000
0000
,  // measure 52
0100
0000
0000
0000
,  // measure 53
0001
0000
0001
0000
,  // measure 54
0010
0000
0010
0000
,  // measure 55
0100
0000
0100
0000
,  // measure 56
1000
0000
1000
0000
,  // measure 57
1001
0000
1000
0000
,  // measure 58
1000
0000
1000
0000
,  // measure 59
0001
0000
0001
0000
,  // measure 60
0001
0000
0001
0000
,  // measure 61
0100
0000
0100
0000
,  // measure 62
0100
0000
0100
0000
,  // measure 63
0010
0000
0010
0000
,  // measure 64
0010
0000
0010
0000
,  // measure 65
1000
0000
1000
0000
,  // measure 66
0100
0000
0100
0000
,  // measure 67
0010
0000
0010
0000
,  // measure 68
0001
0000
0001
0000
,  // measure 69
1000
0000
0000
0000
,  // measure 70
0001
0000
0000
0000
,  // measure 71
0100
0000
0000
0000
,  // measure 72
0010
0000
0000
0000
,  // measure 73
1001
0000
0000
0000
;
