#TITLE:I Will Catch Up!;
#SUBTITLE:;
#ARTIST:OMORI;
#TITLETRANSLIT:;
#SUBTITLETRANSLIT:;
#ARTISTTRANSLIT:;
#GENRE:OMORI;
#CREDIT:[Ness];
#BANNER:OMORI - I Will Catch Up (for TapMania).png;
#BACKGROUND:OMORI - I Will Catch Up (for TapMania)-bg.png;
#LYRICSPATH:;
#CDTITLE:;
#MUSIC:OMORI - I Will Catch Up (for TapMania).mp3;
#OFFSET:-0.040000;
#SAMPLESTART:25.631363;
#SAMPLELENGTH:12.800003;
#SELECTABLE:YES;
#BPMS:0.000000=150.000000
;
#STOPS:
;
#BGCHANGES:;
#KEYSOUNDS:;
#ATTACKS:;

//---------------dance-single - ----------------
#NOTES:
     dance-single:
     :
     Hard:
     7:
     0.364833,0.440949,0.229661,0.496068,0.000000,278.000000,253.000000,25.000000,54.000000,0.000000,0.000000,0.364833,0.440949,0.229661,0.496068,0.000000,278.000000,253.000000,25.000000,54.000000,0.000000,0.000000:
0000
0000
0000
0000
,
0000
0000
0000
0000
,
0000
0000
0000
0000
,
0000
0000
0000
0000
,
0000
0000
0000
0000
,
0000
0000
0000
0000
,
0000
0000
0000
0000
,
0000
0000
0000
0000
,
0200
0000
0320
0000
,
0032
0000
0000
0000
,
0003
0000
0200
0000
,
0320
0000
0000
0032
0000
0000
2003
0000
,
3200
0300
0220
0000
,
0000
0000
0330
0000
,
0000
0000
0000
0000
,
0000
0000
2002
3003
,
0001
1000
0001
1000
0100
0010
0100
0010
,
0200
0000
0001
1300
,
1100
0000
1001
0000
1000
0001
0100
0000
,
0010
0000
1000
0001
0000
1000
0100
0100
,
1100
0000
0001
1000
0020
0000
0130
0000
,
0001
0100
0001
1000
0001
0100
0002
0000
,
1003
0000
0001
0000
0010
0100
0010
0000
,
0001
0000
0001
1000
0000
1000
0100
0000
,
1000
0010
1000
0001
0100
0010
0100
0001
,
0020
0000
1000
0031
,
0011
0000
1001
0000
1000
0001
0010
0000
,
0100
0000
1000
0010
0000
0100
0001
1000
,
0100
0000
0010
0001
2000
0000
3001
0000
,
0010
0100
0010
0001
1000
0100
2000
0000
,
3001
0000
0100
0000
0010
1000
0100
0000
,
0001
0010
0001
1000
0000
0001
0100
0000
,
0201
1000
0320
0001
,
2030
0000
3100
0010
0001
0100
0001
0000
,
1000
0001
2001
3100
,
0020
0000
0001
0100
0000
0001
0100
0000
,
0031
0100
0202
0303
,
1000
0000
0100
0000
0001
1000
0010
0000
,
0100
0001
1000
0000
0100
0000
0010
0000
,
0022
0000
0030
0200
0000
0300
1003
0000
,
1200
0001
0320
1000
,
0032
0000
0103
0010
1000
0001
0020
0000
,
0130
0000
1000
0000
0001
0010
0100
0000
,
2000
0000
0010
0100
0000
0010
3100
0000
,
1001
0100
2010
3100
,
1002
0000
0103
0000
1000
0001
2002
0000
,
3003
0000
0001
0010
0100
1000
0001
1000
,
0100
0000
0010
0001
0000
1000
0001
0010
,
0022
0003
0100
0031
,
2000
0000
3002
2003
,
3100
1000
0101
0010
,
1000
0000
0100
0010
0000
0100
0010
0000
,
0011
0000
1000
0020
1000
0030
0001
0200
,
0001
0300
1000
0001
1000
0000
0202
0000
,
0303
0000
1001
0010
,
1000
0100
0010
0001
0000
0001
0010
0100
,
1000
0000
1100
0000
1000
0001
1000
0100
,
1000
0000
0101
0000
0001
1000
0001
0100
,
0001
0000
0010
0000
0100
1000
0001
0100
,
0010
0000
1000
0010
0200
0000
0301
1000
,
0002
0000
0013
0000
0100
0010
0200
0000
,
2300
0000
3010
0200
0000
0301
0020
0000
,
0130
0000
0100
0010
0220
0000
0330
0000
,
0000
0000
0001
0000
1000
0001
0100
0000
,
1001
0000
0000
0000
;

//---------------dance-single - ----------------
#NOTES:
     dance-single:
     :
     Medium:
     5:
     0.227036,0.323363,0.110237,0.376644,0.000000,173.000000,161.000000,12.000000,41.000000,0.000000,0.000000,0.227036,0.323363,0.110237,0.376644,0.000000,173.000000,161.000000,12.000000,41.000000,0.000000,0.000000:
0000
0000
0000
0000
,
0000
0000
0000
0000
,
0000
0000
0000
0000
,
0000
0000
0000
0000
,
0000
0000
0000
0000
,
0000
0000
0000
0000
,
0000
0000
0000
0000
,
0000
0000
0000
0000
,
0200
0300
0020
0030
,
2000
0000
0000
0000
,
3000
0000
0200
0300
,
0020
0000
0030
0002
0000
0003
1000
0000
,
0200
0300
0220
0000
,
0000
0000
0330
0000
,
0000
0000
0000
0000
,
0000
0000
2002
3003
,
1000
0001
0100
0000
0010
0000
1000
0000
,
0200
0000
0310
0000
,
0001
1000
0001
0010
,
0100
0000
1000
0010
0000
0000
0100
0001
,
1000
0000
2002
3003
,
0010
0000
0001
0010
,
0100
0000
0010
0100
,
1000
0000
0001
0100
0000
0000
0101
0000
,
0001
0010
0100
1000
,
0020
0000
0130
2002
,
3003
0000
0000
0010
,
1000
0000
0100
0010
0000
0000
0001
1000
,
0200
0000
0320
0000
,
0032
0000
1003
1001
,
0010
0100
0010
0000
,
1000
0100
0001
0100
,
1000
0000
0010
0000
,
0001
0100
0010
1000
0200
0000
0000
0000
,
0320
0000
0230
0000
,
1300
0000
0000
1001
0000
0000
0110
0000
,
0100
0001
2000
0000
,
3020
0000
1030
0100
,
0020
0000
0031
1000
,
0010
0000
1000
0100
0000
0000
0010
0001
,
0100
0001
1000
0010
,
0100
0001
0010
0220
,
0330
0000
0000
1000
,
0010
0000
0100
0001
0000
0000
1000
0001
,
0100
0010
2000
0000
,
3100
0010
0100
1001
,
0010
0001
0100
0000
,
1000
0100
0001
0000
,
2000
0000
3001
1000
,
0200
0000
0310
0100
,
0000
0000
0000
0010
,
0002
0000
0003
2000
0000
3000
0020
0000
,
0230
0000
0301
1000
,
0200
0000
0310
1001
,
0010
0000
0100
1000
,
0010
0000
1000
0001
0000
0000
1000
0010
,
0100
0010
1000
0000
,
0001
0100
0010
1000
,
0100
0010
0001
0000
,
0020
0030
0200
0300
,
2000
0000
3000
0001
,
1000
0000
0000
0010
0000
0000
0100
0000
,
0001
0010
2002
0000
,
0000
0000
3003
0000
,
0010
0000
0000
0000
;

//---------------dance-single - ----------------
#NOTES:
     dance-single:
     :
     Easy:
     3:
     0.166668,0.264570,0.018373,0.505255,0.000000,127.000000,125.000000,2.000000,55.000000,0.000000,0.000000,0.166668,0.264570,0.018373,0.505255,0.000000,127.000000,125.000000,2.000000,55.000000,0.000000,0.000000:
// measure 0
0000
0000
0000
0000
,  // measure 1
0000
0000
0000
0000
,  // measure 2
0000
0000
0000
0000
,  // measure 3
0000
0000
0000
0000
,  // measure 4
0000
0000
0000
0000
,  // measure 5
0000
0000
0000
0000
,  // measure 6
0000
0000
0000
0000
,  // measure 7
0000
0000
0000
0000
,  // measure 8
0200
0300
0020
0030
,  // measure 9
2000
0000
0000
0000
,  // measure 10
3000
0000
0200
0300
,  // measure 11
0020
0000
0031
1000
,  // measure 12
0200
0300
0220
0000
,  // measure 13
0000
0000
0330
0000
,  // measure 14
0000
0000
0000
0000
,  // measure 15
0000
0000
2002
3003
,  // measure 16
0200
0300
0002
0003
,  // measure 17
2000
0000
0000
3000
,  // measure 18
0000
0000
0200
0300
,  // measure 19
0020
0030
0001
1000
,  // measure 20
0200
0300
0020
0030
,  // measure 21
0002
0000
0003
1000
,  // measure 22
0002
0000
0003
0010
,  // measure 23
0100
1000
0001
0100
,  // measure 24
0020
0030
2000
3000
,  // measure 25
0200
0000
0300
0020
,  // measure 26
0000
0030
0000
0001
,  // measure 27
1000
0001
0100
0100
,  // measure 28
0001
1000
0200
0300
,  // measure 29
0010
0100
0010
0002
,  // measure 30
0000
0003
1000
0000
,  // measure 31
0100
0000
0010
0000
,  // measure 32
0200
0300
2000
3000
,  // measure 33
0002
0000
0003
0000
,  // measure 34
0000
0000
0200
0300
,  // measure 35
0010
1000
0001
0100
,  // measure 36
0002
0003
2000
0000
,  // measure 37
0000
3000
0100
0010
,  // measure 38
0002
0003
0010
0100
,  // measure 39
1000
0001
0100
0010
,  // measure 40
2000
3000
0020
0030
,  // measure 41
0200
0300
0001
0020
,  // measure 42
0000
0030
0100
0010
,  // measure 43
0001
1000
0100
0010
,  // measure 44
0200
0300
2000
3000
,  // measure 45
0002
0003
0100
0010
,  // measure 46
0200
0000
0301
0000
,  // measure 47
2000
0000
3001
0000
,  // measure 48
0020
0000
0000
0130
,  // measure 49
2000
0000
3010
0100
,  // measure 50
0002
0000
0003
0010
,  // measure 51
0002
0003
1000
0100
,  // measure 52
2000
3000
0020
0030
,  // measure 53
0200
0300
0001
1000
,  // measure 54
0001
0000
0010
0100
,  // measure 55
0010
0000
0001
0000
,  // measure 56
0200
0300
0010
0000
,  // measure 57
2000
3000
0100
0010
,  // measure 58
0002
0003
1000
0000
,  // measure 59
0020
0030
2000
3000
,  // measure 60
0002
0003
0010
0100
,  // measure 61
1000
0001
0100
0010
,  // measure 62
1000
0100
0020
0000
,  // measure 63
0000
0000
0030
0000
,  // measure 64
0100
0000
0000
0000
;

//---------------dance-single - ----------------
#NOTES:
     dance-single:
     :
     Beginner:
     2:
     0.099739,0.145835,0.000000,0.367458,0.000000,76.000000,76.000000,0.000000,40.000000,0.000000,0.000000,0.099739,0.145835,0.000000,0.367458,0.000000,76.000000,76.000000,0.000000,40.000000,0.000000,0.000000:
// measure 0
0000
0000
0000
0000
,  // measure 1
0000
0000
0000
0000
,  // measure 2
0000
0000
0000
0000
,  // measure 3
0000
0000
0000
0000
,  // measure 4
0000
0000
0000
0000
,  // measure 5
0000
0000
0000
0000
,  // measure 6
0000
0000
0000
0000
,  // measure 7
0000
0000
0000
0000
,  // measure 8
0100
0000
0100
0000
,  // measure 9
0100
0000
0000
0000
,  // measure 10
0000
0000
0001
0000
,  // measure 11
0001
0000
0001
0000
,  // measure 12
1000
0000
1000
0000
,  // measure 13
0000
0000
0000
0000
,  // measure 14
0000
0000
0000
0000
,  // measure 15
0000
0000
0000
0000
,  // measure 16
0020
0030
0020
0030
,  // measure 17
0020
0000
0030
0000
,  // measure 18
0000
0000
0200
0300
,  // measure 19
0200
0300
0200
0300
,  // measure 20
0200
0300
0200
0000
,  // measure 21
0000
0000
0300
0002
,  // measure 22
0003
0000
0000
0000
,  // measure 23
2000
3000
0002
0003
,  // measure 24
2000
3000
2000
3000
,  // measure 25
2000
0000
3000
2000
,  // measure 26
0000
3000
0000
0010
,  // measure 27
0010
0000
0010
0000
,  // measure 28
0200
0000
0300
0000
,  // measure 29
0200
0000
0300
0002
,  // measure 30
0000
0000
0003
0000
,  // measure 31
0000
0000
0000
0000
,  // measure 32
0020
0030
0020
0030
,  // measure 33
0020
0000
0030
0000
,  // measure 34
0000
0000
0200
0300
,  // measure 35
0200
0300
0200
0300
,  // measure 36
0200
0300
0200
0000
,  // measure 37
0000
0300
0000
2000
,  // measure 38
0000
3000
0000
0010
,  // measure 39
0020
0030
2000
3000
,  // measure 40
0002
0003
2000
3000
,  // measure 41
0002
0000
0003
0020
,  // measure 42
0000
0000
0030
0100
,  // measure 43
0200
0300
0200
0300
,  // measure 44
0200
0300
0000
0000
,  // measure 45
2000
3000
0000
0020
,  // measure 46
0030
0000
0000
0000
,  // measure 47
0000
0000
0000
0000
,  // measure 48
0000
0000
0000
0100
,  // measure 49
0100
0000
0001
0001
,  // measure 50
0000
0000
0000
1000
,  // measure 51
1000
0000
1000
0000
,  // measure 52
1000
0000
0010
0000
,  // measure 53
0001
0000
0000
0020
,  // measure 54
0000
0030
0000
0100
,  // measure 55
0100
0000
1000
0000
,  // measure 56
0001
0000
0000
0000
,  // measure 57
0000
0000
1000
1000
,  // measure 58
0000
0000
0000
0000
,  // measure 59
0010
0000
0100
0000
,  // measure 60
0001
0000
0000
0010
,  // measure 61
0010
0000
0100
0000
,  // measure 62
1000
0000
0020
0000
,  // measure 63
0000
0000
0030
0000
;
