#TITLE:Grimey;
#SUBTITLE:;
#ARTIST:OMORI;
#TITLETRANSLIT:;
#SUBTITLETRANSLIT:;
#ARTISTTRANSLIT:;
#GENRE:OMORI;
#CREDIT:[Ness];
#BANNER:OMORI - Grimey (for TapMania).png;
#BACKGROUND:OMORI - Grimey (for TapMania)-bg.png;
#LYRICSPATH:;
#CDTITLE:;
#MUSIC:OMORI - Grimey (for TapMania).mp3;
#OFFSET:-0.040000;
#SAMPLESTART:13.669899;
#SAMPLELENGTH:17.560976;
#SELECTABLE:YES;
#BPMS:0.000000=123.000000
;
#STOPS:103.000000=-7.804878
;
#BGCHANGES:;
#KEYSOUNDS:;
#ATTACKS:;

//---------------dance-single - ----------------
#NOTES:
     dance-single:
     :
     Challenge:
     10:
     0.640578,0.921880,0.744954,0.014326,0.637508,313.000000,261.000000,52.000000,1.000000,4.000000,5.000000,0.640578,0.921880,0.744954,0.014326,0.637508,313.000000,261.000000,52.000000,1.000000,4.000000,5.000000:
0000
0000
0000
0000
,
0000
0000
0000
0000
,
0000
0000
0000
0000
,
0000
0000
0000
0000
,
0001
1000
0010
0100
,
0001
0010
0100
1000
,
0010
0100
0001
1000
,
0001
0010
0000
1000
0010
0000
0001
0010
0000
1000
0010
0000
0001
1000
0010
0000
,
0110
0100
0001
0000
1001
0000
1000
0000
0100
1000
0001
0000
0101
0000
0101
0000
,
0001
0010
0100
0000
1100
0000
1000
0000
0001
0010
0001
0000
1001
0000
1001
0000
,
1000
0010
0100
0000
1010
0000
0100
0000
0010
0100
0001
0000
0110
0000
0101
0000
,
1000
0001
0100
0000
1001
0000
0100
0000
0010
1000
0100
0000
1001
0000
1100
0000
,
0001
0010
0100
0000
0011
0000
0100
0000
1000
0100
0010
0000
1100
0000
0101
0000
,
1000
0010
0100
0000
1010
0000
0100
0000
0001
0100
0010
0000
0101
0000
1001
0000
,
0001
0010
0100
0000
0110
0000
1000
0000
0001
1000
0100
0000
1100
0000
1001
0000
,
1000
0010
0100
0000
1010
0000
0100
0000
0001
0010
0100
0000
0011
0000
1001
0000
,
1000
0010
0100
0000
1001
0000
0100
0000
0001
1000
0100
0000
1001
0000
0101
0000
,
1000
0010
0100
0000
0110
0000
0001
0000
0010
0100
1000
0000
1100
0000
1001
0000
,
1000
0100
0001
0000
0110
0000
0100
0000
1000
0010
0001
0000
1001
0000
1010
0000
,
1000
0001
0010
0000
0110
0000
0001
0000
0100
0010
1000
0000
1100
0000
0101
0000
,
1001
0000
0001
0100
0010
1000
0010
0100
0001
1000
0001
0100
0010
1000
0010
0100
,
0001
1000
0001
0100
0010
1000
0010
0100
0001
1000
0001
0100
0010
1000
0010
0100
,
0001
1000
0010
0100
0001
1000
0001
0100
0001
1000
0010
0100
0001
1000
0001
0100
,
0001
1000
0010
0100
0001
1000
0001
0100
0001
1000
0010
0100
0001
1000
0001
0100
,
0010
0000
0000
0000
1100
0000
0000
0010
0100
0000
0100
0000
0101
0000
0000
0001
,
1000
0000
0000
0000
1001
0000
0000
0010
0001
0000
1000
0000
0110
0000
0000
0000
,
M000
0000
0000
0000
M000
0000
0000
0000
M000
0000
0000
0000
M0MM
0000
0000
0000
M000
0000
0000
0000
M000
000M
0000
0000
M0M0
0000
0000
0000
M000
0000
00M0
0000
M000
0000
0000
0000
M0MM
0000
0000
0000
M000
0000
0000
0000
M000
0000
0000
0000
,
MM0M
0000
0000
0000
M000
0000
0000
0000
M000
0000
0000
0000
M0MM
0000
0000
0000
M000
0000
0000
0000
M000
0M00
0000
0000
M0M0
0000
0000
0000
M000
0000
0M00
0000
M000
0000
0000
0000
M0M0
0000
0000
0000
M000
0000
0000
0000
M000
0000
0000
0000
,
M0MM
0000
0000
0000
,
0000
0000
0000
0000
,
2000
0000
0000
0000
0011
0000
0000
0001
0010
0000
0010
0000
0011
0000
0000
0000
,
0101
0000
0000
0000
0011
0000
0000
0100
0010
0000
0100
0000
0010
0000
0000
0000
,
3011
0000
1001
1100
,
0001
0000
1000
0000
0001
0000
1000
0100
0001
0000
0110
0000
1100
0000
0000
0000
,
0010
0000
1000
0000
0001
0000
1000
0100
0000
0010
0001
0000
0110
0000
0000
0000
,
0001
0000
0100
0000
0001
0000
1000
0100
0010
0000
0011
0000
0001
1000
0001
1000
,
0100
0000
0000
0000
,
0000
0000
0000
0000
,
0000
0000
0000
0000
,
MMMM
0000
0000
0000
;

//---------------dance-single - ----------------
#NOTES:
     dance-single:
     :
     Hard:
     7:
     0.386803,0.464163,0.100282,0.085956,0.136097,189.000000,182.000000,7.000000,6.000000,0.000000,0.000000,0.386803,0.464163,0.100282,0.085956,0.136097,189.000000,182.000000,7.000000,6.000000,0.000000,0.000000:
0000
0000
0000
0000
,
0000
0000
0000
0000
,
0000
0000
0000
0000
,
0000
0000
0000
0000
,
0001
1000
0010
0100
,
0001
0010
0100
1000
,
0010
0100
0001
1000
,
0001
1000
0000
0001
1000
0000
0001
1000
0000
0001
1000
0000
0200
0000
0000
0000
,
0310
0000
0001
0100
1000
1000
0100
0001
,
0001
0000
1000
0010
0100
0001
0020
0000
,
0130
0000
1000
0100
0001
0001
0100
1000
,
1000
0000
0001
0000
0100
0010
0010
0010
,
1000
0001
0100
0010
0001
0010
0100
0001
,
0001
1000
0100
1000
0001
1000
0020
0000
,
0130
0001
1000
0100
0010
0100
1000
0100
,
0010
0001
1000
0001
0100
0010
0010
0010
,
1001
0000
0010
0100
1000
1000
0100
0010
,
0010
0000
1000
0001
0100
0010
2000
0000
,
3100
0000
0001
0100
0010
0010
0001
1000
,
0010
0000
0100
0000
0001
1000
1000
1000
,
0010
0000
0100
0000
0001
0000
1000
0100
0000
0000
0010
0000
0000
0000
0010
0000
,
0001
0000
1000
0000
0010
0000
0100
0001
0000
0000
1000
0000
0000
0000
1000
0000
,
0100
0000
0010
0000
0001
0000
0100
0010
0000
0000
1000
0000
0000
0000
1000
0000
,
0001
0000
0010
0000
0100
0000
1000
0100
0000
0010
0000
0001
0100
0000
0010
0000
,
1000
0000
0000
0000
1100
0000
0000
0010
0100
0000
0100
0000
0001
0000
0000
0001
,
1000
0000
0000
0000
1001
0000
0000
0010
0100
0000
0010
0000
1000
0000
0000
0000
,
00M0
0000
0000
0000
M0M0
0000
0000
0M00
000M
0000
M000
0000
0M00
0000
0000
00M0
,
000M
0000
0000
0000
M00M
0000
0000
00M0
0M00
0000
00M0
0000
M000
0000
0000
0000
,
0000
0000
0000
0000
,
0000
0000
0000
0000
,
0010
0000
0000
0000
1010
0000
0000
0100
0001
0000
1000
0000
0100
0000
0000
0010
,
0001
0000
0000
0000
1001
0000
0000
0010
0100
0000
0010
0000
1000
0000
0000
0000
,
2200
3300
0001
0100
,
0001
0000
1000
0000
0010
0100
0100
0000
,
0101
0000
0001
0000
1000
0100
1000
0100
,
0010
0001
0010
0001
1000
0100
0010
0001
,
1000
0000
0000
0000
;

//---------------dance-single - ----------------
#NOTES:
     dance-single:
     :
     Medium:
     5:
     0.280381,0.335229,0.071630,0.143260,0.114608,137.000000,132.000000,5.000000,10.000000,0.000000,0.000000,0.280381,0.335229,0.071630,0.143260,0.114608,137.000000,132.000000,5.000000,10.000000,0.000000,0.000000:
0000
0000
0000
0000
,
0000
0000
0000
0000
,
0000
0000
0000
0000
,
0000
0000
0000
0000
,
0001
1000
0010
0100
,
0001
0010
0100
1000
,
0010
0100
0001
1000
,
0001
0000
0000
1000
0000
0000
0001
0000
0000
1000
0000
0000
0001
0000
0000
0000
,
0110
0000
1000
0100
0001
0000
0001
0100
,
0010
0000
0010
0100
0001
0000
0020
0000
,
0031
0000
1000
0100
0001
0000
0001
0100
,
1000
0100
0020
0130
,
1000
0000
0001
1000
0100
0000
0010
0001
,
0100
0000
0001
1000
0100
0000
0020
0000
,
0031
0000
1000
0001
0100
0000
0001
0100
,
0010
1000
0002
0103
,
0001
0000
0010
0100
1000
0000
0100
0010
,
0001
0000
1000
0100
0010
0000
0200
0000
,
1300
0000
0001
1000
0010
0000
0100
0001
,
1000
0010
2000
3001
,
0011
0000
1000
0100
1000
0000
0001
0000
,
0010
0000
0100
0010
0100
0000
1000
0000
,
0001
0000
0100
0010
0100
0000
0001
0000
,
1000
0000
0010
0000
0100
0001
1000
0010
,
0200
0001
0010
0010
,
1000
0001
0010
0301
,
00M0
00M0
00M0
M0M0
00M0
00M0
0MM0
00M0
00M0
0MM0
00M0
00M0
,
00MM
00M0
00M0
0MM0
00M0
00M0
M0M0
00M0
00M0
0MM0
0000
0000
,
0000
0000
0000
0000
,
0000
0000
0000
0000
,
0020
1000
0100
0100
,
0001
0100
1000
0130
,
0220
0330
0000
0000
,
0001
1000
0100
0000
0001
0000
0100
0000
,
1000
0001
1000
0000
0010
0000
0100
0000
,
0010
1000
1100
0011
,
0100
0000
0000
0000
;

//---------------dance-single - ----------------
#NOTES:
     dance-single:
     :
     Easy:
     3:
     0.200564,0.283655,0.042978,0.028652,0.000000,98.000000,95.000000,3.000000,2.000000,0.000000,0.000000,0.200564,0.283655,0.042978,0.028652,0.000000,98.000000,95.000000,3.000000,2.000000,0.000000,0.000000:
// measure 0
0000
0000
0000
0000
,  // measure 1
0000
0000
0000
0000
,  // measure 2
0000
0000
0000
0000
,  // measure 3
0000
0000
0000
0000
,  // measure 4
0001
1000
0010
0100
,  // measure 5
0001
0010
0100
1000
,  // measure 6
0010
0100
0001
1000
,  // measure 7
0100
0000
0000
0000
,  // measure 8
0010
0001
0100
0100
,  // measure 9
0001
0001
1000
0001
,  // measure 10
1000
0100
1000
1000
,  // measure 11
0010
0010
0100
0000
,  // measure 12
0001
0010
0100
0100
,  // measure 13
0010
0010
0100
1000
,  // measure 14
0100
0100
1000
1000
,  // measure 15
0001
0001
1000
0000
,  // measure 16
0010
1000
0010
0010
,  // measure 17
0100
0100
0001
0100
,  // measure 18
0001
0001
1000
1000
,  // measure 19
0100
0100
0010
0100
,  // measure 20
0010
0000
0010
0000
,  // measure 21
0010
0000
0010
0000
,  // measure 22
0001
0100
1000
0000
,  // measure 23
1000
0100
0001
0000
,  // measure 24
1001
1000
0001
1000
,  // measure 25
0001
1000
0001
1000
,  // measure 26
0FF0
00F0
0F00
00F0
,  // measure 27
0F00
00F0
0F00
00F0
,  // measure 28
0000
0000
0000
0000
,  // measure 29
0000
0000
0000
0000
,  // measure 30
0110
0010
0100
0010
,  // measure 31
0100
0010
0100
0010
,  // measure 32
2002
3003
0000
0000
,  // measure 33
0001
0001
1000
0000
,  // measure 34
0010
0000
0100
0000
,  // measure 35
0001
1000
0100
0100
,  // measure 36
0001
0000
0000
0000
;

//---------------dance-single - ----------------
#NOTES:
     dance-single:
     :
     Beginner:
     1:
     0.126888,0.154721,0.028652,0.000000,0.000000,62.000000,60.000000,2.000000,0.000000,0.000000,0.000000,0.126888,0.154721,0.028652,0.000000,0.000000,62.000000,60.000000,2.000000,0.000000,0.000000,0.000000:
// measure 0
0000
0000
0000
0000
,  // measure 1
0000
0000
0000
0000
,  // measure 2
0000
0000
0000
0000
,  // measure 3
0000
0000
0000
0000
,  // measure 4
0001
0000
0001
0000
,  // measure 5
1000
0000
0100
0000
,  // measure 6
1000
0000
1000
0000
,  // measure 7
0001
0000
0000
0000
,  // measure 8
0100
0000
1000
0000
,  // measure 9
0100
0000
0001
0001
,  // measure 10
0001
0000
1000
0000
,  // measure 11
0001
0000
0010
0010
,  // measure 12
0010
0000
0100
0000
,  // measure 13
0010
0000
0100
0100
,  // measure 14
0100
0000
1000
0000
,  // measure 15
0001
0000
1000
1000
,  // measure 16
1000
0000
0001
0000
,  // measure 17
0100
0000
0010
0010
,  // measure 18
0010
0000
1000
0000
,  // measure 19
0100
0000
0010
0010
,  // measure 20
0010
0000
0001
0000
,  // measure 21
0010
0000
1000
0000
,  // measure 22
0010
0000
0001
0000
,  // measure 23
1000
0000
0001
0000
,  // measure 24
1001
0000
0010
0000
,  // measure 25
0001
0000
0100
0000
,  // measure 26
F00F
0000
00F0
0000
,  // measure 27
F000
0000
0F00
0000
,  // measure 28
0000
0000
0000
0000
,  // measure 29
0000
0000
0000
0000
,  // measure 30
1001
0000
0010
0000
,  // measure 31
1000
0000
0100
0000
,  // measure 32
0001
0000
0000
0000
,  // measure 33
1000
0000
0100
0000
,  // measure 34
0010
0000
0010
0000
,  // measure 35
0100
0000
0000
0000
,  // measure 36
1000
0000
0000
0000
;
