#TITLE:Forest Frenzy;
#SUBTITLE:;
#ARTIST:OMORI;
#TITLETRANSLIT:;
#SUBTITLETRANSLIT:;
#ARTISTTRANSLIT:;
#GENRE:OMORI;
#CREDIT:[Ness];
#BANNER:OMORI - Forest Frenzy (for TapMania).png;
#BACKGROUND:OMORI - Forest Frenzy (for TapMania)-bg.png;
#LYRICSPATH:;
#CDTITLE:;
#MUSIC:OMORI - Forest Frenzy (for TapMania).mp3;
#OFFSET:0.150000;
#SAMPLESTART:12.703459;
#SAMPLELENGTH:14.160839;
#SELECTABLE:YES;
#BPMS:0.000000=143.000000
;
#STOPS:30.000000=0.210000,
271.500000=0.210000
;
#BGCHANGES:;
#KEYSOUNDS:;
#ATTACKS:;

//---------------dance-single - [Ness]----------------
#NOTES:
     dance-single:
     [Ness]:
     Challenge:
     9:
     0.691016,0.705957,0.539273,0.171587,0.661835,592.000000,526.000000,66.000000,21.000000,22.000000,0.000000,0.691016,0.705957,0.539273,0.171587,0.661835,592.000000,526.000000,66.000000,21.000000,22.000000,0.000000:
0000
0000
0000
0000
,
0000
0000
0000
0000
,
0000
0000
0000
0000
,
0000
0000
0000
0000
,
0000
0000
0002
0000
0000
2003
0000
0000
3020
0000
0000
0000
0100
0000
0000
0130
,
0000
0000
0210
0000
0000
0010
0300
0100
0001
0100
0001
0000
0000
1000
0100
0000
,
0010
0000
2100
0000
0000
0001
0000
0000
3010
0000
0000
0000
0100
0000
0001
0000
,
1000
0000
0110
0000
0000
0101
0000
0000
1001
0001
0100
0000
0010
0000
1000
0000
,
1100
0000
0100
0010
0001
0000
1000
0010
0000
0100
0001
0000
1000
0000
0001
0000
,
0100
0000
0000
0010
1000
0001
1000
0000
0000
0000
1010
0000
0000
0000
0101
0000
,
0100
0000
0000
0001
0010
0100
0010
0001
1000
0000
1001
0000
0000
0000
0100
0000
,
0010
0000
0000
1000
0000
0000
0001
0000
0000
0000
0011
0000
1000
0000
1010
0000
,
0100
0000
0001
1000
0100
0000
0010
0001
0000
1000
0010
0000
0100
0000
0001
0000
,
1000
0000
0000
0100
0010
0000
0000
0001
0000
0000
0110
0000
0000
0000
1000
0000
,
0100
0000
0000
0010
0001
1000
0001
0000
0000
0000
0101
0000
0000
0000
1010
0000
,
0100
0000
0010
1000
0000
1000
0100
0000
0000
0000
1100
0000
0000
0000
0101
0000
,
0100
0000
0000
0001
1000
0100
0010
0000
0000
0000
1001
0000
0000
0000
0010
0000
,
0001
0000
0000
1000
0010
0100
0010
0000
0000
0000
1001
0000
0000
0000
0110
0000
,
0100
0000
0000
0001
1000
0100
1000
0000
0000
0000
1100
0000
0000
0000
0001
0010
,
0100
0000
1000
0000
0001
0000
0100
0010
0100
0000
0000
0110
0000
0000
1001
0000
,
2010
0000
0000
0001
0000
0000
3010
0000
0102
0000
0000
1000
0000
0000
0103
0000
,
0021
0000
0000
0100
0000
0000
0031
0000
1100
0000
0000
0010
0100
0000
0001
1000
,
0002
0000
0000
0010
0000
0000
0103
0000
1010
0000
1000
0000
0001
0100
0010
1000
,
0001
0000
0000
0011
0000
0000
1001
0000
0000
0000
0010
1000
0001
0100
0010
1000
,
0001
0000
1000
0100
0000
0010
0001
0000
0000
0000
0010
0000
0100
0000
1000
0000
,
0001
0000
0010
0100
0000
1000
0010
0000
0000
0000
0100
0000
0001
0000
0001
1000
,
0001
0000
0000
0011
0000
0000
1010
0000
0000
0000
0100
0000
0010
0000
0100
0000
,
1000
0000
0000
0101
0000
0000
1001
0000
0000
0000
0001
0100
0000
0010
1000
0001
,
0200
0000
0000
1000
0000
0000
0310
0000
1000
0000
0001
0000
0010
0000
0100
1000
,
0002
0000
0000
0010
0000
0000
0103
0000
0010
0000
1000
0000
0001
0000
1000
0100
,
0010
0000
0000
0011
0000
0000
1000
0000
0010
0000
0000
0000
1010
0000
0000
0000
,
0101
0000
0000
1001
0000
0000
0100
0000
0010
0000
0000
1001
0000
0000
0010
0000
,
0100
0001
1000
0010
0100
0001
1000
0010
0100
0000
0000
0002
0000
0000
0010
0000
,
0000
0000
1003
0000
0010
0000
0001
0000
0100
0000
0000
0010
0000
0020
1000
0000
,
0130
0001
1000
0100
0010
0001
1000
0010
0200
0000
0000
0001
0000
0000
0310
0000
,
0000
0000
0001
0000
1000
0000
0010
0000
0101
0000
0000
1100
0000
0000
1001
0000
,
0000
1000
0010
0000
0100
0000
0010
0000
1001
0000
0100
M010
0001
0000
1000
0010
,
0000
0100
0001
0000
10M0
0000
0001
0000
0100
0000
0010
1000
0001
0100
0010
0000
,
100M
0000
0100
0000
0001
0000
0100
00M0
1000
0000
0001
0010
0100
0010
0001
1M00
,
0001
0000
0100
0000
0010
0000
1000
000M
0100
0000
0010
0001
1000
0000
00M1
0000
,
0100
0000
1001
0000
0M00
1000
0001
0010
0100
0000
1000
00M1
0100
0000
0010
1000
,
0000
0001
0010
M000
0100
0000
1000
000M
0010
0000
1000
0001
0100
0000
M000
0101
,
0000
0000
11M0
0000
0000
0000
1001
0000
0100
0000
M010
0001
0100
0001
0010
0000
,
0001
0000
01M0
0000
1000
0000
010M
0000
0010
0000
1000
0M01
0000
1000
0100
0000
,
0010
0000
1001
0000
00M0
1000
0001
0100
0010
0000
1000
0100
0010
0001
0100
0000
,
0010
0000
0100
0000
0001
0000
1000
0000
0001
0000
0010
0100
1000
0001
0100
0000
,
0010
0000
1000
0000
0001
0000
0100
0000
0001
0000
0010
0001
1000
0100
0010
0000
,
0001
0000
0100
0000
0001
0000
0010
0100
1000
0000
1000
0000
0001
0000
0100
0010
,
0100
0000
0000
0110
0000
0000
1001
0000
1010
0000
0000
1000
0010
0000
0100
0000
,
0002
0000
0100
0000
0100
0000
0103
0000
0001
0000
0000
0010
0100
0000
1000
0000
,
0020
0000
0100
0000
0100
0000
0130
0010
0100
0000
0000
0001
1000
0000
0200
0000
,
0000
0000
0310
0010
0100
0000
1000
0000
0010
0000
0000
0011
0000
0000
1010
0000
,
1000
0000
0001
0010
0100
1000
0001
1000
0100
0010
0000
0001
0000
1000
0010
0000
,
0000
0000
0100
0001
1000
0000
0001
0000
0010
0100
1000
0001
0000
0010
0100
0000
,
1000
0000
0010
0000
1000
0000
0100
0000
0010
0000
0001
0100
0000
0001
0100
0010
,
1000
0100
0010
0001
1000
0000
0001
0000
0100
0000
0000
0110
0000
1000
0010
0000
,
0000
0000
1000
0000
1000
0100
0010
0001
0100
0000
0010
1000
0000
0001
0010
0000
,
0000
0000
0100
1000
0001
0000
1000
0000
0100
0010
0001
0100
0000
0010
1000
0000
,
0000
0000
0001
0001
0010
0000
0100
0000
1000
0000
1000
0010
0000
0100
0001
0000
,
0001
0000
1000
0000
0100
1000
0100
0010
0001
0000
0000
1010
0000
0000
0110
0000
,
0001
0000
1000
0000
0100
0000
0010
0000
0102
0000
0000
0010
0000
0000
0103
0000
,
0000
0000
0010
0000
0000
0000
1000
0000
2100
0000
0000
0010
0000
0000
3100
0000
,
0000
0000
0010
0000
0100
0000
0010
0000
1000
0000
0000
0001
0000
0000
0101
0000
,
0000
0000
0100
0000
0000
0000
0010
0000
1000
0000
0000
0001
0000
0000
0100
0000
,
0000
0000
1001
0000
0000
1000
0100
0010
0001
0000
0000
0010
0000
0000
1100
0000
,
0000
0000
0100
0000
0010
0000
0100
0000
1000
0000
0000
0010
0000
0000
0101
0000
,
0000
0000
0001
0000
0010
0000
0001
0000
1000
0000
0000
0010
0000
0000
0110
0000
,
0000
0000
1000
0000
0001
0000
0100
0000
1001
0000
0000
0110
0000
0000
1001
0001
,
0010
0100
1000
2002
0000
0000
0000
0000
,
3003
0000
0000
0000
,
0000
0000
0000
0000
,
0000
0000
0000
0000
,
MMMM
0000
0000
0000
;

//---------------dance-single - ----------------
#NOTES:
     dance-single:
     :
     Hard:
     8:
     0.507757,0.620164,0.359515,0.212441,0.371772,435.000000,391.000000,44.000000,26.000000,0.000000,0.000000,0.507757,0.620164,0.359515,0.212441,0.371772,435.000000,391.000000,44.000000,26.000000,0.000000,0.000000:
0000
0000
0000
0000
,
0000
0000
0000
0000
,
0000
0000
0000
0000
,
0000
0000
0000
0000
,
0000
0000
0001
0000
0000
1000
0000
0000
0020
0000
0000
0000
0100
0000
0000
0100
,
0000
0000
0130
0000
0000
0001
0000
0000
1000
0000
0100
0000
0000
0010
0000
0000
,
0100
0000
1000
0000
0000
0001
0000
0000
0020
0000
0000
0000
0130
0000
1000
0000
,
0010
0000
0100
0000
0000
0001
0000
0000
1001
0000
0000
0000
0110
0000
0000
0000
,
1001
0000
0000
0001
1000
0000
0020
0000
0000
0000
1030
0000
0001
0000
1000
0000
,
0001
0000
0000
0001
0100
0000
0020
0000
0000
0000
1030
0000
0010
0000
0100
0000
,
0001
0000
0000
1000
0000
0000
0100
0000
0010
0000
0100
0000
1000
0000
0000
0000
,
0001
0000
0000
1000
0100
0000
0010
0000
0000
0000
0100
0000
1000
0000
0001
0000
,
1000
0000
0000
1000
0010
0000
0100
0000
0000
0100
0010
0000
1000
0000
0000
0000
,
0001
0000
0000
0001
0100
0000
0010
0000
0000
0000
1000
0000
0100
0000
1000
0000
,
0010
0000
0000
0100
0010
0000
1000
0000
0000
0001
1000
0000
0001
0000
0000
0000
,
0010
0000
0000
0100
0000
0000
0010
0000
0000
0000
0110
0000
0000
0000
0100
0000
,
2000
0000
0000
0001
0000
0000
3100
0000
0000
0000
0010
0000
0100
0000
0010
0000
,
2000
0000
0000
0010
0000
0000
3001
0000
0000
0000
1000
0000
0001
0000
0100
0000
,
0002
0000
0000
0010
0000
0000
1003
0000
0000
0000
0100
0000
0010
0000
0100
0000
,
1000
0000
0001
0000
1000
0000
0010
0000
1000
0000
0000
0100
0000
0000
0010
0000
,
0001
0000
0000
1000
0000
1000
0020
0000
0000
0000
0030
0000
0100
0000
0001
0000
,
0100
0000
0000
0010
0000
0010
2000
0000
0000
0000
3001
0000
0010
0000
0100
0000
,
1000
0000
0000
0010
0000
0100
0002
0000
0000
0000
0013
0000
0100
0000
0010
0000
,
0001
0000
0000
1000
0000
0100
0020
0000
0000
0000
0031
0000
0100
0000
0000
0000
,
0010
0000
0000
0100
0000
0100
0002
0000
0000
0000
1003
0000
0100
0000
1000
0000
,
0001
0000
0000
1000
0000
1000
0200
0000
0000
0000
0310
0000
0001
0000
0010
0000
,
0100
0000
0000
1000
0000
0010
0200
0000
0000
0000
0301
0000
1000
0000
0010
0000
,
0100
0000
0000
0001
0000
0001
0020
0000
0000
0000
0130
0000
1000
0000
0001
0010
,
0100
0000
0000
0010
0000
0000
1001
0000
0000
0000
0100
0000
0010
0000
0100
0000
,
1000
0000
0000
0001
0000
0000
1000
0000
0000
0000
0010
0000
1000
0000
0001
0000
,
0010
0000
0000
0001
0000
0000
0100
0000
0010
0000
0000
0000
1000
0000
0000
0000
,
0001
0000
0000
0011
0000
0000
1001
0000
1000
0000
0000
1100
0000
0000
0011
0000
,
0000
0000
0000
0000
0000
0000
0000
0000
1000
0000
0000
1000
0010
0000
1000
0000
,
0000
0000
0001
0000
0000
0000
1000
0000
0001
0000
0000
0001
0010
0000
0001
0000
,
0000
0000
1000
0000
0000
0000
0001
0000
1000
0000
0000
1000
0100
0000
1000
0000
,
0000
0000
0001
0000
0100
0000
0001
0000
1000
0000
0000
0001
0000
0000
0101
0000
,
0000
0000
0000
0000
0010
0100
0010
0100
0010
0000
0000
1010
0000
0000
0110
0000
,
0000
0000
1000
0000
0000
0000
0100
0000
1000
0000
0000
1100
0000
0000
0110
0000
,
0000
0000
0001
0000
0000
0000
1000
0000
0001
0000
0000
0011
0000
0000
1001
0000
,
0000
0000
0100
0000
0000
0000
0010
0000
0100
0000
0000
1010
0000
0000
1001
0000
,
0000
0000
0000
0000
0010
0000
0000
0000
1001
0000
0000
1010
0000
0000
1001
0000
,
0000
0000
0000
0000
0011
0000
0000
0000
1001
0000
0000
0101
0000
0000
1001
0000
,
0000
0000
0000
0000
1100
0000
0000
0000
0010
0000
0000
1000
0000
0000
0100
0000
,
0000
0000
0000
0000
0101
0000
0000
0000
0010
0000
0000
0001
0000
0000
0100
0000
,
0000
0000
0000
0000
1100
0000
0000
0000
0002
0000
0000
1000
0000
0000
0020
0000
,
0000
0000
0033
0000
1001
0000
0000
0000
0001
0000
0000
2000
0000
0000
0020
0000
,
0000
0000
3030
0000
1010
0000
0000
0000
1001
0000
0000
0100
0010
0000
1000
0000
,
0000
0001
1000
0100
0010
0100
0010
0010
,
0001
0000
0000
0100
0000
0000
0010
0000
2000
0000
0000
0010
0000
0000
0100
0000
,
0000
0000
0001
0000
3001
0000
0000
0000
0201
0000
0000
0010
0000
0000
1000
0000
,
0000
0000
0001
0000
0301
0000
0000
0000
0021
0000
0000
0100
0000
0000
0001
0000
,
0000
0000
0100
0000
0130
0000
0000
0000
1000
0000
0000
0100
0000
0000
0001
0000
,
0000
0000
0010
0000
0100
0000
0000
0000
0010
0001
0000
1000
0000
0001
0100
0000
,
0000
0000
0010
0000
1000
0000
0100
0000
1000
0001
0000
0100
0000
0010
1000
0000
,
0001
0000
1000
0000
0010
0000
0100
0000
0001
0000
0010
0100
0000
0010
0100
0000
,
1000
0000
0001
0000
0100
0000
0010
0000
1000
0000
0000
0100
0000
0100
0010
0000
,
0000
0000
0000
0000
0001
0000
1000
0000
0100
0000
0100
1000
0000
1000
0010
0000
,
0000
0000
1000
0000
0010
0000
0100
0000
0001
0000
0001
0010
0000
0010
0100
0000
,
0000
0000
0010
0000
0001
0000
1000
0000
0010
0000
0010
1000
0000
1000
0100
0000
,
0010
0000
0001
0000
1000
0001
1000
0001
1000
0000
0000
1010
0000
0000
1001
0000
,
0001
0000
0010
0000
0100
0000
1000
0000
2100
0000
0000
0010
0000
0000
3100
0000
,
0000
0000
0010
0000
0000
0000
0001
0000
0102
0000
0000
0010
0000
0000
0103
0000
,
0000
0000
0010
0000
0100
0000
0010
0000
0001
0000
0000
1000
0000
0000
1010
0000
,
0000
0000
0001
0000
0000
0000
0010
0000
0100
0000
0000
1000
0000
0000
0001
0000
,
0000
0000
1001
0000
0000
0000
0001
0000
0100
0000
0000
0010
0000
0000
1010
0000
,
0000
0000
1000
0000
0010
0000
0100
0000
0001
0000
0000
0010
0000
0000
0110
0000
,
0000
0000
1000
0000
0100
0000
1000
0000
0001
0000
0000
0010
0000
0000
0110
0000
,
0000
0000
0001
0000
1000
0000
0100
0000
1000
0000
0000
0001
0000
0000
1001
0000
,
0000
0100
0010
2002
0000
0000
0000
0000
,
3003
0000
0000
0000
;

//---------------dance-single - ----------------
#NOTES:
     dance-single:
     :
     Medium:
     6:
     0.374690,0.394650,0.089879,0.138904,0.110306,321.000000,310.000000,11.000000,17.000000,0.000000,0.000000,0.374690,0.394650,0.089879,0.138904,0.110306,321.000000,310.000000,11.000000,17.000000,0.000000,0.000000:
0000
0000
0000
0000
,
0000
0000
0000
0000
,
0000
0000
0000
0000
,
0000
0000
0000
0000
,
0000
1000
0000
0001
0000
0100
0000
0010
,
0000
1000
0000
0010
0100
0001
0000
0010
,
0000
0100
0000
1000
0000
0001
0000
0010
,
0000
0000
0100
0000
0000
1000
0000
0000
0001
0000
0000
0000
1001
0000
0000
0000
,
0010
0000
1000
0002
0000
0000
0013
0000
,
0100
0000
1000
0000
0001
1000
0100
0000
,
0010
0000
0000
0001
0000
0000
0100
0000
0002
0000
0000
0000
0103
0000
0000
0000
,
0010
1000
0100
0010
,
0001
0000
1000
0100
0000
0010
0002
0000
,
1003
0001
0100
0010
,
1000
0000
0010
0100
0000
0001
0020
0000
,
0130
0000
1000
0000
0001
1000
0100
0000
,
0010
0000
0001
2000
0000
3000
1001
0000
,
0010
0000
1000
0000
0001
0000
1000
0001
,
0100
0010
0100
0001
,
0010
0000
0000
0000
0100
0000
0000
0000
1000
0000
0000
0001
0000
0000
1000
0000
,
0010
0000
0100
0002
0000
0003
1001
0000
,
0010
0000
0100
2000
0000
0000
3001
0000
,
0010
0000
0001
2000
0000
3010
0100
0000
,
0001
0000
0000
1000
0000
0000
0200
0000
0000
0000
0310
0000
0001
0000
0000
0000
,
1000
0000
0000
0001
0000
0000
0200
0000
0000
0000
0000
0000
0310
0000
0000
0000
,
1000
0000
0000
0001
0000
0000
0020
0000
0000
0000
0000
0000
0130
0000
0000
0000
,
0010
0000
0000
0001
0000
0000
0200
0000
0000
0000
0000
0000
0301
0000
0000
0000
,
1000
0000
0000
0010
0000
0000
0200
0000
0000
0000
0000
0000
0310
0000
0000
0000
,
1000
0000
0000
0100
0000
0000
0020
0000
0000
0000
0000
0000
0031
0000
0000
0000
,
1000
0000
0000
0001
0000
0000
0200
0000
0000
0000
0000
0000
0310
0000
0000
0000
,
1000
0000
0000
0100
0000
0000
0010
0000
0001
0000
0000
0000
1000
0000
0000
0000
,
0001
0000
0000
0100
0000
0000
0010
0000
1000
0000
0000
0010
0000
0000
1001
0000
,
0000
0000
0000
0000
0000
0000
0000
0000
0010
0000
0000
0001
0000
0000
1000
0000
,
0000
0000
0001
0000
0000
0000
0000
0000
0010
0000
0000
0100
0000
0000
1000
0000
,
0000
0000
0100
0000
0000
0000
0000
0000
1000
0000
0000
0001
0000
0000
0100
0000
,
0000
0000
0000
0000
0010
0000
0000
0000
1000
0000
0000
0010
0000
0000
0001
0000
,
0000
1001
1000
0001
,
1000
0010
0100
0001
0010
0000
0100
0000
,
0010
0001
1000
0100
0010
0000
0001
0000
,
0100
0001
1000
0100
1000
0000
0001
0000
,
0010
0001
1000
0010
0100
0000
0010
0000
,
1000
0100
0010
0001
0100
0000
0001
0000
,
1000
0010
0100
0010
1000
0000
0001
0000
,
0010
0100
1000
0001
0100
0000
0010
0000
,
0100
0001
0010
0001
0100
0000
0010
0000
,
1000
0010
0100
0000
0001
0010
1000
0000
,
0010
0001
0100
0000
1000
0100
1000
0000
,
0001
0100
0001
0000
1000
0010
0100
0001
,
0010
0000
0000
0100
0000
0000
0010
0000
0001
0000
0000
0000
1001
0000
0000
0000
,
0010
0000
0001
1000
0001
0000
1100
0000
,
1000
0000
0001
1000
0010
0000
1001
0000
,
0010
0100
0001
0000
1000
0000
0101
0000
,
0001
0000
0010
0000
1000
0000
0000
0000
0010
0000
0000
0100
0000
0000
0001
0000
,
0000
0000
1000
0000
0100
0000
0000
0000
0010
0000
0000
0100
0000
0000
1000
0000
,
0001
0000
0010
0000
0001
0000
0000
0000
1000
0000
0000
0001
0000
0000
0100
0000
,
0010
0000
1000
0000
0010
0000
0000
0000
0100
0000
0000
0001
0000
0000
0010
0000
,
0000
0000
0000
0000
0100
0000
0000
0000
1000
0000
0000
0001
0000
0000
1000
0000
,
0000
0000
0000
0000
0010
0000
0000
0000
0100
0000
0000
0001
0000
0000
0010
0000
,
0000
0000
0000
0000
0001
0000
0000
0000
1000
0000
0000
0100
0000
0000
0010
0000
,
0001
0000
0000
0000
1000
0000
0000
0000
0001
0000
0000
0100
0000
0000
0010
0000
,
1000
0010
0100
0001
1000
0000
0100
0000
,
0001
0100
1000
0001
,
1000
0010
0100
0000
0001
0000
1000
0000
,
0001
0010
0100
1000
,
0001
0010
0001
0000
1000
0000
0001
0000
,
0100
0010
1000
0001
,
0010
0000
1000
0001
0100
0000
0010
0000
,
0100
0000
0000
0000
0001
0000
0000
0000
1000
0000
0000
0001
0000
0000
0100
0000
,
0000
0110
0000
2002
0000
0000
0000
0000
,
3003
0000
0000
0000
;

//---------------dance-single - ----------------
#NOTES:
     dance-single:
     :
     Easy:
     5:
     0.318661,0.338271,0.122562,0.147074,0.032683,273.000000,258.000000,15.000000,18.000000,0.000000,0.000000,0.318661,0.338271,0.122562,0.147074,0.032683,273.000000,258.000000,15.000000,18.000000,0.000000,0.000000:
// measure 0
0000
0000
0000
0000
,  // measure 1
0000
0000
0000
0000
,  // measure 2
0000
0000
0000
0000
,  // measure 3
0000
0000
0000
0000
,  // measure 4
0000
1000
0000
0100
0000
0001
0000
0000
,  // measure 5
0000
0010
0000
0001
0000
0100
0000
0010
,  // measure 6
0000
1000
0000
0001
0000
0010
0000
0000
,  // measure 7
0000
0000
0100
0000
0000
0100
0000
0000
0100
0000
0000
0000
0000
0000
0000
0000
,  // measure 8
1001
1000
0001
0100
,  // measure 9
0010
1000
0100
0010
,  // measure 10
0001
1000
0010
0001
,  // measure 11
0010
1000
0001
1000
,  // measure 12
1001
0001
0100
0010
,  // measure 13
1000
0100
0010
0100
,  // measure 14
1000
0010
0100
0001
,  // measure 15
0010
0100
1000
0100
,  // measure 16
0001
0100
0010
0100
,  // measure 17
0001
0100
1000
0100
,  // measure 18
0001
0010
0100
1000
,  // measure 19
0010
0000
0000
0000
0001
0000
0000
0000
0010
0000
0000
0010
0000
0000
0010
0000
,  // measure 20
0100
1000
0001
1000
,  // measure 21
0010
0100
0001
1001
,  // measure 22
0010
0001
0100
0010
,  // measure 23
1000
0001
0100
1001
,  // measure 24
0010
1000
0010
1001
,  // measure 25
0010
0100
0010
1001
,  // measure 26
0010
0001
0010
1001
,  // measure 27
0100
0001
1000
1001
,  // measure 28
0010
0100
0010
1001
,  // measure 29
0100
0001
0100
1001
,  // measure 30
0010
0001
0100
0010
,  // measure 31
1000
0000
0000
1000
0000
0000
1000
0000
0001
0000
0000
0001
0000
0000
0001
0000
,  // measure 32
0000
0000
0200
0000
,  // measure 33
0301
0100
0002
0000
,  // measure 34
0013
0100
2000
0000
,  // measure 35
3010
0000
0000
0000
1000
0000
0000
0000
0001
0000
0000
0001
0000
0000
0001
0000
,  // measure 36
0000
1001
1000
0002
,  // measure 37
1003
0100
0010
0002
,  // measure 38
0013
1000
0001
2000
,  // measure 39
3100
0010
0100
0002
,  // measure 40
1003
0010
0001
0020
,  // measure 41
0130
1000
0001
0200
,  // measure 42
0310
1000
0001
0020
,  // measure 43
0130
0001
0100
2000
,  // measure 44
3001
0010
0100
0020
,  // measure 45
0031
0100
0010
2000
,  // measure 46
3100
0001
0010
0200
,  // measure 47
0310
0001
1000
0001
,  // measure 48
0100
0000
0000
0100
0000
0000
0100
0000
0010
0000
0000
0000
1000
0000
0000
0000
,  // measure 49
0001
1001
0010
0001
,  // measure 50
0100
1001
0010
0001
,  // measure 51
1000
1000
1000
0000
0001
0000
0100
0000
,  // measure 52
0010
1000
0100
0010
,  // measure 53
0001
0000
0100
0100
0100
0000
0001
0000
,  // measure 54
0010
0100
0010
0001
,  // measure 55
1000
0001
0100
0010
,  // measure 56
1000
0001
0010
0100
,  // measure 57
0010
0000
0001
0001
0001
0000
0100
0000
,  // measure 58
0010
0000
1000
1000
1000
0000
0001
0000
,  // measure 59
0010
0000
0000
0000
0100
0000
0000
0000
1000
0000
0000
1000
0000
0000
1000
0000
,  // measure 60
0001
0001
0001
0000
2002
0000
0000
0000
,  // measure 61
3003
0100
0001
0100
,  // measure 62
1000
0100
0010
0100
,  // measure 63
1000
0100
0001
0100
,  // measure 64
1000
0100
0001
0010
,  // measure 65
0100
0010
0001
1000
,  // measure 66
0010
0001
0010
1000
,  // measure 67
0100
0000
0000
0000
0010
0000
0000
0000
0001
0000
0000
0001
0000
0000
0001
0000
,  // measure 68
0000
0000
0000
2002
0000
0000
0000
0000
,  // measure 69
3003
0000
0000
0000
;

//---------------dance-single - ----------------
#NOTES:
     dance-single:
     :
     Beginner:
     2:
     0.156412,0.197325,0.016342,0.049025,0.000000,134.000000,132.000000,2.000000,6.000000,0.000000,0.000000,0.156412,0.197325,0.016342,0.049025,0.000000,134.000000,132.000000,2.000000,6.000000,0.000000,0.000000:
// measure 0
0000
0000
0000
0000
,  // measure 1
0000
0000
0000
0000
,  // measure 2
0000
0000
0000
0000
,  // measure 3
0000
0000
0000
0000
,  // measure 4
0000
0001
0000
0000
0000
0000
0000
0000
,  // measure 5
0000
0010
0000
0000
0000
0100
0000
0000
,  // measure 6
0000
1000
0000
0000
0000
0000
0000
0000
,  // measure 7
0000
0001
0000
0000
0000
0000
0000
0000
,  // measure 8
0000
0100
0000
0100
,  // measure 9
0000
0100
0000
0100
,  // measure 10
0000
0001
0000
0001
,  // measure 11
0000
0001
0000
0010
,  // measure 12
0010
0010
0000
0100
,  // measure 13
0000
0100
0000
0100
,  // measure 14
0100
0100
0000
1000
,  // measure 15
0000
1000
0000
1000
,  // measure 16
1000
1000
0000
0010
,  // measure 17
0000
0001
0000
0010
,  // measure 18
0010
0010
0000
0100
,  // measure 19
0100
0100
0100
0000
,  // measure 20
1000
0000
0001
0000
,  // measure 21
1000
0000
0001
0000
,  // measure 22
0010
0000
0001
0000
,  // measure 23
0100
0000
1000
0000
,  // measure 24
0001
0000
1000
0000
,  // measure 25
0001
0000
1000
0000
,  // measure 26
0010
0000
0001
0000
,  // measure 27
0010
0000
1000
0000
,  // measure 28
0001
0000
0100
0000
,  // measure 29
0001
0000
0100
0000
,  // measure 30
1000
0000
0100
0000
,  // measure 31
1000
0000
0100
0000
,  // measure 32
0010
0000
0010
0000
,  // measure 33
0000
0000
0001
0000
,  // measure 34
0000
0000
1000
0000
,  // measure 35
0000
0000
0100
0000
,  // measure 36
0000
1001
0000
0100
,  // measure 37
0000
0001
0000
1000
,  // measure 38
0000
0010
0000
0100
,  // measure 39
0000
0010
0000
1000
,  // measure 40
0000
0001
0000
0010
,  // measure 41
0000
0100
0000
0010
,  // measure 42
0000
0100
0000
1000
,  // measure 43
0000
0001
0000
0100
,  // measure 44
0000
0010
0010
0010
,  // measure 45
0000
1000
0000
0001
,  // measure 46
0000
0010
0010
0010
,  // measure 47
0000
0100
0000
0100
,  // measure 48
0100
0000
1000
0000
,  // measure 49
0100
0000
0001
0000
,  // measure 50
0100
0000
0010
0000
,  // measure 51
0001
0000
0010
0000
,  // measure 52
1000
0000
0001
0000
,  // measure 53
1000
0000
0010
0000
,  // measure 54
0100
0100
0100
0000
,  // measure 55
0001
0000
0010
0010
,  // measure 56
0010
0000
0100
0100
,  // measure 57
0100
0000
1000
1000
,  // measure 58
1000
0000
0001
0001
,  // measure 59
0001
0000
0100
0000
,  // measure 60
0010
0010
0020
0000
,  // measure 61
0030
0000
2000
0000
,  // measure 62
3000
0000
0002
0000
,  // measure 63
0003
0000
0200
0000
,  // measure 64
0300
0000
0000
0001
,  // measure 65
0000
0001
0000
1000
,  // measure 66
0000
1000
0000
0010
,  // measure 67
0000
0010
0010
0000
,  // measure 68
0000
0000
0000
2002
0000
0000
0000
0000
,  // measure 69
3003
0000
0000
0000
;
